osu file format v14

[General]
AudioFilename: audio.mp3
AudioLeadIn: 0
PreviewTime: 61327
Countdown: 0
SampleSet: Soft
StackLeniency: 0.7
Mode: 0
LetterboxInBreaks: 0
WidescreenStoryboard: 0

[Editor]
DistanceSpacing: 1.1
BeatDivisor: 2
GridSize: 4
TimelineZoom: 1.2

[Metadata]
Title:Caste Room
TitleUnicode:カーストルーム
Artist:ZAQ
ArtistUnicode:ZAQ
Creator:Garden
Version:Easy
Source:ようこそ実力至上主義の教室へ
Tags:CoLouRed GlaZeE Youkoso Jitsuryoku Shijou Shugi no Kyoushitsu e classroom of the elite opening tvsize
BeatmapID:1382125
BeatmapSetID:651755

[Difficulty]
HPDrainRate:2
CircleSize:3
OverallDifficulty:2
ApproachRate:3
SliderMultiplier:0.8
SliderTickRate:1

[Events]
//Background and Video events
0,0,"waifu.jpg",0,0
Video,0,"optc.flv"
//Break Periods
2,21719,25464
//Storyboard Layer 0 (Background)
//Storyboard Layer 1 (Fail)
//Storyboard Layer 2 (Pass)
//Storyboard Layer 3 (Foreground)
//Storyboard Sound Samples

[TimingPoints]
-19,384.615384615385,4,2,1,60,1,0
58442,-100,4,2,1,70,0,0
61519,-100,4,2,1,80,0,1
84404,-100,4,2,1,70,0,0
88634,-100,4,2,1,10,0,0

[Colours]
Combo1 : 255,117,255
Combo2 : 255,255,121
Combo3 : 255,193,224
Combo4 : 255,164,119
SliderBorder : 100,150,200
SliderTrackOverride : 30,50,50

[HitObjects]
118,82,11904,5,8,0:1:0:0:
188,135,12288,6,0,P|208:176|210:225,1,80,4|0,0:0|1:0,0:0:0:0:
159,281,13057,2,0,L|36:294,2,120,0|2|0,1:0|0:0|1:0,0:0:0:0:
234,326,14596,2,0,P|279:332|324:317,1,80,0|8,1:0|0:0,0:0:0:0:
372,259,15365,5,0,1:0:0:0:
453,292,15750,1,0,1:0:0:0:
502,219,16134,2,0,L|510:112,1,80,0|4,1:0|0:0,0:0:0:0:
367,33,17288,2,0,L|377:116,1,80,4|0,0:0|1:0,0:0:0:0:
353,197,18057,1,8,0:0:0:0:
388,277,18442,6,0,P|397:317|381:375,1,80,4|0,1:2|1:0,0:0:0:0:
303,368,19211,2,0,P|251:345|179:359,1,120,4|0,1:2|1:0,0:0:0:0:
256,192,19981,12,2,21519,1:3:0:0:
369,203,26904,5,4,1:3:0:0:
421,132,27288,1,8,1:3:0:0:
391,48,27673,6,0,L|310:40,1,80,0|10,1:0|0:0,0:0:0:0:
238,89,28442,2,0,L|151:102,1,80,0|10,0:0|0:0,0:0:0:0:
84,147,29211,2,0,P|96:181|90:233,1,80,0|10,1:0|0:0,0:0:0:0:
30,286,29981,2,0,P|17:333|24:374,1,80,0|10,0:0|0:0,0:0:0:0:
103,333,30750,5,4,1:0:0:0:
186,359,31134,1,0,1:0:0:0:
267,326,31519,2,0,L|375:321,1,80,0|0,1:0|1:0,0:0:0:0:
418,373,32288,6,0,B|396:319|396:319|414:233,1,120,4|12,1:0|1:0,0:0:0:0:
494,55,33827,6,0,P|437:97|328:87,1,160,4|2,0:0|1:2,0:0:0:0:
277,47,34981,1,8,1:2:0:0:
236,124,35365,2,0,L|228:295,1,160,0|0,1:0|1:0,0:0:0:0:
186,361,36519,2,0,P|146:373|83:367,1,80,8|0,1:2|1:0,0:0:0:0:
26,341,37288,5,0,1:0:0:0:
60,259,37673,2,0,P|52:195|40:120,2,120,0|2|0,1:0|0:0|1:0,0:0:0:0:
143,288,39211,2,0,P|189:281|238:256,1,80,2|8,1:2|0:0,0:0:0:0:
285,208,39981,5,4,0:0:0:0:
371,225,40365,1,8,1:2:0:0:
443,175,40750,2,0,L|448:94,1,80,2|8,1:2|1:2,0:0:0:0:
418,12,41519,2,0,L|237:27,1,160,0|0,1:0|1:0,0:0:0:0:
198,89,42673,1,8,0:0:0:0:
112,70,43057,6,0,P|25:94|15:179,1,160,0|0,1:0|1:0,0:0:0:0:
28,239,44211,1,8,1:2:0:0:
108,202,44596,2,0,P|153:189|211:193,1,80,0|8,1:0|1:2,0:0:0:0:
270,214,45365,1,0,1:0:0:0:
251,300,45750,1,8,0:1:0:0:
316,358,46134,6,0,B|405:380|383:329|498:358,2,160,4|2|2,1:2|1:3|1:3,0:0:0:0:
151,295,48442,1,2,1:3:0:0:
291,189,49211,6,0,L|278:4,2,160,0|2|4,1:0|1:3|1:2,0:0:0:0:
230,253,51134,1,0,0:0:0:0:
150,214,51519,2,0,L|58:203,1,80,2|4,1:2|1:3,0:0:0:0:
39,122,52288,6,0,P|99:75|204:88,1,160,2|4,1:2|1:2,0:0:0:0:
146,248,53827,2,0,P|227:256|302:198,1,160,2|4,1:3|1:2,0:0:0:0:
466,204,55365,6,0,P|461:244|461:293,2,80,4|8|2,0:0|0:0|0:3,0:0:0:0:
476,117,56519,1,8,0:0:0:0:
414,53,56904,2,0,P|346:90|237:75,1,160,2|2,0:3|0:3,0:0:0:0:
182,57,58057,1,8,0:0:0:0:
118,118,58442,6,0,P|126:156|132:201,1,80,2|2,1:3|1:3,0:0:0:0:
110,282,59211,2,0,P|158:293|219:310,1,80,2|2,1:3|1:3,0:0:0:0:
272,326,59981,1,2,1:3:0:0:
348,282,60365,1,2,1:3:0:0:
369,196,60750,2,0,B|375:166|375:166|368:135,1,60,4|8,1:0|1:0,0:0:0:0:
314,40,61519,6,0,P|257:27|185:47,2,120,6|2|8,1:2|0:0|1:0,0:0:0:0:
380,98,63057,2,0,L|377:192,1,80,0|8,0:0|1:0,0:0:0:0:
333,254,63827,1,2,1:2:0:0:
251,220,64211,1,8,1:0:0:0:
187,280,64596,6,0,P|123:300|47:278,1,120,0|0,1:0|0:0,0:0:0:0:
1,238,65557,1,2,0:0:0:0:
57,170,65942,2,0,P|58:90|40:13,1,160,4|2,1:2|0:0,0:0:0:0:
151,83,67288,1,8,1:0:0:0:
226,37,67673,6,0,L|322:40,1,80,2|8,1:2|1:0,0:0:0:0:
309,127,68442,2,0,L|202:125,1,80,0|8,1:0|1:0,0:0:0:0:
151,83,69211,2,0,L|53:80,2,80,0|8|0,1:0|1:0|1:0,0:0:0:0:
226,37,70365,1,8,1:0:0:0:
296,89,70750,6,0,L|400:94,1,80,0|8,1:0|1:0,0:0:0:0:
455,54,71519,2,0,B|466:95|466:95|453:132|453:132|466:187,1,120,0|4,1:0|1:2,0:0:0:0:
421,248,72481,1,2,0:0:0:0:
477,315,72865,2,0,B|399:294|399:294|344:321,1,120,4|0,1:2|1:0,0:0:0:0:
293,365,73827,6,0,P|220:369|172:305,1,160,6|0,1:2|1:0,0:0:0:0:
192,219,74981,1,8,1:0:0:0:
138,149,75365,2,0,L|46:161,2,80,0|8|2,0:0|1:0|1:2,0:0:0:0:
225,140,76519,1,8,1:0:0:0:
301,183,76904,6,0,P|376:184|427:143,1,120,0|0,1:0|0:0,0:0:0:0:
457,86,77865,1,2,0:0:0:0:
414,8,78250,2,0,L|250:23,1,160,4|0,1:2|0:0,0:0:0:0:
345,118,79596,1,4,1:2:0:0:
297,192,79981,6,0,P|284:239|283:291,1,80,4|0,1:0|1:0,0:0:0:0:
356,317,80750,2,0,P|278:299|206:328,1,160,8|0,1:2|1:0,0:0:0:0:
137,383,81904,1,0,1:0:0:0:
53,355,82288,2,0,P|41:320|42:273,1,80,8|0,1:2|1:0,0:0:0:0:
70,193,83057,6,0,L|69:102,1,80,8|8,1:0|1:2,0:0:0:0:
156,133,83827,2,0,B|213:147|213:147|276:122,1,120,8|4,1:0|1:0,0:0:0:0:
76,20,85365,2,0,L|57:82,1,40,4|4,1:2|1:2,0:0:0:0:
44,189,86134,6,0,L|54:326,2,120,2|4|2,1:3|1:2|1:3,0:0:0:0:
110,130,87673,2,0,B|213:91|207:165|319:123,1,200,0|0,1:0|0:0,0:0:0:0:
