osu file format v14

[General]
AudioFilename: audio.mp3
AudioLeadIn: 0
PreviewTime: 61327
Countdown: 0
SampleSet: Soft
StackLeniency: 0.7
Mode: 0
LetterboxInBreaks: 0
WidescreenStoryboard: 0

[Editor]
DistanceSpacing: 0.8
BeatDivisor: 4
GridSize: 4
TimelineZoom: 1.4

[Metadata]
Title:Caste Room
TitleUnicode:カーストルーム
Artist:ZAQ
ArtistUnicode:ZAQ
Creator:Garden
Version:Challenger
Source:ようこそ実力至上主義の教室へ
Tags:CoLouRed GlaZeE Youkoso Jitsuryoku Shijou Shugi no Kyoushitsu e classroom of the elite opening tvsize
BeatmapID:1382127
BeatmapSetID:651755

[Difficulty]
HPDrainRate:6
CircleSize:3.8
OverallDifficulty:8
ApproachRate:9.2
SliderMultiplier:1.8
SliderTickRate:1

[Events]
//Background and Video events
Video,0,"optc.flv"
0,0,"2.jpg",0,0
//Break Periods
//Storyboard Layer 0 (Background)
//Storyboard Layer 1 (Fail)
//Storyboard Layer 2 (Pass)
//Storyboard Layer 3 (Foreground)
//Storyboard Sound Samples

[TimingPoints]
-19,384.615384615385,4,2,1,60,1,0
77,-133.333333333333,4,2,1,40,0,0
4404,-100,4,2,1,60,0,0
4981,-133.333333333333,4,2,1,60,0,0
5942,-80,4,2,1,60,0,0
6134,-117.647058823529,4,2,1,60,0,0
9981,-66.6666666666667,4,2,1,60,0,0
10750,-100,4,2,1,60,0,0
11327,-100,4,2,1,30,0,0
11519,-100,4,2,1,45,0,0
11615,-100,4,2,1,5,0,0
11711,-58.8235294117647,4,2,1,60,0,0
11904,-52.6315789473684,4,2,1,60,0,0
12192,-66.6666666666667,4,2,1,5,0,0
12288,-100,4,2,1,60,0,0
17000,-100,4,2,1,5,0,0
17096,-58.8235294117647,4,2,1,60,0,0
17288,-66.6666666666667,4,2,1,60,0,0
17577,-66.6666666666667,4,2,1,5,0,0
17673,-76.9230769230769,4,2,1,60,0,0
18442,-66.6666666666667,4,2,1,60,0,0
18731,-66.6666666666667,4,2,1,5,0,0
18827,-76.9230769230769,4,2,1,60,0,0
19019,-66.6666666666667,4,2,1,60,0,0
21519,-100,4,2,1,60,0,0
24211,-66.6666666666667,4,2,1,60,0,0
24356,-66.6666666666667,4,2,1,5,0,0
24404,-66.6666666666667,4,2,1,60,0,0
24548,-66.6666666666667,4,2,1,5,0,0
24596,-100,4,2,1,60,0,0
25942,-66.6666666666667,4,2,1,60,0,0
26086,-100,4,2,1,5,0,0
26134,-100,4,2,1,60,0,0
26904,-66.6666666666667,4,2,1,60,0,0
27384,-66.6666666666667,4,2,1,5,0,0
27481,-50,4,2,1,60,0,0
28057,-90.9090909090909,4,2,1,60,0,0
32288,-50,4,2,1,60,0,0
32481,-50,4,2,1,5,0,0
32577,-66.6666666666667,4,2,1,60,0,0
32769,-66.6666666666667,4,2,1,5,0,0
32865,-100,4,2,1,60,0,0
33250,-100,4,2,1,10,0,0
33442,-50,4,2,1,60,0,0
33634,-66.6666666666667,4,2,1,60,0,0
33827,-100,4,2,1,60,0,0
39788,-66.6666666666667,4,2,1,60,0,0
39981,-100,4,2,1,60,0,0
40269,-100,4,2,1,5,0,0
40365,-100,4,2,1,60,0,0
41038,-100,4,2,1,5,0,0
41134,-100,4,2,1,60,0,0
44500,-100,4,2,1,5,0,0
44596,-100,4,2,1,60,0,0
45557,-66.6666666666667,4,2,1,60,0,0
45750,-58.8235294117647,4,2,1,60,0,0
46038,-58.8235294117647,4,2,1,5,0,0
46134,-100,4,2,1,60,0,0
50750,-76.9230769230769,4,2,1,60,0,0
50942,-76.9230769230769,4,2,1,5,0,0
51038,-76.9230769230769,4,2,1,60,0,0
51231,-76.9230769230769,4,2,1,5,0,0
51327,-76.9230769230769,4,2,1,60,0,0
51423,-76.9230769230769,4,2,1,5,0,0
51519,-58.8235294117647,4,2,1,60,0,0
51807,-58.8235294117647,4,2,1,5,0,0
51904,-76.9230769230769,4,2,1,60,0,0
52192,-76.9230769230769,4,2,1,5,0,0
52288,-100,4,2,1,60,0,0
53057,-76.9230769230769,4,2,1,60,0,0
53346,-76.9230769230769,4,2,1,5,0,0
53442,-76.9230769230769,4,2,1,60,0,0
55365,-90.9090909090909,4,2,1,60,0,0
55654,-90.9090909090909,4,2,1,5,0,0
55750,-90.9090909090909,4,2,1,60,0,0
58442,-100,4,2,1,70,0,0
59981,-133.333333333333,4,2,1,70,0,0
60365,-66.6666666666667,4,2,1,70,0,0
60942,-66.6666666666667,4,2,1,5,0,0
61038,-50,4,2,1,70,0,0
61086,-50,4,2,1,5,0,0
61519,-83.3333333333333,4,2,1,80,0,1
63154,-83.3333333333333,4,2,1,5,0,1
63250,-83.3333333333333,4,2,1,80,0,1
66231,-83.3333333333333,4,2,1,5,0,1
66327,-83.3333333333333,4,2,1,80,0,1
71519,-66.6666666666667,4,2,1,80,0,1
71615,-66.6666666666667,4,2,1,10,0,1
71711,-66.6666666666667,4,2,1,80,0,1
71807,-66.6666666666667,4,2,1,10,0,1
71904,-66.6666666666667,4,2,1,80,0,1
72000,-66.6666666666667,4,2,1,10,0,1
72096,-83.3333333333333,4,2,1,80,0,1
72865,-74.0740740740741,4,2,1,80,0,1
73154,-83.3333333333333,4,2,1,5,0,1
73250,-83.3333333333333,4,2,1,80,0,1
75461,-83.3333333333333,4,2,1,5,0,1
75557,-83.3333333333333,4,2,1,80,0,1
78538,-83.3333333333333,4,2,1,5,0,1
78634,-83.3333333333333,4,2,1,80,0,1
79884,-83.3333333333333,4,2,1,5,0,1
79981,-83.3333333333333,4,2,1,80,0,1
80942,-83.3333333333333,4,2,1,5,0,1
81038,-83.3333333333333,4,2,1,80,0,1
81231,-83.3333333333333,4,2,1,5,0,1
81327,-83.3333333333333,4,2,1,80,0,1
81423,-83.3333333333333,4,2,1,5,0,1
81519,-83.3333333333333,4,2,1,80,0,1
82481,-83.3333333333333,4,2,1,5,0,1
82577,-83.3333333333333,4,2,1,80,0,1
82769,-83.3333333333333,4,2,1,5,0,1
82865,-83.3333333333333,4,2,1,80,0,1
82961,-83.3333333333333,4,2,1,5,0,1
83057,-83.3333333333333,4,2,1,70,0,1
83827,-83.3333333333333,4,2,1,60,0,1
84404,-90.9090909090909,4,2,1,70,0,0
87673,-133.333333333333,4,2,1,70,0,0
88634,-133.333333333333,4,2,1,10,0,0

[Colours]
Combo1 : 255,117,255
Combo2 : 255,255,121
Combo3 : 255,193,224
Combo4 : 255,164,119
SliderBorder : 100,150,200
SliderTrackOverride : 30,50,50

[HitObjects]
45,340,173,5,0,0:0:0:0:
146,227,365,2,0,P|136:262|130:302,1,67.5000025749208,2|0,0:0|0:0,0:0:0:0:
130,292,654,1,0,3:0:0:0:
232,332,846,1,0,3:0:0:0:
232,332,942,2,0,L|322:321,1,67.5000025749208
416,251,1327,6,0,P|341:239|280:228,1,135.000005149842,2|0,0:0|0:0,0:0:0:0:
306,72,1904,2,0,P|314:109|318:147,1,67.5000025749208
317,138,2192,1,0,3:0:0:0:
212,177,2384,1,0,3:0:0:0:
212,177,2481,2,0,L|128:172,1,67.5000025749208
125,150,2769,1,0,3:0:0:0:
125,150,2865,2,0,L|131:107,1,33.7500012874604
23,28,3057,6,0,P|70:36|112:41,1,67.5000025749208,2|0,0:0|0:0,0:0:0:0:
281,74,3442,2,0,P|238:78|201:86,1,67.5000025749208,0|0,3:0|0:0,0:0:0:0:
214,83,3731,1,0,3:0:0:0:
57,142,3923,1,0,3:0:0:0:
57,142,4019,2,0,P|92:145|132:151,1,67.5000025749208
309,224,4404,6,0,B|273:217|273:217|241:228|241:228|196:207|196:207|171:238|122:242,1,180,2|0,3:3|0:0,0:0:0:0:
124,149,4981,1,0,0:0:0:0:
281,321,5173,2,0,L|275:344,2,16.8750006437302,2|2|0,0:3|0:3|0:0,0:0:0:0:
309,224,5365,1,2,0:3:0:0:
180,374,5557,1,2,0:3:0:0:
180,374,5654,1,2,0:3:0:0:
408,322,5846,1,2,0:3:0:0:
408,322,5942,2,0,L|365:331,2,28.125,2|2|0,0:3|0:3|0:0,0:0:0:0:
483,289,6134,6,0,P|493:252|484:205,1,76.5000014591217,4|2,0:0|0:3,0:0:0:0:
388,78,6519,1,2,0:3:0:0:
475,121,6711,1,2,0:3:0:0:
369,76,6904,5,2,0:3:0:0:
486,111,7096,1,2,0:3:0:0:
483,289,7288,1,2,0:3:0:0:
361,259,7481,1,2,0:3:0:0:
237,382,7673,5,2,0:3:0:0:
376,246,7865,1,2,0:3:0:0:
189,195,8057,1,2,0:3:0:0:
269,285,8250,1,2,0:3:0:0:
269,285,8442,6,0,L|274:234,1,38.2500007295609,2|0,0:3|0:0,0:0:0:0:
230,87,8634,2,0,L|186:106,1,38.2500007295609,2|0,0:3|0:0,0:0:0:0:
84,237,8827,2,0,L|121:263,1,38.2500007295609,2|0,0:3|0:0,0:0:0:0:
197,202,9019,5,2,0:3:0:0:
197,202,9115,1,2,0:3:0:0:
197,202,9211,5,2,0:3:0:0:
216,178,9307,1,2,0:3:0:0:
243,164,9404,1,2,0:3:0:0:
273,159,9500,1,2,0:3:0:0:
302,166,9596,1,2,0:3:0:0:
329,178,9692,1,2,0:3:0:0:
359,176,9788,1,2,0:3:0:0:
387,165,9884,1,2,0:3:0:0:
420,151,9981,6,0,L|424:107,6,33.7500012874604,2|0|0|0|0|0|0,0:3|0:0|0:0|0:0|0:0|0:0|0:0,0:0:0:0:
336,58,10365,2,0,L|344:95,6,33.7500012874604,2|0|0|0|0|0|0,0:3|0:0|0:0|0:0|0:0|0:0|0:0,0:0:0:0:
504,94,10750,6,0,B|339:43|390:146|224:103,1,270,4|0,0:3|0:0,0:0:0:0:
6,62,11519,6,0,P|17:84|26:117,1,45,2|0,0:0|0:0,0:0:0:0:
152,228,11711,6,0,P|164:184|165:151,1,76.5000014591217,12|0,0:3|0:0,0:0:0:0:
0,296,11904,6,0,B|127:343|114:207|266:294,1,256.499993150711,8|0,0:1|0:0,0:0:0:0:
299,380,12288,6,0,P|262:324|263:276,1,90,4|2,0:0|0:0,0:0:0:0:
471,301,12673,2,0,L|359:294,1,90,0|2,1:0|0:0,0:0:0:0:
198,197,13057,2,0,L|290:185,1,90,0|0,1:0|0:0,0:0:0:0:
315,166,13346,2,0,P|320:141|319:110,1,45,2|8,0:0|0:0,0:0:0:0:
441,28,13634,1,0,0:0:0:0:
441,28,13731,1,0,0:0:0:0:
441,28,13827,6,0,P|448:81|459:130,1,90,0|2,1:0|0:0,0:0:0:0:
287,186,14211,2,0,P|243:180|191:175,1,90,0|2,1:0|0:0,0:0:0:0:
384,248,14596,1,0,1:0:0:0:
173,173,14788,1,0,1:0:0:0:
321,94,14981,1,8,0:0:0:0:
71,143,15173,1,0,0:0:0:0:
71,143,15269,1,0,0:0:0:0:
71,143,15365,6,0,P|76:171|79:189,1,45,0|0,1:0|0:0,0:0:0:0:
186,301,15557,2,0,P|182:285|179:251,1,45,2|0,0:0|0:0,0:0:0:0:
173,173,15750,1,0,1:0:0:0:
92,324,15942,1,2,0:0:0:0:
274,232,16134,1,0,1:0:0:0:
74,337,16327,1,8,0:0:0:0:
315,139,16519,6,0,B|323:189|303:229|303:229|316:282|316:282|307:326|328:363,1,225,4|0,0:0|0:0,0:0:0:0:
401,309,17096,6,0,B|438:296|438:296|489:303,1,76.5000014591217,0|0,1:0|0:0,0:0:0:0:
217,351,17288,2,0,B|172:352|145:322|145:322|86:364|10:334,1,202.500007724762,4|0,0:0|0:0,0:0:0:0:
209,266,17673,6,0,P|226:212|206:136,1,116.999994644165,0|0,1:0|0:0,0:0:0:0:
32,207,17961,1,0,1:0:0:0:
28,222,18057,2,0,L|154:204,1,116.999994644165,8|0,0:0|0:0,0:0:0:0:
474,25,18442,6,0,P|380:4|287:74,1,202.500007724762,4|0,1:2|0:0,0:0:0:0:
278,83,18827,2,0,P|304:141|294:209,1,116.999994644165,0|0,1:0|0:0,0:0:0:0:
146,4,19211,5,4,1:2:0:0:
406,116,19500,1,8,0:0:0:0:
406,116,19596,1,2,1:2:0:0:
215,153,19788,2,0,P|173:149|136:140,1,67.5000025749208,0|0,1:0|0:0,0:0:0:0:
474,25,19981,5,8,0:0:0:0:
387,272,20173,1,8,0:0:0:0:
474,25,20365,1,8,0:0:0:0:
387,272,20557,1,8,0:0:0:0:
148,143,20750,5,0,1:0:0:0:
198,106,20846,1,0,1:0:0:0:
248,101,20942,1,0,1:0:0:0:
288,110,21038,1,0,1:0:0:0:
310,126,21134,5,2,1:3:0:0:
306,112,21231,1,2,3:0:0:0:
308,98,21327,1,2,3:0:0:0:
311,84,21423,1,2,3:0:0:0:
317,73,21519,5,2,1:3:0:0:
410,112,21711,1,0,0:0:0:0:
474,25,21904,1,2,0:0:0:0:
503,160,22096,1,0,0:0:0:0:
503,160,22192,1,2,0:0:0:0:
422,224,22384,5,0,0:0:0:0:
404,221,22481,1,2,0:0:0:0:
386,217,22577,1,0,0:0:0:0:
368,214,22673,2,0,L|323:224,1,45,2|0,0:0|0:0,0:0:0:0:
359,346,22865,2,0,P|370:322|371:285,1,45
115,373,23057,5,0,1:0:0:0:
203,322,23250,1,0,0:0:0:0:
179,160,23442,1,2,0:0:0:0:
80,211,23634,1,0,0:0:0:0:
80,211,23731,1,2,0:0:0:0:
258,239,23923,5,0,0:0:0:0:
287,249,24019,1,2,0:0:0:0:
313,228,24115,1,0,0:0:0:0:
347,238,24211,2,0,B|395:221|395:221|458:230,1,101.250003862381,2|0,0:0|0:0,0:0:0:0:
471,232,24404,2,0,B|446:189|446:189|453:125,1,101.250003862381,4|0,0:3|0:0,0:0:0:0:
456,110,24596,5,0,1:0:0:0:
403,309,24788,1,0,0:0:0:0:
461,82,24981,1,2,0:0:0:0:
348,44,25173,1,0,0:0:0:0:
348,44,25269,1,2,0:0:0:0:
292,284,25461,5,0,0:0:0:0:
292,284,25557,1,2,0:0:0:0:
292,284,25654,1,0,0:0:0:0:
292,284,25750,2,0,L|297:336,1,45,2|0,0:0|0:0,0:0:0:0:
410,384,25942,2,0,L|395:280,1,101.250003862381,8|0,0:3|0:0,0:0:0:0:
404,266,26134,6,0,L|461:271,1,45,2|0,0:0|0:0,0:0:0:0:
316,189,26327,1,2,0:0:0:0:
303,200,26519,6,0,L|251:206,1,45,2|0,0:0|0:0,0:0:0:0:
389,121,26711,1,2,0:0:0:0:
405,126,26904,5,4,1:3:0:0:
408,105,27000,1,0,0:0:0:0:
411,87,27096,1,0,0:0:0:0:
414,69,27192,1,0,0:0:0:0:
417,50,27288,2,0,L|436:155,1,101.250003862381,8|0,1:3|0:0,0:0:0:0:
441,168,27481,6,0,L|453:75,1,90,8|0,0:0|0:0,0:0:0:0:
233,17,27673,5,0,1:0:0:0:
312,125,27865,1,0,0:0:0:0:
221,0,28057,2,0,P|228:34|226:55,1,49.5000015106202,10|0,0:0|0:0,0:0:0:0:
91,154,28250,1,0,0:0:0:0:
97,120,28346,1,2,0:0:0:0:
312,125,28538,5,0,0:0:0:0:
327,158,28634,2,0,P|323:187|316:210,1,49.5000015106202,2|0,0:0|0:0,0:0:0:0:
182,144,28827,2,0,P|214:154|236:165,1,49.5000015106202,10|0,0:0|0:0,0:0:0:0:
388,266,29019,1,0,0:0:0:0:
404,260,29211,5,0,1:0:0:0:
237,167,29404,1,0,0:0:0:0:
417,255,29596,2,0,P|424:227|423:199,1,49.5000015106202,10|0,0:0|0:0,0:0:0:0:
263,280,29788,5,0,0:0:0:0:
250,260,29884,2,0,L|314:268,1,49.5000015106202,2|0,0:0|0:0,0:0:0:0:
461,358,30077,1,0,0:0:0:0:
439,352,30173,1,2,0:0:0:0:
418,349,30269,1,0,0:0:0:0:
395,351,30365,2,0,L|336:360,1,49.5000015106202,10|0,0:0|0:0,0:0:0:0:
172,384,30557,1,0,0:0:0:0:
185,378,30750,5,4,1:0:0:0:
114,236,30942,1,0,1:0:0:0:
398,236,31134,1,0,1:0:0:0:
327,378,31327,1,0,1:0:0:0:
12,266,31519,5,0,1:0:0:0:
10,216,31615,1,0,1:0:0:0:
30,170,31711,1,0,1:0:0:0:
69,139,31807,1,0,1:0:0:0:
118,129,31904,1,0,1:0:0:0:
165,142,32000,1,0,1:0:0:0:
201,175,32096,1,0,1:0:0:0:
219,220,32192,1,0,1:0:0:0:
114,236,32288,6,0,L|123:39,1,180,4|0,1:0|0:0,0:0:0:0:
272,30,32577,6,0,B|178:64|178:64|129:58,1,135.000005149842,12|0,1:0|0:0,0:0:0:0:
1,74,32865,6,0,P|64:7|145:53,1,180,12|0,1:0|0:0,0:0:0:0:
118,145,33442,6,0,L|122:56,1,90,8|0,0:0|0:0,0:0:0:0:
24,225,33634,6,0,L|32:276,2,33.7500012874604,4|4|0,0:3|0:3|0:0,0:0:0:0:
111,229,33827,6,0,L|296:203,1,180,4|0,0:0|1:0,0:0:0:0:
455,96,34596,2,0,L|356:89,1,90,2|0,1:2|0:0,0:0:0:0:
332,79,34884,2,0,P|324:61|317:37,1,45,2|8,0:0|1:2,0:0:0:0:
426,182,35173,6,0,L|438:279,1,90,2|0,0:0|1:0,0:0:0:0:
350,348,35557,2,0,P|308:355|259:344,1,90,2|0,0:0|1:0,0:0:0:0:
116,257,35942,2,0,P|158:248|207:257,1,90,2|0,0:0|1:0,0:0:0:0:
350,348,36327,1,2,0:0:0:0:
97,265,36519,1,8,1:2:0:0:
162,161,36711,1,8,0:0:0:0:
88,74,36904,5,0,1:0:0:0:
88,74,37096,2,0,L|-3:88,1,90,2|0,0:0|1:0,0:0:0:0:
162,161,37481,1,2,0:0:0:0:
271,122,37673,1,0,1:0:0:0:
136,260,37865,1,2,0:0:0:0:
291,104,38057,1,8,1:2:0:0:
192,346,38250,6,0,P|107:353|36:275,1,180,2|2,0:0|0:0,0:0:0:0:
88,74,38827,2,0,P|100:121|112:171,1,90,0|2,1:0|0:0,0:0:0:0:
140,185,39115,1,0,0:0:0:0:
140,185,39211,2,0,L|195:175,1,45,2|0,1:2|0:0,0:0:0:0:
303,149,39404,1,2,0:0:0:0:
316,148,39596,5,8,0:0:0:0:
340,175,39692,1,8,0:0:0:0:
341,208,39788,2,0,L|275:222,1,67.5000025749208,10|0,0:0|0:0,0:0:0:0:
175,348,39981,6,0,P|237:314|323:316,1,135,4|0,0:0|0:0,0:0:0:0:
321,316,40365,2,0,P|372:314|419:292,1,90,8|0,1:2|0:0,0:0:0:0:
483,45,40750,2,0,P|448:111|454:195,1,135,2|0,1:2|0:0,0:0:0:0:
460,192,41134,2,0,L|365:186,1,90,8|0,1:2|0:0,0:0:0:0:
241,53,41519,6,0,P|249:99|259:159,1,90,0|0,1:0|0:0,0:0:0:0:
49,164,41904,1,8,0:0:0:0:
62,165,42288,6,0,P|53:222|49:266,1,90,0|0,1:0|0:0,0:0:0:0:
275,266,42673,1,8,0:0:0:0:
262,263,43057,6,0,L|163:276,1,90,0|0,1:0|0:0,0:0:0:0:
17,348,43442,1,8,1:2:0:0:
129,384,43634,1,2,0:3:0:0:
129,384,43731,1,2,0:3:0:0:
129,384,43827,1,0,1:0:0:0:
172,274,44019,2,0,L|167:209,1,45,2|2,0:3|0:3,0:0:0:0:
69,83,44211,2,0,L|62:225,1,135,8|0,1:2|0:0,0:0:0:0:
62,240,44596,5,0,1:0:0:0:
182,118,44788,1,2,0:3:0:0:
182,118,44884,1,2,0:3:0:0:
182,118,44981,2,0,L|284:107,1,90,8|0,1:2|0:0,0:0:0:0:
69,83,45365,1,0,1:0:0:0:
344,165,45557,6,0,B|361:132|361:132|360:76,1,67.5000025749208,8|0,0:1|0:0,0:0:0:0:
199,259,45750,6,0,B|250:253|250:253|278:226|278:226|315:253|315:253|425:246,1,229.500004377365,8|0,0:1|0:0,0:0:0:0:
446,87,46134,6,0,L|451:198,1,90,4|2,1:2|0:3,0:0:0:0:
494,245,46423,1,2,0:3:0:0:
494,245,46519,1,2,0:3:0:0:
360,101,46711,1,0,1:0:0:0:
199,259,46904,5,2,1:3:0:0:
232,244,47000,1,2,0:3:0:0:
267,244,47096,1,2,0:3:0:0:
301,255,47192,1,2,0:3:0:0:
326,280,47288,2,0,L|320:322,2,22.5,2|0|2,0:3|0:0|0:3,0:0:0:0:
407,342,47481,2,0,L|411:364,2,22.5,2|0|2,1:3|0:0|0:3,0:0:0:0:
456,258,47673,6,0,L|515:251,2,45,2|2|0,1:3|0:3|0:0,0:0:0:0:
473,149,47961,2,0,L|519:125,2,45,2|2|0,1:3|0:3|0:0,0:0:0:0:
431,50,48250,2,0,L|456:-9,1,45,2|0,1:3|0:0,0:0:0:0:
294,42,48442,5,2,1:3:0:0:
294,42,48827,2,0,L|309:71,2,22.5,2|0|2,0:3|0:0|0:3,0:0:0:0:
187,32,49019,2,0,L|175:6,2,22.5,2|0|2,0:3|0:0|0:3,0:0:0:0:
136,128,49211,6,0,L|123:235,1,90,0|2,1:0|0:3,0:0:0:0:
117,298,49500,1,2,0:3:0:0:
117,298,49596,1,2,0:3:0:0:
222,215,49788,1,0,1:0:0:0:
412,316,49981,5,2,1:3:0:0:
376,295,50077,1,2,0:3:0:0:
335,292,50173,1,2,0:3:0:0:
298,309,50269,1,2,0:3:0:0:
271,339,50365,2,0,L|282:376,2,22.5,2|0|2,0:3|0:0|0:3,0:0:0:0:
179,363,50557,2,0,L|168:398,2,22.5,2|0|2,1:3|0:0|0:3,0:0:0:0:
117,298,50750,6,0,L|-10:327,1,116.999994644165,4|0,1:2|0:0,0:0:0:0:
147,279,51038,2,0,P|168:227|133:151,1,116.999994644165,0|0,1:0|0:0,0:0:0:0:
23,234,51327,2,0,L|80:222,1,58.4999973220826,0|0,1:0|0:0,0:0:0:0:
147,90,51519,6,0,P|64:47|77:140,1,229.500004377365,2|0,1:2|0:0,0:0:0:0:
151,170,51904,6,0,B|196:167|223:120|223:120|261:147|302:134,1,175.499991966248,4|0,1:3|0:0,0:0:0:0:
388,45,52288,6,0,L|281:53,1,90,2|0,1:2|0:0,0:0:0:0:
282,54,52577,1,2,0:0:0:0:
450,98,52769,2,0,L|473:67,1,22.5,8|8,0:0|0:0,0:0:0:0:
456,107,52865,2,0,P|462:141|465:169,1,45,0|0,1:0|0:0,0:0:0:0:
338,241,53057,6,0,B|358:219|401:215|401:215|456:249|506:223,1,175.499991966248,4|0,1:2|0:0,0:0:0:0:
458,122,53442,2,0,L|463:151,4,29.2499986610413,2|0|0|0|0,1:2|0:0|0:0|0:0|0:0,0:0:0:0:
318,334,53827,5,2,1:3:0:0:
318,334,53923,1,2,0:3:0:0:
318,334,54019,1,2,0:3:0:0:
318,334,54115,1,2,1:3:0:0:
318,334,54211,2,0,P|352:324|393:318,1,58.4999973220826,2|0,0:3|0:0,0:0:0:0:
501,225,54404,2,0,P|475:216|442:207,1,58.4999973220826,0|0,1:0|0:0,0:0:0:0:
302,175,54596,1,4,1:2:0:0:
302,175,54981,5,2,0:3:0:0:
445,207,55173,1,2,0:0:0:0:
328,73,55365,6,0,P|248:82|197:134,1,148.50000453186,4|0,0:0|0:0,0:0:0:0:
89,148,55750,2,0,P|147:142|212:154,1,99.0000030212403,8|0,0:0|1:0,0:0:0:0:
365,253,56134,1,2,0:3:0:0:
196,166,56327,1,0,1:0:0:0:
366,236,56519,1,8,0:0:0:0:
188,300,56711,1,0,1:0:0:0:
367,221,56904,6,0,L|378:108,1,99.0000030212403,2|0,0:3|1:0,0:0:0:0:
141,40,57288,1,8,0:0:0:0:
263,84,57481,1,0,1:0:0:0:
48,119,57673,1,2,0:3:0:0:
376,122,57865,5,0,1:0:0:0:
141,40,58057,1,8,0:0:0:0:
397,131,58250,1,0,1:0:0:0:
190,263,58442,5,2,1:3:0:0:
169,228,58538,1,2,0:3:0:0:
171,187,58634,1,2,1:3:0:0:
190,151,58731,1,2,0:3:0:0:
222,127,58827,5,2,1:3:0:0:
217,189,58923,1,2,0:3:0:0:
169,228,59019,1,2,1:3:0:0:
106,226,59115,1,2,0:3:0:0:
62,180,59211,5,2,1:3:0:0:
141,149,59307,1,2,0:3:0:0:
217,189,59404,1,2,1:3:0:0:
239,271,59500,1,2,0:3:0:0:
191,342,59596,5,2,1:3:0:0:
125,256,59692,1,2,0:3:0:0:
141,149,59788,1,2,1:3:0:0:
230,88,59884,1,2,0:3:0:0:
336,106,59981,6,0,L|344:127,6,16.8750006437302,2|2|2|2|2|2|2,1:3|0:3|0:3|0:3|0:3|0:3|0:3,0:0:0:0:
431,55,60365,2,0,L|434:21,6,33.7500012874604,2|2|2|2|2|2|2,1:3|0:3|0:3|0:3|0:3|0:3|0:3,0:0:0:0:
479,167,60750,6,0,P|468:242|462:307,1,135.000005149842,4|0,1:0|0:0,0:0:0:0:
299,241,61038,6,0,B|360:246,1,45,8|0,1:0|0:0,0:0:0:0:
350,256,61519,6,0,L|242:248,1,107.999996704102,6|0,1:2|0:0,0:0:0:0:
176,364,61807,1,2,0:0:0:0:
176,364,61904,2,0,P|183:330|185:307,1,53.9999983520508,8|0,1:0|0:0,0:0:0:0:
129,134,62096,1,2,0:0:0:0:
13,244,62288,2,0,L|131:228,1,107.999996704102,0|0,1:0|0:0,0:0:0:0:
233,56,62673,1,8,1:0:0:0:
413,169,62865,6,0,L|233:155,1,161.999995056153,2|0,0:0|0:0,0:0:0:0:
221,154,63250,1,2,0:0:0:0:
495,231,63442,2,0,P|512:180|504:122,1,107.999996704102,8|0,1:0|0:0,0:0:0:0:
397,274,63827,2,0,L|406:381,1,107.999996704102,2|0,1:2|0:0,0:0:0:0:
325,189,64211,1,8,1:0:0:0:
495,231,64404,1,2,0:0:0:0:
226,322,64596,6,0,L|116:316,1,107.999996704102,0|0,1:0|0:0,0:0:0:0:
311,280,64884,1,0,0:0:0:0:
311,280,64981,2,0,P|315:339|287:399,1,107.999996704102,8|0,1:0|0:0,0:0:0:0:
148,150,65365,1,0,1:0:0:0:
226,322,65557,1,2,0:0:0:0:
377,203,65750,2,0,L|305:191,1,53.9999983520508,8|0,1:0|0:0,0:0:0:0:
95,229,65942,6,0,P|184:230|243:164,1,161.999995056153,4|0,1:2|0:0,0:0:0:0:
326,113,66327,2,0,P|296:106|258:97,1,53.9999983520508,0|0,1:0|0:0,0:0:0:0:
148,150,66519,1,8,1:0:0:0:
377,203,66711,1,2,0:0:0:0:
242,0,66904,2,0,P|248:53|255:134,1,107.999996704102,0|2,1:0|0:0,0:0:0:0:
16,176,67288,1,8,1:0:0:0:
134,32,67481,1,2,0:0:0:0:
304,187,67673,6,0,B|254:203|254:203|197:190,1,107.999996704102,2|0,1:2|0:0,0:0:0:0:
172,168,67961,1,2,0:0:0:0:
172,168,68057,2,0,B|165:106,1,53.9999983520508,8|0,1:0|0:0,0:0:0:0:
341,79,68250,1,2,0:0:0:0:
407,243,68442,2,0,B|459:249|459:249|518:221,1,107.999996704102,0|0,1:0|0:0,0:0:0:0:
304,187,68827,1,8,1:0:0:0:
424,340,69019,1,2,0:0:0:0:
484,137,69211,6,0,P|489:112|492:83,1,53.9999983520508,0|0,1:0|0:0,0:0:0:0:
312,194,69404,5,2,0:0:0:0:
312,194,69500,1,0,0:0:0:0:
312,194,69596,2,0,P|302:162|296:128,1,53.9999983520508,8|0,1:0|0:0,0:0:0:0:
498,292,69788,5,2,0:0:0:0:
498,292,69884,1,0,0:0:0:0:
498,292,69981,2,0,P|505:261|511:232,1,53.9999983520508,0|0,1:0|0:0,0:0:0:0:
352,384,70173,5,2,0:0:0:0:
352,384,70269,1,0,0:0:0:0:
352,384,70365,2,0,P|345:352|341:325,1,53.9999983520508,8|0,1:0|0:0,0:0:0:0:
303,151,70557,5,2,0:0:0:0:
303,151,70654,1,0,0:0:0:0:
303,151,70750,2,0,B|313:204|313:204|290:254,1,107.999996704102,0|0,1:0|0:0,0:0:0:0:
255,273,71038,1,0,0:0:0:0:
255,273,71134,2,0,B|203:261|203:261|129:272,1,107.999996704102,8|0,1:0|0:0,0:0:0:0:
177,101,71519,6,0,L|246:108,1,67.5000025749208,0|0,1:0|0:0,0:0:0:0:
511,128,71711,2,0,L|444:136,1,67.5000025749208,0|0,1:0|0:0,0:0:0:0:
255,273,71904,2,0,P|250:252|244:203,1,67.5000025749208,0|0,1:0|0:0,0:0:0:0:
345,58,72096,6,0,B|370:191|312:143|350:279,1,215.999993408203,4|0,1:2|0:0,0:0:0:0:
245,108,72673,1,0,1:0:0:0:
413,342,72865,6,0,P|329:363|254:286,1,182.250000695229,4|0,1:2|0:0,0:0:0:0:
255,273,73250,1,0,1:0:0:0:
412,90,73442,1,0,1:0:0:0:
446,110,73538,1,0,1:0:0:0:
469,143,73634,1,0,1:0:0:0:
476,183,73730,1,0,1:0:0:0:
467,222,73827,6,0,L|340:202,1,107.999996704102,6|0,1:2|0:0,0:0:0:0:
235,158,74115,1,2,0:0:0:0:
235,158,74211,2,0,L|300:134,1,53.9999983520508,8|0,1:0|0:0,0:0:0:0:
412,90,74404,1,2,0:0:0:0:
256,274,74596,2,0,L|270:395,1,107.999996704102,0|0,1:0|0:0,0:0:0:0:
360,205,74981,1,8,1:0:0:0:
153,364,75173,6,0,L|137:203,1,161.999995056153,2|0,0:0|0:0,0:0:0:0:
134,172,75557,1,2,0:0:0:0:
210,260,75750,2,0,P|164:287|108:288,1,107.999996704102,8|0,1:0|0:0,0:0:0:0:
49,96,76134,2,0,P|93:65|147:60,1,107.999996704102,2|0,1:2|0:0,0:0:0:0:
258,135,76519,1,8,1:0:0:0:
22,219,76711,1,2,0:0:0:0:
145,59,76904,6,0,L|139:166,1,107.999996704102,0|0,1:0|0:0,0:0:0:0:
9,32,77192,1,0,0:0:0:0:
9,32,77288,2,0,L|119:39,1,107.999996704102,8|0,1:0|0:0,0:0:0:0:
299,0,77673,1,0,1:0:0:0:
44,149,77865,1,2,0:0:0:0:
258,184,78057,2,0,L|248:112,1,53.9999983520508,8|0,1:0|0:0,0:0:0:0:
24,271,78250,6,0,P|112:238|190:260,1,161.999995056153,4|0,1:2|0:0,0:0:0:0:
207,274,78634,2,0,P|243:286|278:285,1,53.9999983520508,0|0,1:0|0:0,0:0:0:0:
347,92,78827,5,8,1:0:0:0:
266,112,78955,2,0,P|260:150|257:189,1,71.9999978027344,8|4,0:3|0:3,0:0:0:0:
408,267,79211,5,0,1:0:0:0:
466,205,79339,2,0,P|462:173|451:128,1,71.9999978027344,8|4,0:3|0:3,0:0:0:0:
217,257,79596,6,0,P|288:262|340:184,1,161.999995056153,4|0,1:2|0:0,0:0:0:0:
256,183,79981,6,0,P|297:275|221:342,1,215.999993408203,4|0,1:0|1:0,0:0:0:0:
112,346,80750,6,0,L|243:340,1,107.999996704102,8|0,1:2|0:0,0:0:0:0:
107,311,81038,2,0,L|-9:317,1,107.999996704102,8|0,0:0|0:0,0:0:0:0:
120,279,81327,2,0,P|126:249|126:223,1,53.9999983520508,8|0,0:0|0:0,0:0:0:0:
101,62,81519,6,0,P|50:54|70:178,1,215.999993408203,0|0,1:0|1:0,0:0:0:0:
208,51,82288,6,0,L|87:63,1,107.999996704102,8|0,1:2|0:0,0:0:0:0:
242,57,82577,2,0,P|263:113|252:179,1,107.999996704102,8|0,0:0|0:0,0:0:0:0:
274,45,82865,2,0,L|333:39,1,53.9999983520508,8|0,0:0|0:0,0:0:0:0:
165,129,83057,5,8,1:0:0:0:
353,37,83250,1,8,1:2:0:0:
183,229,83442,1,8,1:2:0:0:
476,274,83634,1,8,1:2:0:0:
325,141,83827,5,8,1:0:0:0:
299,182,83923,1,0,1:0:0:0:
296,230,84019,1,0,1:0:0:0:
321,271,84115,1,0,1:0:0:0:
300,314,84211,2,0,P|289:343|285:375,1,53.9999983520508,0|0,1:0|1:0,0:0:0:0:
369,122,84404,5,4,1:0:0:0:
150,246,85365,5,4,1:2:0:0:
406,126,85557,1,4,1:2:0:0:
419,120,86134,6,0,P|416:178|415:224,1,99.0000030212403,2|0,1:3|0:0,0:0:0:0:
380,291,86423,1,2,0:3:0:0:
380,291,86519,2,0,L|306:286,1,49.5000015106202,2|0,1:3|0:0,0:0:0:0:
129,273,86711,6,0,P|181:205|289:218,1,198.000006042481,4|0,1:2|0:0,0:0:0:0:
225,332,87192,1,2,0:3:0:0:
225,332,87288,2,0,L|221:277,1,49.5000015106202,2|0,1:3|0:0,0:0:0:0:
394,119,87481,5,2,0:3:0:0:
394,119,87577,1,2,0:3:0:0:
394,119,87673,2,0,B|328:143|328:143|268:125|268:125|219:157|219:157|146:130|141:188|68:155,1,337.500012874604,0|0,1:0|0:0,0:0:0:0:
