osu file format v14

[General]
AudioFilename: audio.mp3
AudioLeadIn: 0
PreviewTime: -1
Countdown: 1
SampleSet: Normal
StackLeniency: 0.7
Mode: 0
LetterboxInBreaks: 0
WidescreenStoryboard: 0

[Editor]
Bookmarks: 59835,60474,64463,64622,64782,65261,65899,66856,67016,67176,67335,71484,78346,83931
DistanceSpacing: 0.4
BeatDivisor: 4
GridSize: 16
TimelineZoom: 2.5

[Metadata]
Title:BRAVER
TitleUnicode:BRAVER
Artist:ZAQ
ArtistUnicode:ZAQ
Creator:hlanden
Version:Imagination
Source:Shokugeki no Soma
Tags:Autism
BeatmapID:1489705
BeatmapSetID:704217

[Difficulty]
HPDrainRate:6.5
CircleSize:4
OverallDifficulty:9.1
ApproachRate:9.5
SliderMultiplier:1.8
SliderTickRate:1

[Events]
//Background and Video events
0,0,"shokugeki-background-10.jpg",0,0
//Break Periods
//Storyboard Layer 0 (Background)
//Storyboard Layer 1 (Fail)
//Storyboard Layer 2 (Pass)
//Storyboard Layer 3 (Foreground)
//Storyboard Sound Samples

[TimingPoints]
474,319.148936170213,4,1,0,60,1,0
18346,-111.111111111111,4,1,0,60,0,0
29516,-100,4,1,0,60,0,0
29676,-111.111111111111,4,1,0,60,0,0
33027,-100,4,1,0,60,0,0
33665,-100,4,1,0,60,0,0
36059,-125,4,1,0,60,0,0
36697,-90.9090909090909,4,1,0,60,0,0
37495,-71.4285714285714,4,1,0,60,0,0
37654,-71.4285714285714,4,1,0,60,0,0
38931,-100,4,1,0,60,0,1
39888,-100,4,1,0,60,0,1
40846,-100,4,1,0,60,0,0
43878,-90.9090909090909,4,1,0,60,0,1
74516,-111.111111111111,4,1,0,60,0,0

[HitObjects]
448,64,474,6,0,L|513:59,1,45
391,137,633,2,0,B|359:119|345:86|345:86|335:125|296:155,1,135
247,74,952,2,0,L|182:79,1,45
147,16,1112,1,0,0:0:0:0:
119,50,1191,1,0,0:0:0:0:
113,94,1271,1,0,0:0:0:0:
131,135,1351,1,0,0:0:0:0:
163,160,1431,2,0,L|207:156,1,45
176,240,1591,6,0,B|123:248|123:248|81:241|81:241|23:256,1,135
48,336,1910,2,0,L|128:320,1,45
198,327,2069,1,0,0:0:0:0:
237,305,2148,1,0,0:0:0:0:
261,268,2228,1,0,0:0:0:0:
264,224,2308,1,0,0:0:0:0:
246,183,2388,2,0,L|304:176,1,45
408,168,2548,5,0,0:0:0:0:
435,202,2627,1,0,0:0:0:0:
435,247,2707,1,0,0:0:0:0:
400,283,2787,1,0,0:0:0:0:
393,239,2867,2,0,L|348:234,1,45
336,112,3027,6,0,L|380:106,1,45
271,175,3186,2,0,B|240:152|230:119|230:119|226:153|206:185,1,135
136,122,3505,2,0,L|91:127,1,45
66,222,3665,5,0,0:0:0:0:
22,201,3745,1,0,0:0:0:0:
3,160,3825,1,0,0:0:0:0:
2,115,3905,1,0,0:0:0:0:
13,72,3985,1,0,0:0:0:0:
37,36,4064,1,0,0:0:0:0:
77,16,4144,1,0,0:0:0:0:
314,88,4463,6,0,L|372:81,1,45
268,173,4622,2,0,B|240:152|230:119|230:119|226:153|201:193,1,135
234,28,4942,1,0,0:0:0:0:
145,133,5101,1,0,0:0:0:0:
320,96,5261,1,0,0:0:0:0:
320,96,5420,1,0,0:0:0:0:
320,96,5580,6,0,B|348:76|359:42|359:42|367:102|386:151,1,180
435,331,6059,1,0,0:0:0:0:
136,345,6218,2,0,P|179:357|224:352,1,90
112,127,6537,2,0,P|77:155|56:195,1,90
270,247,6856,6,0,B|233:226|184:236|184:236|216:204|224:156,1,180
240,32,7335,2,0,P|283:40|320:66,1,90,0|0,3:0|0:0,0:0:0:0:
384,240,7654,2,0,P|373:291|339:331,1,90,0|0,3:0|0:0,0:0:0:0:
240,128,7974,1,0,0:0:0:0:
119,185,8133,6,0,P|76:197|32:192,1,90
304,192,8452,1,0,0:0:0:0:
80,112,8611,1,0,0:0:0:0:
176,272,8771,2,0,B|288:240|256:320|384:256,1,180
224,352,9250,1,0,0:0:0:0:
456,313,9410,6,0,B|460:250|460:250|450:200|450:200|455:131,1,180
372,42,9888,2,0,L|369:105,1,45
454,134,10048,1,0,0:0:0:0:
451,179,10127,1,0,0:0:0:0:
454,223,10207,1,0,0:0:0:0:
458,268,10287,1,0,0:0:0:0:
456,313,10367,2,0,L|400:304,1,45
304,368,10527,2,0,L|347:357,1,45
336,240,10686,6,0,B|253:267|288:192|176:240,1,135
187,240,11005,1,0,0:0:0:0:
339,148,11165,1,0,0:0:0:0:
96,285,11325,5,0,0:0:0:0:
198,84,11484,1,0,0:0:0:0:
233,307,11644,1,0,0:0:0:0:
74,147,11803,1,0,0:0:0:0:
74,147,11883,1,0,0:0:0:0:
74,147,11963,6,0,B|140:144|140:144|185:159|185:159|268:141,1,180
423,15,12442,2,0,L|284:50,1,135
250,145,12761,2,0,L|337:126,1,90
74,147,13080,1,0,0:0:0:0:
74,147,13160,1,0,0:0:0:0:
74,147,13239,5,0,0:0:0:0:
311,20,13399,1,0,0:0:0:0:
176,266,13559,1,0,0:0:0:0:
244,143,13718,1,0,0:0:0:0:
382,213,13878,5,0,0:0:0:0:
121,84,14038,1,0,0:0:0:0:
244,143,14197,1,0,0:0:0:0:
322,37,14356,1,0,0:0:0:0:
173,280,14516,6,0,L|280:300,1,90
405,202,14835,2,0,L|316:219,1,90
383,298,15154,1,0,0:0:0:0:
383,298,15234,1,0,0:0:0:0:
383,298,15314,2,0,L|427:293,1,45
501,258,15474,5,0,0:0:0:0:
512,215,15552,1,0,0:0:0:0:
504,171,15632,1,0,0:0:0:0:
478,135,15712,1,0,0:0:0:0:
439,114,15792,1,0,0:0:0:0:
256,192,15952,12,0,17229,0:0:0:0:
128,160,17708,5,0,0:0:0:0:
128,160,17787,1,0,0:0:0:0:
128,160,17867,1,0,0:0:0:0:
192,16,18027,5,0,0:0:0:0:
192,16,18106,1,0,0:0:0:0:
192,16,18186,1,0,0:0:0:0:
128,160,18346,6,0,B|106:144|86:124|86:124|99:202|66:246,1,161.999995056153
192,304,18825,1,0,0:0:0:0:
0,160,18984,1,0,0:0:0:0:
176,384,19144,2,0,P|216:384|253:368,1,80.9999975280763
448,304,19463,2,0,P|424:271|389:246,1,80.9999975280763
256,128,19782,6,0,B|226:165|231:203,1,80.9999975280763
384,112,20101,2,0,B|413:74|408:36,1,80.9999975280763
320,192,20420,1,0,0:0:0:0:
365,328,20580,1,0,0:0:0:0:
192,304,20739,2,0,B|112:272|112:352|16:304,1,161.999995056153
281,315,21218,5,0,0:0:0:0:
72,240,21378,1,0,0:0:0:0:
160,384,21537,1,0,0:0:0:0:
208,176,21697,1,0,0:0:0:0:
208,176,21856,1,0,0:0:0:0:
87,82,22016,2,0,B|150:85|150:85|192:69|192:69|248:74,1,161.999995056153
446,87,22495,6,0,L|364:80,1,80.9999975280763
352,80,22734,1,0,0:0:0:0:
352,80,22814,1,0,0:0:0:0:
432,240,22974,1,0,0:0:0:0:
400,0,23133,1,0,0:0:0:0:
352,176,23293,1,0,0:0:0:0:
304,0,23452,6,0,L|222:7,1,80.9999975280763
87,82,23771,2,0,L|171:88,1,80.9999975280763
0,80,24091,1,0,0:0:0:0:
265,92,24250,1,0,0:0:0:0:
45,8,24410,1,0,0:0:0:0:
64,160,24569,6,0,B|108:169|108:169|135:192,1,80.9999975280763
208,384,24888,2,0,B|193:340|193:340|199:305,1,80.9999975280763
344,145,25208,2,0,B|312:178|312:178|279:189,1,80.9999975280763
423,66,25527,2,0,B|465:47|465:47|500:50,1,80.9999975280763
272,96,25846,1,0,0:0:0:0:
272,96,25926,1,0,0:0:0:0:
272,96,26005,5,0,0:0:0:0:
269,335,26165,1,0,0:0:0:0:
64,256,26325,1,0,0:0:0:0:
306,251,26484,1,0,0:0:0:0:
306,251,26564,1,0,0:0:0:0:
306,251,26644,6,0,P|281:238|236:247,1,40.4999987640381
152,142,26803,2,0,P|155:161|165:179,1,40.4999987640381
126,319,26963,2,0,P|141:306|151:288,1,40.4999987640381
240,128,27122,2,0,P|236:108|226:90,1,40.4999987640381
272,336,27282,1,0,0:0:0:0:
272,336,27362,1,0,0:0:0:0:
272,336,27442,6,0,P|304:352|368:336,1,80.9999975280763
240,128,27761,1,0,0:0:0:0:
320,256,27920,5,0,0:0:0:0:
320,256,28000,1,0,0:0:0:0:
324,174,28160,1,0,0:0:0:0:
324,174,28239,1,0,0:0:0:0:
320,288,28399,1,0,0:0:0:0:
320,304,28559,5,0,0:0:0:0:
374,80,28718,1,0,0:0:0:0:
199,232,28878,1,0,0:0:0:0:
416,208,29037,1,0,0:0:0:0:
230,92,29197,1,0,0:0:0:0:
429,211,29356,1,0,0:0:0:0:
199,232,29516,5,0,0:0:0:0:
20,251,29676,2,0,L|103:243,1,80.9999975280763
279,223,29995,2,0,L|198:231,1,80.9999975280763
432,202,30314,1,0,0:0:0:0:
288,16,30474,1,0,0:0:0:0:
512,151,30633,2,0,P|482:124|445:113,1,80.9999975280763
258,111,30952,6,0,P|298:114|337:103,1,80.9999975280763
512,32,31271,1,0,0:0:0:0:
407,277,31431,2,0,B|447:218|423:165,1,80.9999975280763
288,16,31750,1,0,0:0:0:0:
276,222,31910,1,0,0:0:0:0:
182,128,32069,1,0,0:0:0:0:
304,320,32229,6,0,B|250:336|208:299|208:299,1,80.9999975280763
418,192,32548,1,0,0:0:0:0:
182,128,32708,1,0,0:0:0:0:
276,222,32867,1,0,0:0:0:0:
124,21,33027,6,0,B|197:-15|263:16,1,135
339,111,33346,2,0,P|329:75|250:12,1,135
150,253,33665,5,0,0:0:0:0:
400,176,33825,1,0,0:0:0:0:
251,324,33984,5,0,0:0:0:0:
316,100,34144,1,0,0:0:0:0:
496,286,34303,1,0,0:0:0:0:
285,206,34463,1,0,0:0:0:0:
285,206,34543,1,0,0:0:0:0:
285,206,34622,1,0,0:0:0:0:
502,155,34782,6,0,B|517:217|469:217|495:286,1,135
512,368,35101,1,0,0:0:0:0:
394,179,35261,1,0,0:0:0:0:
400,384,35420,1,0,0:0:0:0:
496,160,35580,1,0,0:0:0:0:
224,259,35739,2,0,B|273:247|273:247|322:258|322:258|367:243,1,135
394,179,36059,6,0,B|412:216|466:247|466:247|438:243|413:255|413:255|378:246|341:250|341:250,1,216
176,270,36697,1,0,0:0:0:0:
176,270,36777,1,0,0:0:0:0:
176,270,36856,2,0,L|237:257,1,49.5000015106202
278,176,37016,5,0,0:0:0:0:
284,127,37095,1,0,0:0:0:0:
309,87,37175,1,0,0:0:0:0:
352,61,37255,1,0,0:0:0:0:
400,56,37335,1,0,0:0:0:0:
448,72,37414,1,0,0:0:0:0:
482,101,37495,2,0,P|477:141|488:194,1,62.9999980773926
403,298,37654,6,0,B|441:260|484:253|484:253|404:243|387:180,1,188.999994232178
389,173,37974,1,0,0:0:0:0:
473,349,38133,5,0,0:0:0:0:
439,377,38213,1,0,0:0:0:0:
390,384,38293,1,0,0:0:0:0:
355,365,38372,1,0,0:0:0:0:
325,331,38452,1,0,0:0:0:0:
300,284,38532,1,0,0:0:0:0:
254,260,38612,1,0,0:0:0:0:
204,264,38692,1,0,0:0:0:0:
166,288,38771,1,0,0:0:0:0:
233,358,38931,5,0,0:0:0:0:
269,61,39091,1,0,0:0:0:0:
204,264,39250,1,0,0:0:0:0:
160,32,39410,5,0,0:0:0:0:
304,288,39569,1,0,0:0:0:0:
182,130,39729,1,0,0:0:0:0:
128,336,39888,5,0,0:0:0:0:
405,287,40048,1,0,0:0:0:0:
141,191,40208,5,0,0:0:0:0:
405,287,40368,1,0,0:0:0:0:
225,72,40527,5,0,0:0:0:0:
405,287,40687,1,0,0:0:0:0:
320,106,40846,6,0,B|274:87|224:106|224:106|224:74|224:74|176:90|128:74,1,225
273,182,41325,5,0,0:0:0:0:
315,197,41404,1,0,0:0:0:0:
359,189,41484,1,0,0:0:0:0:
394,162,41564,1,0,0:0:0:0:
415,123,41644,1,0,0:0:0:0:
80,0,41803,5,0,0:0:0:0:
49,37,41882,1,0,0:0:0:0:
43,86,41962,1,0,0:0:0:0:
59,132,42042,1,0,0:0:0:0:
95,165,42122,2,0,L|120:221,1,45
272,259,42282,2,0,L|209:252,1,45
100,370,42442,1,0,0:0:0:0:
100,370,42521,1,0,0:0:0:0:
100,370,42601,6,0,L|135:319,1,45
144,176,42761,5,0,0:0:0:0:
199,166,42840,1,0,0:0:0:0:
236,125,42920,1,0,0:0:0:0:
246,71,43000,5,0,0:0:0:0:
179,90,43079,1,0,0:0:0:0:
135,143,43159,1,0,0:0:0:0:
127,212,43239,1,0,0:0:0:0:
158,274,43319,1,0,0:0:0:0:
218,308,43398,1,0,0:0:0:0:
283,289,43478,1,0,0:0:0:0:
269,305,43559,5,0,0:0:0:0:
257,321,43639,1,0,0:0:0:0:
245,336,43719,1,0,0:0:0:0:
233,352,43799,1,0,0:0:0:0:
218,374,43878,6,0,L|336:368,1,99.0000030212403
336,144,44197,2,0,L|290:232,1,99.0000030212403
496,368,44516,2,0,L|442:284,1,99.0000030212403
336,144,44835,1,0,0:0:0:0:
336,144,44995,6,0,L|290:232,1,99.0000030212403
384,48,45314,1,0,0:0:0:0:
253,304,45474,1,0,0:0:0:0:
240,128,45633,2,0,B|129:167|155:89|31:138,1,198.000006042481
182,54,46112,5,0,0:0:0:0:
105,214,46271,1,0,0:0:0:0:
278,39,46431,1,0,0:0:0:0:
48,128,46591,5,0,0:0:0:0:
185,310,46750,1,0,0:0:0:0:
97,54,46910,1,0,0:0:0:0:
57,326,47069,5,0,0:0:0:0:
182,54,47229,1,0,0:0:0:0:
185,310,47388,5,0,0:0:0:0:
8,45,47548,1,0,0:0:0:0:
185,310,47708,2,0,P|246:311|288:320,1,99.0000030212403
480,176,48027,2,0,P|432:186|377:186,1,99.0000030212403
216,86,48346,1,0,0:0:0:0:
216,86,48505,2,0,B|270:96|304:76|304:76|334:101|334:101|376:82|424:102,1,198.000006042481
144,160,48984,6,0,B|127:141|118:119|118:119|119:145|113:172,1,99.0000030212403
113,24,49303,1,0,0:0:0:0:
111,267,49463,1,0,0:0:0:0:
216,86,49622,2,0,P|238:129|244:178,1,99.0000030212403
112,32,49942,1,0,0:0:0:0:
111,267,50101,6,0,B|164:254|164:254|209:264|209:264|256:258,1,148.50000453186
347,257,50420,1,0,0:0:0:0:
164,344,50580,1,0,0:0:0:0:
438,293,50739,6,0,B|457:228|403:215|436:142,1,148.50000453186
367,351,51059,1,0,0:0:0:0:
512,176,51218,1,0,0:0:0:0:
347,260,51378,1,0,0:0:0:0:
496,80,51537,5,0,0:0:0:0:
438,293,51697,1,0,0:0:0:0:
496,80,51856,2,0,L|378:69,1,99.0000030212403
188,50,52176,2,0,L|306:61,1,99.0000030212403
96,38,52495,1,0,0:0:0:0:
96,38,52575,1,0,0:0:0:0:
96,38,52654,1,0,0:0:0:0:
240,144,52814,6,0,L|189:140,1,49.5000015106202
288,256,52974,6,0,L|245:227,1,49.5000015106202
244,381,53133,5,0,0:0:0:0:
236,366,53212,1,0,0:0:0:0:
229,351,53292,1,0,0:0:0:0:
222,336,53372,1,0,0:0:0:0:
216,323,53452,5,0,0:0:0:0:
256,350,53531,1,0,0:0:0:0:
305,355,53611,1,0,0:0:0:0:
351,338,53691,1,0,0:0:0:0:
392,269,53771,1,0,0:0:0:0:
378,190,53850,1,0,0:0:0:0:
310,147,53930,1,0,0:0:0:0:
233,169,54010,1,0,0:0:0:0:
193,239,54091,6,0,L|298:255,1,99.0000030212403
96,224,54410,1,0,0:0:0:0:
400,272,54569,1,0,0:0:0:0:
128,320,54729,5,0,0:0:0:0:
310,147,54888,1,0,0:0:0:0:
224,336,55048,1,0,0:0:0:0:
394,76,55208,6,0,P|412:151|357:242,1,148.50000453186
309,147,55527,1,0,0:0:0:0:
112,160,55686,1,0,0:0:0:0:
117,164,55846,2,0,B|191:168|191:168|237:146|237:146|322:148,1,198.000006042481
372,317,56325,1,0,0:0:0:0:
242,147,56484,6,0,B|416:148,1,148.50000453186
174,80,56803,1,0,0:0:0:0:
496,144,56963,1,0,0:0:0:0:
269,240,57122,5,0,0:0:0:0:
388,0,57282,1,0,0:0:0:0:
365,208,57442,1,0,0:0:0:0:
176,75,57601,2,0,P|219:52|267:42,1,99.0000030212403
10,65,57920,5,0,0:0:0:0:
57,246,58080,1,0,0:0:0:0:
236,281,58239,1,0,0:0:0:0:
176,80,58399,6,0,P|256:41|350:106,1,198.000006042481
343,91,58878,1,0,0:0:0:0:
240,288,59037,1,0,0:0:0:0:
240,288,59117,1,0,0:0:0:0:
240,288,59197,6,0,B|262:218|262:218|242:129,1,148.50000453186
81,214,59516,2,0,B|136:222|136:222|179:193,1,99.0000030212403
415,74,59835,2,0,B|360:66|360:66|317:95,1,99.0000030212403
251,1,60154,6,0,B|229:71|229:71|249:160,1,148.50000453186
288,312,60474,1,0,0:0:0:0:
324,90,60633,1,0,0:0:0:0:
171,197,60793,2,0,L|145:93,1,99.0000030212403
194,285,61112,1,0,0:0:0:0:
126,16,61271,1,0,0:0:0:0:
80,240,61431,5,0,0:0:0:0:
230,72,61591,1,0,0:0:0:0:
194,285,61750,5,0,0:0:0:0:
194,285,61830,1,0,0:0:0:0:
194,285,61910,1,0,0:0:0:0:
289,142,62069,2,0,B|308:128|325:108|325:108|313:170|323:220,1,148.50000453186
317,384,62388,2,0,P|327:327|328:274,1,99.0000030212403
408,86,62708,2,0,P|407:114|402:141,1,49.5000015106202
320,38,62867,2,0,P|326:65|328:92,1,49.5000015106202
224,16,63027,6,0,P|237:40|246:67,1,49.5000015106202
96,112,63186,1,0,0:0:0:0:
96,112,63266,1,0,0:0:0:0:
96,112,63346,2,0,P|120:98|147:89,1,49.5000015106202
218,150,63505,1,0,0:0:0:0:
196,170,63585,1,0,0:0:0:0:
164,187,63665,5,0,0:0:0:0:
130,194,63744,1,0,0:0:0:0:
96,197,63825,2,0,P|127:187|154:172,1,49.5000015106202
96,112,63984,5,0,0:0:0:0:
106,105,64063,1,0,0:0:0:0:
117,100,64143,1,0,0:0:0:0:
129,95,64223,1,0,0:0:0:0:
140,90,64303,1,0,0:0:0:0:
287,58,64463,5,0,0:0:0:0:
203,164,64622,1,0,0:0:0:0:
124,278,64782,1,0,0:0:0:0:
124,278,64942,2,0,L|25:269,1,99.0000030212403
16,269,65181,1,0,0:0:0:0:
3,268,65261,1,0,0:0:0:0:
160,352,65420,6,0,B|226:359|226:359|257:346|257:346|336:352,1,148.50000453186
400,352,65739,1,0,0:0:0:0:
208,272,65899,1,0,0:0:0:0:
336,272,66059,1,0,0:0:0:0:
160,352,66218,1,0,0:0:0:0:
210,83,66378,2,0,B|226:130|199:169|199:169|216:197|216:197|193:232|210:291,1,198.000006042481
215,296,66777,1,0,0:0:0:0:
224,320,66856,1,0,0:0:0:0:
136,122,67016,5,0,0:0:0:0:
288,256,67175,1,0,0:0:0:0:
448,384,67335,5,0,0:0:0:0:
350,168,67495,1,0,0:0:0:0:
234,341,67654,1,0,0:0:0:0:
243,360,67734,1,0,0:0:0:0:
251,376,67814,1,0,0:0:0:0:
414,245,67974,6,0,P|446:181|414:85,1,148.50000453186
400,16,68293,1,0,0:0:0:0:
496,304,68453,1,0,0:0:0:0:
400,16,68613,1,0,0:0:0:0:
350,168,68772,1,0,0:0:0:0:
496,32,68931,5,0,0:0:0:0:
496,32,69011,1,0,0:0:0:0:
496,32,69091,1,0,0:0:0:0:
512,209,69250,1,0,0:0:0:0:
512,209,69330,1,0,0:0:0:0:
512,209,69410,1,0,0:0:0:0:
414,131,69569,5,0,0:0:0:0:
254,114,69729,1,0,0:0:0:0:
111,99,69888,1,0,0:0:0:0:
254,114,70048,2,0,L|397:129,1,99.0000030212403
384,127,70287,1,0,0:0:0:0:
414,131,70367,1,0,0:0:0:0:
174,66,70527,6,0,B|167:132|167:132|180:163|180:163|174:242,1,148.50000453186
174,306,70846,1,0,0:0:0:0:
254,114,71006,1,0,0:0:0:0:
254,242,71166,1,0,0:0:0:0:
174,66,71325,1,0,0:0:0:0:
90,268,71484,2,0,B|97:199|97:199|83:159|83:159|90:73,1,198.000006042481
357,384,71963,5,0,0:0:0:0:
218,384,72122,1,0,0:0:0:0:
88,381,72282,1,0,0:0:0:0:
380,249,72442,5,0,0:0:0:0:
218,306,72601,1,0,0:0:0:0:
81,246,72761,1,0,0:0:0:0:
374,123,72921,5,0,0:0:0:0:
218,229,73080,1,0,0:0:0:0:
86,125,73240,1,0,0:0:0:0:
357,0,73399,5,0,0:0:0:0:
220,157,73558,1,0,0:0:0:0:
110,7,73718,1,0,0:0:0:0:
220,157,73878,5,0,0:0:0:0:
249,195,73957,1,0,0:0:0:0:
254,244,74037,1,0,0:0:0:0:
233,288,74117,1,0,0:0:0:0:
211,267,74197,5,0,0:0:0:0:
202,244,74276,1,0,0:0:0:0:
206,220,74356,1,0,0:0:0:0:
223,202,74436,1,0,0:0:0:0:
246,195,74516,1,0,0:0:0:0:
256,192,74676,12,0,75633,0:0:0:0:
448,112,75793,5,0,0:0:0:0:
448,112,75952,1,0,0:0:0:0:
298,44,76112,1,0,0:0:0:0:
230,193,76271,1,0,0:0:0:0:
380,261,76431,2,0,L|275:274,1,80.9999975280763
112,288,76750,1,0,0:0:0:0:
230,193,76910,6,0,L|314:186,1,80.9999975280763
431,98,77229,2,0,L|341:105,1,80.9999975280763
512,92,77548,1,0,0:0:0:0:
271,106,77708,1,0,0:0:0:0:
488,174,77867,2,0,L|401:180,1,80.9999975280763
230,193,78186,1,0,0:0:0:0:
47,54,78346,1,0,0:0:0:0:
47,54,78506,6,0,L|53:138,1,80.9999975280763
59,213,78771,2,0,L|64:251,2,26.9999991760254
134,95,78985,1,0,0:0:0:0:
147,250,79144,1,0,0:0:0:0:
134,95,79303,1,0,0:0:0:0:
66,293,79463,6,0,P|59:247|59:205,1,80.9999975280763
224,32,79782,2,0,P|231:78|232:117,1,80.9999975280763
32,48,80101,2,0,L|30:7,1,40.4999987640381
112,64,80261,5,0,0:0:0:0:
115,93,80340,1,0,0:0:0:0:
118,123,80420,1,0,0:0:0:0:
121,153,80500,1,0,0:0:0:0:
123,169,80580,5,0,0:0:0:0:
124,186,80660,1,0,0:0:0:0:
126,206,80739,1,0,0:0:0:0:
109,24,80899,1,0,0:0:0:0:
208,144,81059,5,0,0:0:0:0:
328,151,81218,1,0,0:0:0:0:
439,157,81378,2,0,L|478:159,2,26.9999991760254
464,240,81537,2,0,B|427:233|403:240|403:240|370:222|370:222|336:235|301:225,1,161.999995056153
312,74,82016,6,0,P|329:113|326:156,1,80.9999975280763
235,285,82335,2,0,P|218:246|221:203,1,80.9999975280763
240,128,82654,2,0,L|208:128,2,26.9999991760254
304,224,82814,1,0,0:0:0:0:
231,49,82974,1,0,0:0:0:0:
219,208,83133,2,0,P|224:272|293:319,1,121.499996292114
488,353,83452,5,0,0:0:0:0:
304,224,83612,1,0,0:0:0:0:
399,290,83771,1,0,0:0:0:0:
337,379,83931,5,0,0:0:0:0:
466,195,84091,1,0,0:0:0:0:
399,290,84250,1,0,0:0:0:0:
337,379,84410,5,0,0:0:0:0:
488,353,84569,1,0,0:0:0:0:
466,195,84729,1,0,0:0:0:0:
304,224,84888,1,0,0:0:0:0:
144,249,85048,5,0,0:0:0:0:
144,249,85128,1,0,0:0:0:0:
144,249,85208,2,0,L|132:194,1,40.4999987640381
219,122,85367,5,0,0:0:0:0:
219,122,85447,1,0,0:0:0:0:
219,122,85527,2,0,L|231:67,1,40.4999987640381
336,80,85686,5,0,0:0:0:0:
349,66,85765,1,0,0:0:0:0:
363,50,85845,1,0,0:0:0:0:
376,35,85925,1,0,0:0:0:0:
389,19,86005,5,0,0:0:0:0:
397,152,86165,1,0,0:0:0:0:
332,353,86325,5,0,0:0:0:0:
325,230,86485,1,0,0:0:0:0:
240,70,86644,5,0,0:0:0:0:
247,179,86804,1,0,0:0:0:0:
184,353,86963,5,0,0:0:0:0:
178,258,87123,1,0,0:0:0:0:
178,258,87202,1,0,0:0:0:0:
178,258,87282,1,0,0:0:0:0:
256,192,87442,12,0,89356,0:0:0:0:
