osu file format v14

[General]
AudioFilename: audio.mp3
AudioLeadIn: 0
PreviewTime: 43081
Countdown: 0
SampleSet: Soft
StackLeniency: 0.2
Mode: 0
LetterboxInBreaks: 0
WidescreenStoryboard: 0

[Editor]
Bookmarks: 5422,15635,28401,36060,43720,64145
DistanceSpacing: 0.3
BeatDivisor: 4
GridSize: 16
TimelineZoom: 2.3

[Metadata]
Title:BRAVER
TitleUnicode:BRAVER
Artist:ZAQ
ArtistUnicode:ZAQ
Creator:cococolaco
Version:gotcha pork roast
Source:食戟のソーマ
Tags:shokugeki no soma food wars anime opening op souma yukihira
BeatmapID:1458803
BeatmapSetID:689098

[Difficulty]
HPDrainRate:5
CircleSize:4
OverallDifficulty:8
ApproachRate:9.3
SliderMultiplier:1.4
SliderTickRate:1

[Events]
//Background and Video events
0,0,"1.png",0,0
//Break Periods
//Storyboard Layer 0 (Background)
//Storyboard Layer 1 (Fail)
//Storyboard Layer 2 (Pass)
//Storyboard Layer 3 (Foreground)
//Storyboard Sound Samples

[TimingPoints]
316,319.148936170213,4,2,0,20,1,0
5422,-76.9230769230769,4,2,0,50,0,0
18188,-100,4,2,0,50,0,0
36698,-76.9230769230769,4,2,0,50,0,0
43720,-50,4,2,0,50,0,1
44039,-66.6666666666667,4,2,0,50,0,1
47869,-50,4,2,0,50,0,1
48347,-100,4,2,0,50,0,1
48826,-66.6666666666667,4,2,0,50,0,1
49464,-50,4,2,0,50,0,1
49943,-66.6666666666667,4,2,0,50,0,1
53613,-66.6666666666667,4,2,0,50,0,0
53933,-50,4,2,0,50,0,1
54252,-66.6666666666667,4,2,0,50,0,1
58241,-133.333333333333,4,2,0,50,0,1
59039,-58.8235294117647,4,2,0,50,0,1
60316,-66.6666666666667,4,2,0,50,0,1
64225,-66.6666666666667,4,2,0,50,0,0
71805,-66.6666666666667,4,2,0,50,0,1
74358,-66.6666666666667,4,2,0,50,0,0
75635,-83.3333333333333,4,2,0,50,0,1
87124,-83.3333333333333,4,2,0,50,0,0

[HitObjects]
121,111,316,5,0,0:0:0:0:
391,273,475,1,0,0:0:0:0:
391,273,794,1,0,0:0:0:0:
308,51,954,1,0,0:0:0:0:
308,51,1034,1,0,0:0:0:0:
308,51,1113,2,0,L|303:98,1,35
299,190,1273,1,0,0:0:0:0:
189,127,1433,1,0,0:0:0:0:
95,325,1752,5,0,0:0:0:0:
205,362,1911,1,0,0:0:0:0:
214,328,1990,1,0,0:0:0:0:
210,293,2070,1,0,0:0:0:0:
194,262,2150,1,0,0:0:0:0:
172,242,2230,2,0,P|278:230|287:117,1,210
213,169,2869,5,0,0:0:0:0:
132,319,3028,1,0,0:0:0:0:
353,249,3347,1,0,0:0:0:0:
72,235,3507,1,0,0:0:0:0:
72,235,3587,1,0,0:0:0:0:
72,235,3666,2,0,L|119:239,1,35
217,247,3826,1,0,0:0:0:0:
352,152,3986,1,0,0:0:0:0:
352,152,4305,5,0,0:0:0:0:
140,241,4464,1,0,0:0:0:0:
256,192,4544,12,0,5262,0:0:0:0:
445,63,5422,6,0,L|428:157,1,90.9999958343508,4|0,0:0|0:0,0:0:0:0:
330,249,5741,2,0,L|314:159,1,90.9999958343508,8|0,0:0|0:0,0:0:0:0:
166,149,6060,1,0,0:0:0:0:
304,127,6220,1,0,0:0:0:0:
185,35,6379,1,8,0:0:0:0:
317,127,6539,1,0,0:0:0:0:
164,162,6698,5,4,0:0:0:0:
330,127,6858,2,2,P|337:174|327:229,1,90.9999958343508,2|10,0:0|0:0,0:0:0:0:
271,300,7177,2,0,L|360:315,1,90.9999958343508,2|0,0:0|0:0,0:0:0:0:
512,228,7496,2,0,L|422:243,1,90.9999958343508,2|8,0:0|0:0,0:0:0:0:
330,216,7816,1,0,0:0:0:0:
196,282,7975,5,4,0:0:0:0:
318,225,8135,1,0,0:0:0:0:
185,288,8294,2,0,P|132:298|93:286,1,90.9999958343508,8|0,0:0|0:0,0:0:0:0:
0,184,8613,2,0,P|53:174|92:186,1,90.9999958343508
187,184,8933,2,0,L|276:168,1,90.9999958343508,8|0,0:0|0:0,0:0:0:0:
335,116,9252,6,0,P|348:191|276:167,1,181.999991668702,4|8,0:0|0:0,0:0:0:0:
259,89,9730,1,0,3:0:0:0:
259,89,9810,1,0,3:0:0:0:
259,89,9890,2,0,L|266:44,1,45.4999979171754,0|0,3:0|3:0,3:0:0:0:
335,0,10050,1,0,3:0:0:0:
446,112,10209,1,8,3:0:0:0:
446,112,10289,1,0,3:0:0:0:
446,112,10369,2,0,L|453:156,1,45.4999979171754,0|0,3:0|3:0,3:0:0:0:
512,217,10528,6,0,P|413:195|338:236,1,181.999991668702,4|8,0:0|0:0,0:0:0:0:
293,316,11007,1,0,0:0:0:0:
255,135,11167,1,0,0:0:0:0:
344,229,11326,1,0,0:0:0:0:
353,93,11486,1,8,0:0:0:0:
345,240,11645,1,0,0:0:0:0:
255,146,11805,5,4,0:0:0:0:
345,252,11964,2,0,L|255:267,1,90.9999958343508,2|0,0:0|0:0,0:0:0:0:
129,338,12284,2,0,L|218:353,1,90.9999958343508,2|0,0:0|0:0,0:0:0:0:
58,377,12603,2,0,P|48:324|60:285,1,90.9999958343508,2|8,0:0|0:0,0:0:0:0:
307,356,12922,1,0,0:0:0:0:
307,356,13002,1,0,0:0:0:0:
307,356,13081,6,0,L|351:348,1,45.4999979171754,2|0,3:0|3:0,3:0:0:0:
426,269,13241,1,0,0:0:0:0:
334,221,13401,2,0,L|318:131,1,90.9999958343508,8|0,0:0|0:0,0:0:0:0:
181,90,13720,1,0,0:0:0:0:
318,131,13879,1,0,0:0:0:0:
176,78,14039,1,8,0:0:0:0:
312,121,14198,1,0,0:0:0:0:
191,200,14358,5,4,0:0:0:0:
168,64,14518,1,0,0:0:0:0:
194,214,14677,1,8,0:0:0:0:
46,202,14837,1,0,3:0:0:0:
46,202,14917,1,0,3:0:0:0:
46,202,14996,2,0,L|38:157,1,45.4999979171754,8|0,3:0|3:0,3:0:0:0:
84,66,15156,1,0,3:0:0:0:
84,66,15236,1,0,3:0:0:0:
84,66,15315,2,0,L|76:21,3,45.4999979171754,8|0|0|0,3:0|3:0|3:0|3:0,3:0:0:0:
180,138,15635,5,4,0:0:0:0:
256,192,15714,12,0,17230,0:0:0:0:
147,131,17550,5,0,3:0:0:0:
147,131,17629,1,0,3:0:0:0:
147,131,17709,1,0,3:0:0:0:
256,192,17869,5,0,3:0:0:0:
256,192,17948,1,0,3:0:0:0:
256,192,18028,1,0,3:0:0:0:
459,227,18188,6,0,P|396:208|341:223,1,105
333,226,18507,1,8,0:0:0:0:
435,301,18667,2,0,L|447:369,1,70
356,357,18986,2,0,L|287:344,1,70,0|8,0:0|0:0,0:0:0:0:
173,274,19305,6,0,L|241:261,1,70
69,202,19624,2,0,L|0:214,1,70,0|8,0:0|0:0,0:0:0:0:
157,185,19943,2,0,L|144:116,1,70
85,291,20262,2,0,L|97:359,1,70,0|8,0:0|0:0,0:0:0:0:
173,274,20581,6,0,L|185:205,1,70
341,200,20901,2,0,L|272:187,1,70,0|8,0:0|0:0,0:0:0:0:
269,30,21220,2,0,L|256:98,1,70
100,103,21539,2,0,L|168:115,1,70,0|8,0:0|0:0,0:0:0:0:
287,218,21858,1,0,0:0:0:0:
287,218,21938,1,0,0:0:0:0:
287,218,22018,6,0,P|232:220|163:191,1,105
163,185,22337,1,8,0:0:0:0:
366,198,22496,1,0,0:0:0:0:
187,307,22656,1,0,0:0:0:0:
383,195,22816,2,0,P|408:131|387:66,1,140
249,116,23294,5,4,0:0:0:0:
249,116,23454,2,0,L|317:128,1,70,0|8,0:0|0:0,0:0:0:0:
451,182,23773,2,0,L|382:194,1,70
240,234,24092,2,0,L|308:246,1,70,0|8,0:0|0:0,0:0:0:0:
442,300,24411,6,0,L|373:312,1,70
244,384,24730,2,0,L|175:371,1,70,0|8,0:0|0:0,0:0:0:0:
373,312,25050,2,0,L|304:324,1,70
175,371,25369,2,0,L|106:358,2,70,0|8|0,0:0|0:0|0:0,0:0:0:0:
53,363,25847,6,0,P|91:302|85:227,1,140
72,134,26326,1,0,0:0:0:0:
72,134,26406,1,0,0:0:0:0:
72,134,26486,2,0,L|106:140,1,35
183,179,26645,2,0,L|217:172,1,35
280,97,26805,2,0,L|315:103,1,35
360,212,26964,2,0,L|394:218,1,35
491,172,27124,5,4,0:0:0:0:
341,201,27284,1,4,0:0:0:0:
266,354,27443,1,4,3:0:0:0:
266,354,27523,1,0,3:0:0:0:
266,354,27603,2,0,L|258:309,1,35,8|0,3:0|3:0,3:0:0:0:
177,240,27762,1,0,3:0:0:0:
177,240,27842,1,0,3:0:0:0:
177,240,27921,2,0,L|169:195,3,35,8|0|0|0,3:0|3:0|3:0|3:0,3:0:0:0:
176,361,28241,1,0,0:0:0:0:
332,295,28401,5,4,0:0:0:0:
165,366,28560,1,0,0:0:0:0:
248,220,28720,1,8,0:0:0:0:
154,373,28879,1,0,0:0:0:0:
320,299,29039,1,0,0:0:0:0:
144,380,29198,2,0,P|119:320|116:285,1,70,0|8,0:0|0:0,0:0:0:0:
135,207,29518,6,0,B|189:222|222:218|222:218|210:204|208:188,1,105
182,133,29837,1,0,0:0:0:0:
46,202,29996,1,8,0:0:0:0:
196,130,30156,1,0,0:0:0:0:
42,103,30316,1,0,0:0:0:0:
210,127,30475,2,0,P|270:128|300:151,1,70,0|8,0:0|0:0,0:0:0:0:
374,155,30794,6,0,P|322:157|277:132,1,105
342,79,31113,1,0,0:0:0:0:
407,230,31273,2,0,P|360:238|295:228,1,105,8|0,0:0|0:0,0:0:0:0:
235,201,31592,1,0,0:0:0:0:
312,312,31752,1,0,0:0:0:0:
175,242,31911,1,8,0:0:0:0:
326,324,32071,1,0,0:0:0:0:
326,324,32151,1,0,0:0:0:0:
326,324,32230,6,0,P|259:301|177:322,1,140,0|8,0:0|0:0,0:0:0:0:
127,384,32709,1,0,0:0:0:0:
101,263,32869,2,0,L|89:194,1,70
186,82,33188,2,0,L|198:151,1,70,8|0,0:0|0:0,0:0:0:0:
285,260,33507,5,4,0:0:0:0:
200,154,33667,1,0,0:0:0:0:
330,182,33826,1,8,0:0:0:0:
197,145,33986,1,0,0:0:0:0:
295,272,34145,1,0,0:0:0:0:
193,137,34305,2,0,P|143:132|94:137,1,70,0|8,0:0|0:0,0:0:0:0:
13,179,34624,6,0,P|0:128|13:78,1,105
37,52,34943,1,0,0:0:0:0:
98,203,35103,1,8,0:0:0:0:
45,45,35262,1,0,0:0:0:0:
175,140,35422,1,0,0:0:0:0:
58,36,35581,2,0,L|132:43,1,70,0|8,0:0|0:0,0:0:0:0:
243,128,35901,1,0,0:0:0:0:
243,128,36060,6,0,B|174:140|174:140|98:130,1,140,4|0,0:0|0:0,0:0:0:0:
91,224,36539,1,0,0:0:0:0:
91,224,36619,1,0,0:0:0:0:
91,224,36698,5,0,0:0:0:0:
125,228,36777,1,0,0:0:0:0:
160,233,36857,1,0,0:0:0:0:
194,227,36937,1,0,0:0:0:0:
229,221,37017,1,0,0:0:0:0:
259,226,37097,1,0,0:0:0:0:
290,234,37177,1,0,0:0:0:0:
152,144,37337,5,4,0:0:0:0:
234,324,37496,1,4,0:0:0:0:
404,146,37816,1,4,0:0:0:0:
275,147,37975,1,0,0:0:0:0:
275,147,38055,1,0,0:0:0:0:
275,147,38135,2,0,L|263:216,1,45.4999979171754
226,279,38294,1,0,0:0:0:0:
226,279,38374,1,0,0:0:0:0:
226,279,38454,2,0,L|238:348,2,45.4999979171754
140,167,38773,5,0,0:0:0:0:
367,252,38933,1,0,0:0:0:0:
367,252,39252,5,0,0:0:0:0:
452,25,39412,1,0,0:0:0:0:
452,25,39730,5,0,0:0:0:0:
453,37,40050,5,0,0:0:0:0:
454,51,40369,6,0,P|432:100|457:186,1,136.499993751526
454,191,40688,5,0,0:0:0:0:
256,119,41167,5,0,0:0:0:0:
454,206,41326,1,0,0:0:0:0:
455,217,41406,1,0,0:0:0:0:
455,230,41486,2,0,L|443:299,1,45.4999979171754
424,365,41645,5,0,0:0:0:0:
309,258,41805,1,0,0:0:0:0:
298,259,41885,1,0,0:0:0:0:
285,259,41965,2,0,L|216:247,1,45.4999979171754
135,225,42124,5,0,0:0:0:0:
71,92,42284,1,0,0:0:0:0:
82,91,42364,1,0,0:0:0:0:
95,91,42444,2,0,L|164:103,1,45.4999979171754
211,51,42603,2,0,L|255:43,1,45.4999979171754
270,150,42762,2,0,L|339:162,1,45.4999979171754
385,57,42922,2,0,L|429:49,1,45.4999979171754
414,188,43081,5,0,0:0:0:0:
405,208,43160,1,0,0:0:0:0:
391,226,43240,1,0,0:0:0:0:
372,240,43320,1,0,0:0:0:0:
357,250,43400,5,0,0:0:0:0:
317,264,43480,1,0,0:0:0:0:
282,289,43560,1,0,0:0:0:0:
256,323,43640,1,0,0:0:0:0:
239,363,43720,6,0,P|166:348|97:363,1,140
114,355,43959,1,0,0:0:0:0:
124,351,44039,2,0,P|147:298|138:235,1,105.000004005432
147,49,44358,2,0,P|125:96|127:148,1,105.000004005432
268,121,44677,2,0,L|216:112,1,52.5000020027161
45,80,44837,1,0,0:0:0:0:
202,222,44996,5,0,0:0:0:0:
54,83,45156,1,0,0:0:0:0:
271,194,45316,1,0,0:0:0:0:
68,90,45475,2,0,P|86:148|58:210,1,105.000004005432
23,268,45794,1,0,0:0:0:0:
224,306,45954,2,0,L|121:288,1,105.000004005432
155,146,46273,5,0,0:0:0:0:
225,318,46433,1,0,0:0:0:0:
305,120,46592,5,0,0:0:0:0:
226,330,46752,1,0,0:0:0:0:
153,134,46911,5,0,0:0:0:0:
227,344,47071,1,0,0:0:0:0:
305,109,47230,5,0,0:0:0:0:
227,356,47390,1,0,0:0:0:0:
153,122,47550,5,0,0:0:0:0:
286,192,47709,1,0,0:0:0:0:
224,306,47869,2,0,B|299:306|330:271|330:271|296:266|281:249,1,140
205,200,48188,1,0,0:0:0:0:
391,228,48347,6,0,P|406:263|400:301,1,70
347,380,48667,1,0,0:0:0:0:
489,318,48826,6,0,P|489:242|475:192,1,105.000004005432
482,214,49066,1,0,0:0:0:0:
482,214,49145,2,0,P|482:138|496:88,1,105.000004005432
436,33,49464,6,0,B|402:60|396:102|392:139|392:139|364:115,1,140
213,26,49784,1,0,0:0:0:0:
133,113,49943,1,0,0:0:0:0:
133,113,50023,1,0,0:0:0:0:
133,113,50103,6,0,P|204:142|253:137,1,105.000004005432
368,62,50422,1,0,0:0:0:0:
288,200,50581,2,0,P|205:223|239:140,1,210.000008010865
411,269,51060,1,0,0:0:0:0:
166,301,51220,1,0,0:0:0:0:
166,301,51379,6,0,P|126:260|111:201,1,105.000004005432
174,115,51698,1,0,0:0:0:0:
259,302,51858,2,0,P|237:360|199:387,1,105.000004005432
0,232,52177,1,0,0:0:0:0:
166,301,52337,1,0,0:0:0:0:
1,384,52496,1,0,0:0:0:0:
85,299,52656,5,0,0:0:0:0:
83,281,52735,1,0,0:0:0:0:
82,264,52815,1,0,0:0:0:0:
81,246,52895,1,0,0:0:0:0:
101,217,52975,5,0,0:0:0:0:
102,199,53054,1,0,0:0:0:0:
103,182,53134,1,0,0:0:0:0:
104,164,53214,1,0,0:0:0:0:
80,126,53294,5,0,0:0:0:0:
82,108,53373,1,0,0:0:0:0:
83,91,53453,1,0,0:0:0:0:
84,73,53533,1,0,0:0:0:0:
104,49,53613,6,0,P|136:56|168:51,3,52.5000020027161
242,34,53933,6,0,B|252:97|197:138|197:138|226:129|263:131,1,140
239,131,54172,1,0,0:0:0:0:
256,127,54252,6,0,P|340:146|362:176,1,105.000004005432
258,325,54571,2,0,L|276:222,1,105.000004005432
311,33,54890,2,0,L|301:85,1,52.5000020027161
276,221,55050,1,0,0:0:0:0:
413,89,55209,5,0,0:0:0:0:
269,231,55369,1,0,0:0:0:0:
304,40,55528,1,0,0:0:0:0:
262,243,55688,2,0,P|249:298|272:344,1,105.000004005432
382,374,56007,1,0,0:0:0:0:
147,343,56167,1,0,0:0:0:0:
287,209,56326,1,0,0:0:0:0:
80,77,56486,5,0,0:0:0:0:
328,138,56645,1,0,0:0:0:0:
61,207,56805,5,0,0:0:0:0:
337,138,56964,1,0,0:0:0:0:
69,77,57124,5,0,0:0:0:0:
350,139,57284,1,0,0:0:0:0:
48,208,57443,5,0,0:0:0:0:
364,140,57603,1,0,0:0:0:0:
55,77,57762,5,0,0:0:0:0:
173,150,57922,1,0,0:0:0:0:
378,140,58081,1,0,0:0:0:0:
80,299,58241,6,0,B|55:273|55:273|51:259|41:247|41:247|36:202,1,105.000004005432
141,213,58720,1,0,0:0:0:0:
257,300,58879,2,0,L|252:274,1,26.2500010013581
260,318,59039,6,0,P|340:280|425:328,1,178.500003404617
344,365,59358,2,0,B|321:235|321:235|332:168,1,178.500003404617
326,108,59677,2,0,P|390:154|320:184,1,178.500003404617
242,106,59996,2,0,B|238:86|238:86|250:39|319:0|405:34,1,178.500003404617
414,107,60316,6,0,P|365:184|291:187,1,157.500006008148
227,185,60635,2,0,B|193:185|168:159|168:159|156:260,1,157.500006008148
101,316,60954,2,0,P|198:321|242:264,1,157.500006008148
306,223,61273,2,0,B|294:156|294:156|306:101|306:101|298:53,1,157.500006008148
292,42,61592,5,0,0:0:0:0:
124,161,61752,1,0,0:0:0:0:
302,54,61911,1,0,0:0:0:0:
198,225,62071,1,0,0:0:0:0:
312,68,62230,1,0,0:0:0:0:
302,252,62390,1,0,0:0:0:0:
321,81,62550,1,0,0:0:0:0:
406,241,62709,1,0,0:0:0:0:
332,94,62869,6,0,P|348:166|330:217,1,105.000004005432
339,225,63108,1,0,0:0:0:0:
339,225,63188,2,0,L|287:234,1,52.5000020027161
231,323,63347,2,0,L|179:313,1,52.5000020027161
88,236,63507,5,0,0:0:0:0:
68,201,63586,1,0,0:0:0:0:
62,163,63666,1,0,0:0:0:0:
68,124,63746,1,0,0:0:0:0:
86,89,63826,2,0,L|137:98,1,52.5000020027161
194,187,63986,2,0,L|245:177,1,52.5000020027161
314,94,64145,5,0,0:0:0:0:
256,192,64225,12,0,66220,0:0:0:0:
160,117,66539,5,0,0:0:0:0:
176,207,66619,1,0,0:0:0:0:
191,293,66698,1,0,0:0:0:0:
256,192,66778,12,0,68773,0:0:0:0:
367,262,69092,5,0,0:0:0:0:
277,278,69172,1,0,0:0:0:0:
191,293,69251,1,0,0:0:0:0:
256,192,69331,12,0,71326,0:0:0:0:
176,196,71645,5,0,0:0:0:0:
401,124,71805,5,0,0:0:0:0:
165,197,71964,1,0,0:0:0:0:
165,197,72124,1,0,0:0:0:0:
401,274,72284,5,0,0:0:0:0:
155,198,72443,1,0,0:0:0:0:
155,198,72603,1,0,0:0:0:0:
411,123,72762,5,0,0:0:0:0:
143,198,72922,1,0,0:0:0:0:
143,198,73082,1,0,0:0:0:0:
415,273,73241,5,0,0:0:0:0:
131,199,73401,1,0,0:0:0:0:
131,199,73561,1,0,0:0:0:0:
410,196,73720,6,0,L|358:196,3,52.5000020027161
325,197,74039,1,0,0:0:0:0:
290,197,74118,1,0,0:0:0:0:
255,197,74198,1,0,0:0:0:0:
220,197,74278,1,0,0:0:0:0:
186,199,74358,5,0,0:0:0:0:
256,192,74438,12,0,75236,0:0:0:0:
256,48,75316,5,0,0:0:0:0:
103,158,75635,5,6,0:0:0:0:
103,158,75794,2,0,P|181:196|209:194,1,83.9999974365235,10|0,0:0|0:0,0:0:0:0:
310,144,76113,1,2,0:0:0:0:
288,287,76273,2,0,L|339:296,1,41.9999987182618,8|0,0:0|0:0,0:0:0:0:
419,349,76433,1,2,0:0:0:0:
255,206,76592,1,0,0:0:0:0:
298,376,76752,1,10,0:0:0:0:
408,235,76911,5,2,0:0:0:0:
260,117,77071,2,0,P|200:136|173:164,1,83.9999974365235,8|0,0:0|0:0,0:0:0:0:
111,235,77390,1,2,0:0:0:0:
111,235,77550,1,8,0:0:0:0:
348,123,77709,2,0,P|339:82|315:47,1,83.9999974365235,2|0,0:0|0:0,0:0:0:0:
190,65,78028,1,10,0:0:0:0:
255,206,78188,5,4,0:0:0:0:
101,235,78347,2,0,L|109:187,1,41.9999987182618,8|0,0:0|0:0,0:0:0:0:
80,104,78507,1,0,0:0:0:0:
267,123,78667,1,0,0:0:0:0:
267,123,78746,1,0,0:0:0:0:
267,123,78826,1,10,0:0:0:0:
245,292,78986,1,2,0:0:0:0:
113,154,79145,1,0,0:0:0:0:
255,206,79305,1,10,0:0:0:0:
92,267,79464,5,4,0:0:0:0:
287,124,79624,2,0,P|320:148|340:187,1,83.9999974365235,8|0,0:0|0:0,0:0:0:0:
221,286,79943,2,0,P|187:261|168:223,1,83.9999974365235,2|8,0:0|0:0,0:0:0:0:
163,197,80183,1,0,0:0:0:0:
161,169,80262,1,2,0:0:0:0:
168,141,80342,1,0,0:0:0:0:
181,117,80422,5,0,0:0:0:0:
195,93,80502,1,0,0:0:0:0:
204,65,80581,1,0,0:0:0:0:
206,38,80661,1,0,0:0:0:0:
200,29,80741,5,4,0:0:0:0:
253,178,80901,2,0,L|300:186,1,41.9999987182618,8|0,0:0|0:0,0:0:0:0:
382,155,81060,1,2,0:0:0:0:
168,141,81220,1,0,0:0:0:0:
160,182,81299,1,0,0:0:0:0:
170,223,81379,1,8,0:0:0:0:
373,237,81539,2,0,P|387:187|380:149,1,83.9999974365235,2|0,0:0|0:0,0:0:0:0:
284,50,81858,1,8,0:0:0:0:
275,183,82018,5,4,0:0:0:0:
172,112,82177,2,0,L|124:120,1,41.9999987182618,8|0,0:0|0:0,0:0:0:0:
41,91,82337,1,0,0:0:0:0:
128,224,82496,1,0,0:0:0:0:
128,224,82576,1,0,0:0:0:0:
128,224,82656,1,8,0:0:0:0:
2,158,82816,1,0,0:0:0:0:
197,184,82975,1,0,0:0:0:0:
19,240,83135,1,0,0:0:0:0:
172,112,83294,5,4,0:0:0:0:
82,294,83454,1,8,0:0:0:0:
82,294,83613,1,2,0:0:0:0:
169,101,83773,5,4,0:0:0:0:
259,283,83933,1,8,0:0:0:0:
259,283,84092,1,2,0:0:0:0:
167,93,84252,5,4,0:0:0:0:
77,275,84412,1,8,0:0:0:0:
77,275,84571,1,2,0:0:0:0:
165,85,84730,5,4,0:0:0:0:
261,247,84890,1,0,0:0:0:0:
249,219,84969,1,0,0:0:0:0:
245,189,85049,1,0,0:0:0:0:
250,160,85129,1,0,0:0:0:0:
260,131,85209,5,0,0:0:0:0:
268,102,85288,1,0,0:0:0:0:
267,73,85368,1,0,0:0:0:0:
258,44,85448,1,0,0:0:0:0:
272,52,85528,5,0,0:0:0:0:
280,57,85607,1,0,0:0:0:0:
289,63,85687,1,0,0:0:0:0:
298,69,85767,1,0,0:0:0:0:
306,75,85847,5,0,0:0:0:0:
452,186,86007,1,0,0:0:0:0:
380,42,86167,1,0,0:0:0:0:
391,232,86326,1,0,0:0:0:0:
456,49,86486,1,0,0:0:0:0:
326,275,86645,1,0,0:0:0:0:
510,103,86805,1,0,0:0:0:0:
263,317,86964,5,0,0:0:0:0:
256,192,87044,12,0,89198,0:0:0:0:
