osu file format v14

[General]
AudioFilename: audio.mp3
AudioLeadIn: 0
PreviewTime: 43319
Countdown: 0
SampleSet: Soft
StackLeniency: 0.7
Mode: 0
LetterboxInBreaks: 0
WidescreenStoryboard: 0

[Editor]
DistanceSpacing: 1
BeatDivisor: 4
GridSize: 32
TimelineZoom: 1

[Metadata]
Title:BRAVER
TitleUnicode:BRAVER
Artist:ZAQ
ArtistUnicode:ZAQ
Creator:Yasaija 714
Version:Normal
Source:食戟のソーマ 餐ノ皿
Tags:shokugeki no soma san no sara tv size opening season 3 Karen eLy Doormat _kotachi_ xxdeathx
BeatmapID:1431579
BeatmapSetID:676865

[Difficulty]
HPDrainRate:4
CircleSize:3
OverallDifficulty:4
ApproachRate:5
SliderMultiplier:1.1
SliderTickRate:1

[Events]
//Background and Video events
0,0,"BG.jpg",0,0
Video,0,"opening.avi"
//Break Periods
//Storyboard Layer 0 (Background)
//Storyboard Layer 1 (Fail)
//Storyboard Layer 2 (Pass)
//Storyboard Layer 3 (Foreground)
//Storyboard Sound Samples

[TimingPoints]
474,319.148936170213,4,1,1,50,1,0
5580,-100,4,2,1,60,0,0
15793,-100,4,2,1,40,0,0
18346,-100,4,2,1,50,0,0
28559,-100,4,2,1,60,0,0
41325,-100,4,2,1,70,0,0
43878,-100,4,2,1,80,0,1
74516,-100,4,2,1,40,0,0
75793,-100,4,2,1,60,0,0
88378,319.148936170213,4,1,0,40,1,0

[Colours]
Combo1 : 189,189,0
Combo2 : 35,192,134
Combo3 : 186,101,175
Combo4 : 241,31,63

[HitObjects]
94,151,474,6,0,L|100:216,1,55,0|0,0:0|0:0,0:0:0:0:
196,257,952,2,0,L|201:202,1,55,0|0,0:0|0:0,0:0:0:0:
264,111,1431,1,0,0:0:0:0:
405,195,1910,1,2,0:3:0:0:
405,195,2069,2,0,P|411:257|402:308,1,110,8|2,0:3|0:3,0:0:0:0:
364,342,2548,2,0,P|309:333|237:344,1,110,8|0,0:3|0:0,0:0:0:0:
203,357,3027,6,0,L|138:344,1,55,0|0,0:0|0:0,0:0:0:0:
119,240,3505,2,0,L|54:253,1,55,0|0,0:0|0:0,0:0:0:0:
7,344,3984,1,0,0:0:0:0:
5,178,4463,1,0,0:0:0:0:
5,178,4622,2,0,P|47:141|109:135,1,110,8|2,0:3|0:3,0:0:0:0:
150,152,5101,2,0,P|203:143|243:107,1,110
248,51,5580,6,0,B|302:41|302:41|378:65,1,110,4|8,0:0|0:0,0:0:0:0:
431,135,6218,2,0,P|425:191|438:250,1,110,2|8,0:0|0:0,0:0:0:0:
475,345,6856,2,0,B|366:356|366:356|312:325,1,165,0|8,0:1|0:0,0:0:0:0:
236,253,7654,2,0,P|248:190|241:139,1,110,2|0,0:0|0:0,0:0:0:0:
216,96,8133,6,0,B|161:107|161:107|99:101,1,110,2|8,0:0|0:0,0:0:0:0:
1,73,8771,2,0,P|21:132|24:200,1,110,2|8,0:0|0:0,0:0:0:0:
15,289,9410,2,0,B|124:303|124:303|179:289,1,165,4|8,0:0|0:0,0:0:0:0:
238,135,10367,1,8,0:0:0:0:
275,238,10686,6,0,P|346:245|410:234,1,110,4|8,0:0|0:0,0:0:0:0:
485,197,11325,2,0,P|499:264|498:314,1,110,2|8,0:0|0:0,0:0:0:0:
397,347,11963,2,0,P|302:354|225:335,1,165,0|8,0:0|0:0,0:0:0:0:
162,255,12761,2,0,B|178:203|178:203|168:144,1,110,2|0,0:0|0:0,0:0:0:0:
150,96,13239,6,0,P|209:94|260:81,1,110,2|8,0:0|0:0,0:0:0:0:
355,28,13878,2,0,L|364:150,1,110,2|8,0:0|0:0,0:0:0:0:
371,247,14516,2,0,P|316:221|252:225,1,110,2|0,0:0|0:0,0:0:0:0:
161,259,15154,1,8,0:0:0:0:
108,356,15474,1,8,0:0:0:0:
31,276,15793,6,0,P|8:219|42:60,1,220,4|4,0:0|0:0,0:0:0:0:
256,66,17069,2,0,P|289:169|261:274,1,220,4|8,0:0|0:0,0:0:0:0:
167,332,18027,1,8,0:0:0:0:
269,370,18346,6,0,P|335:366|385:345,1,110,4|8,0:0|0:0,0:0:0:0:
457,276,18984,1,2,0:0:0:0:
457,276,19144,2,0,B|473:224|473:224|457:166,2,110,0|0|0,0:0|0:0|0:0,0:0:0:0:
375,350,20101,2,0,P|323:331|268:330,1,110,0|0,0:0|0:0,0:0:0:0:
161,354,20739,1,0,0:0:0:0:
161,354,20899,6,0,P|146:288|146:245,1,110,2|8,0:0|0:0,0:0:0:0:
244,196,21537,2,0,P|259:130|259:87,1,110,2|8,0:0|0:0,0:0:0:0:
155,51,22176,2,0,P|85:55|37:64,2,110,2|8|2,0:0|0:0|0:0,0:0:0:0:
259,87,23133,1,8,0:0:0:0:
164,143,23452,6,0,P|158:231|170:260,1,110,4|8,0:0|0:0,0:0:0:0:
241,329,24091,1,2,0:0:0:0:
241,329,24250,2,0,P|296:314|360:324,2,110,0|0|0,0:0|0:0|0:0,0:0:0:0:
133,353,25208,2,0,P|78:368|14:358,1,110
1,313,25686,1,8,0:0:0:0:
52,216,26005,6,0,L|172:227,1,110,4|0,0:0|0:0,0:0:0:0:
275,221,26644,2,0,P|261:116|287:60,1,165,8|12,0:0|0:3,0:0:0:0:
331,36,27282,6,0,L|397:57,1,55,8|8,0:0|0:0,0:0:0:0:
454,136,27761,2,0,L|388:157,1,55,8|8,0:0|0:0,0:0:0:0:
372,258,28239,1,8,0:0:0:0:
421,356,28559,6,0,P|353:365|296:338,1,110,4|8,0:0|0:0,0:0:0:0:
288,304,29037,1,0,0:0:0:0:
288,304,29197,2,0,P|235:288|182:299,1,110,2|8,0:0|0:0,0:0:0:0:
90,359,29835,2,0,L|102:245,1,110,2|8,0:0|0:0,0:0:0:0:
59,213,30314,1,0,0:0:0:0:
59,213,30474,2,0,L|47:99,1,110,2|8,0:0|0:0,0:0:0:0:
142,45,31112,6,0,P|207:62|258:56,1,110,2|8,0:0|0:0,0:0:0:0:
356,83,31750,2,0,L|363:28,2,55,2|2|8,0:0|0:0|0:0,0:0:0:0:
341,136,32229,2,0,P|398:130|495:190,1,165,0|8,0:0|0:0,0:0:0:0:
404,254,33027,1,4,0:0:0:0:
494,316,33346,1,4,0:0:0:0:
393,360,33665,6,0,L|260:349,1,110,4|8,0:0|0:0,0:0:0:0:
239,316,34144,1,0,0:0:0:0:
239,316,34303,2,0,P|252:246|246:196,1,110,2|8,0:0|0:0,0:0:0:0:
139,192,34942,2,0,P|126:122|132:72,1,110,4|8,0:0|0:0,0:0:0:0:
165,42,35420,1,0,0:0:0:0:
165,42,35580,2,0,L|274:51,1,110,2|8,0:0|0:0,0:0:0:0:
383,69,36218,5,4,0:0:0:0:
486,262,36856,2,0,P|450:257|414:260,1,55,8|0,0:0|0:0,0:0:0:0:
382,283,37176,2,0,P|346:288|310:285,1,55,8|0,0:3|0:0,0:0:0:0:
278,262,37495,5,8,0:0:0:0:
278,262,37654,1,8,0:0:0:0:
190,328,37974,1,8,0:0:0:0:
190,328,38133,2,0,P|170:281|179:217,1,110,8|8,0:0|0:0,0:0:0:0:
240,71,38931,6,0,L|290:93,1,55,8|4,0:0|0:0,0:0:0:0:
354,182,39410,2,0,L|404:160,1,55,8|4,0:0|0:0,0:0:0:0:
495,98,39888,2,0,P|513:150|491:228,2,110,10|10|10,0:0|0:0|0:0,0:0:0:0:
403,36,40846,2,0,P|327:57|268:62,1,110,10|0,0:0|0:0,0:0:0:0:
245,38,41325,6,0,P|266:140|258:219,2,165,4|4|2,0:0|0:0|0:0,0:0:0:0:
135,28,42601,2,0,P|77:38|16:91,1,110,4|2,0:0|0:0,0:0:0:0:
18,118,43080,2,0,L|28:239,1,110,2|2,0:0|0:0,0:0:0:0:
34,282,43559,1,10,0:0:0:0:
132,233,43878,6,0,P|192:213|242:220,1,110,4|8,0:0|0:0,0:0:0:0:
332,274,44516,2,0,P|386:278|437:259,1,110,2|8,0:0|0:0,0:0:0:0:
465,211,44995,2,0,P|452:157|459:100,1,110,0|0,0:0|0:0,0:0:0:0:
477,51,45474,1,8,0:0:0:0:
477,51,45633,1,0,0:0:0:0:
312,36,46112,2,0,L|321:93,1,55,8|0,0:0|0:0,0:0:0:0:
333,143,46431,6,0,P|271:150|223:179,1,110,2|8,0:0|0:0,0:0:0:0:
191,211,46910,1,0,0:0:0:0:
191,211,47069,2,0,P|129:204|81:175,1,110,2|8,0:0|0:0,0:0:0:0:
122,76,47708,2,0,P|73:50|19:46,2,110,2|8|0,0:0|0:0|0:0,0:0:0:0:
166,107,48505,2,0,P|214:81|268:77,1,110,2|0,0:0|0:0,0:0:0:0:
320,95,48984,6,0,L|312:212,1,110,4|8,0:0|0:0,0:0:0:0:
260,301,49622,2,0,P|311:314|376:295,1,110,2|8,0:0|0:0,0:0:0:0:
399,257,50101,2,0,L|406:147,1,110,0|2,0:0|0:0,0:0:0:0:
412,37,50739,1,2,0:0:0:0:
320,95,51059,2,0,P|257:100|195:88,1,110,2|0,0:0|0:0,0:0:0:0:
165,62,51537,6,0,P|132:148|140:199,1,110,2|8,0:0|0:0,0:0:0:0:
233,207,52176,2,0,P|266:293|258:344,1,110,2|12,0:0|0:0,0:0:0:0:
167,358,52814,2,0,B|114:336|60:354|60:354|83:301|54:225,1,220,8|8,0:0|0:3,0:0:0:0:
13,146,53771,1,8,0:3:0:0:
85,62,54091,6,0,B|138:76|138:76|199:65,1,110,4|8,0:0|0:0,0:0:0:0:
294,106,54729,2,0,B|347:92|347:92|408:103,1,110,2|8,0:0|0:0,0:0:0:0:
447,132,55208,2,0,P|452:188|441:253,1,110,0|2,0:0|0:0,0:0:0:0:
428,293,55686,1,8,0:0:0:0:
428,293,55846,2,0,B|373:277|373:277|264:304,1,165,2|8,0:0|0:0,0:0:0:0:
164,338,56644,6,0,P|142:280|143:230,1,110,4|8,0:0|0:0,0:0:0:0:
161,181,57122,1,0,0:0:0:0:
161,181,57282,2,0,L|273:197,1,110,2|8,0:0|0:0,0:0:0:0:
378,178,57920,2,0,P|388:145|389:90,1,55,2|2,0:0|0:0,0:0:0:0:
370,73,58239,1,8,0:0:0:0:
370,73,58399,2,0,L|258:89,2,110,2|2|0,0:0|0:0|0:0,0:0:0:0:
404,29,59197,6,0,P|452:36|512:70,1,110,4|8,0:0|0:0,0:0:0:0:
502,174,59835,2,0,L|481:306,1,110,2|8,0:0|0:0,0:0:0:0:
383,326,60474,2,0,L|365:217,1,110,2|8,0:0|0:0,0:0:0:0:
300,128,61112,1,2,0:0:0:0:
263,231,61431,1,8,0:0:0:0:
236,337,61750,6,0,P|149:309|74:325,1,165,4|0,0:0|0:0,0:0:0:0:
28,346,62388,2,0,B|48:259|48:259|26:186,1,165,2|0,0:0|0:0,0:0:0:0:
6,134,63027,2,0,P|48:120|132:123,1,110,8|8,0:0|0:0,0:0:0:0:
211,168,63665,2,0,P|253:182|337:179,1,110,10|10,0:0|0:0,0:0:0:0:
419,139,64303,5,4,0:0:0:0:
458,241,64622,2,0,L|448:308,1,55,8|0,0:0|0:0,0:0:0:0:
419,341,64942,2,0,P|353:324|296:322,1,110,2|8,0:0|0:0,0:0:0:0:
264,349,65420,2,0,P|198:366|141:368,2,110,0|0|2,0:0|0:0|0:0,0:0:0:0:
311,321,66218,1,0,0:0:0:0:
267,219,66537,2,0,P|272:185|283:150,1,55
327,137,66856,5,4,0:0:0:0:
254,49,67176,2,0,L|196:60,1,55,8|0,0:0|0:0,0:0:0:0:
156,93,67495,2,0,P|153:150|173:230,1,110,2|8,0:0|0:0,0:0:0:0:
198,243,67974,2,0,P|261:226|334:234,2,110,0|2|2,0:0|0:0|0:0,0:0:0:0:
167,288,68771,1,0,0:0:0:0:
249,361,69091,1,8,0:0:0:0:
354,328,69410,5,4,0:0:0:0:
305,227,69729,2,0,P|303:193|307:148,1,55,8|0,0:0|0:0,0:0:0:0:
325,121,70048,2,0,P|388:124|453:111,1,110,2|8,0:0|0:0,0:0:0:0:
479,85,70527,2,0,B|506:137|506:137|506:197,2,110,0|2|2,0:0|0:0|0:0,0:0:0:0:
400,8,71484,1,2,0:0:0:0:
400,8,71644,2,0,L|333:19,1,55,8|0,0:0|0:0,0:0:0:0:
297,43,71963,6,0,P|300:92|318:160,1,110,4|8,0:0|0:0,0:0:0:0:
353,189,72442,2,0,P|350:238|332:306,1,110,4|8,0:0|0:0,0:0:0:0:
296,336,72920,2,0,L|178:322,1,110,4|8,0:0|0:0,0:0:0:0:
161,273,73399,2,0,L|43:259,1,110,4|8,0:0|0:0,0:0:0:0:
16,217,73878,1,8,0:0:0:0:
90,136,74197,1,2,0:0:0:0:
27,45,74516,1,0,0:0:0:0:
73,371,75474,5,4,0:3:0:0:
119,271,75793,2,0,P|194:288|237:288,1,110,4|8,0:0|0:0,0:0:0:0:
324,238,76431,2,0,P|306:165|302:112,1,110,8|0,0:0|0:0,0:0:0:0:
336,25,77069,1,0,0:0:0:0:
336,25,77229,2,0,P|390:28|443:42,1,110,8|0,0:0|0:0,0:0:0:0:
470,90,77708,2,0,P|466:144|452:197,1,110,2|8,0:0|0:0,0:0:0:0:
387,286,78346,6,0,L|270:273,1,110,4|8,0:0|0:0,0:0:0:0:
201,194,78984,2,0,L|84:207,1,110,8|8,0:0|0:0,0:0:0:0:
47,238,79463,2,0,P|45:297|65:364,2,110,8|2|0,0:0|0:0|0:0,0:0:0:0:
62,129,80420,1,8,0:0:0:0:
62,129,80580,2,0,L|85:72,1,55,8|8,0:3|0:3,0:0:0:0:
128,46,80899,6,0,P|196:56|252:57,1,110,4|8,0:0|0:0,0:0:0:0:
303,145,81537,2,0,P|248:147|193:156,1,110,2|8,0:0|0:0,0:0:0:0:
153,193,82016,2,0,B|171:245|171:245|163:317,1,110,8|8,0:0|0:0,0:0:0:0:
90,380,82654,1,8,0:0:0:0:
38,282,82974,1,0,0:0:0:0:
38,282,83133,2,0,B|20:230,1,55,2|2,0:0|0:0,0:0:0:0:
25,175,83452,6,0,P|77:154|116:113,1,110,4|8,0:0|0:0,0:0:0:0:
114,60,83931,2,0,P|165:81|222:80,1,110,4|8,0:0|0:0,0:0:0:0:
259,42,84410,2,0,P|280:94|321:132,1,110,4|8,0:0|0:0,0:0:0:0:
375,131,84888,2,0,P|353:182|355:238,1,110,4|8,0:0|0:3,0:0:0:0:
393,276,85367,1,8,0:3:0:0:
314,353,85686,1,4,0:3:0:0:
207,324,86005,6,0,P|178:269|181:200,1,110
231,126,86644,2,0,L|293:112,1,55,0|0,0:0|0:0,0:0:0:0:
339,106,86963,1,0,0:0:0:0:
339,106,87122,1,4,0:0:0:0:
256,192,87282,12,0,88697,0:0:0:0:
