osu file format v14

[General]
AudioFilename: audio.mp3
AudioLeadIn: 0
PreviewTime: 43319
Countdown: 0
SampleSet: Soft
StackLeniency: 0.7
Mode: 0
LetterboxInBreaks: 0
WidescreenStoryboard: 0

[Editor]
DistanceSpacing: 1.1
BeatDivisor: 4
GridSize: 32
TimelineZoom: 1.3

[Metadata]
Title:BRAVER
TitleUnicode:BRAVER
Artist:ZAQ
ArtistUnicode:ZAQ
Creator:Yasaija 714
Version:Insane
Source:食戟のソーマ 餐ノ皿
Tags:shokugeki no soma san no sara tv size opening season 3 Karen eLy Doormat _kotachi_ xxdeathx
BeatmapID:1431578
BeatmapSetID:676865

[Difficulty]
HPDrainRate:6
CircleSize:4
OverallDifficulty:7.5
ApproachRate:9
SliderMultiplier:1.5
SliderTickRate:1

[Events]
//Background and Video events
0,0,"BG.jpg",0,0
Video,0,"opening.avi"
//Break Periods
//Storyboard Layer 0 (Background)
//Storyboard Layer 1 (Fail)
//Storyboard Layer 2 (Pass)
//Storyboard Layer 3 (Foreground)
//Storyboard Sound Samples

[TimingPoints]
474,319.148936170213,4,1,1,50,1,0
5500,-100,4,1,1,5,0,0
5580,-100,4,2,1,60,0,0
14436,-100,4,2,1,10,0,0
14516,-100,4,2,1,60,0,0
15793,-133.333333333333,4,2,1,40,0,0
18346,-111.111111111111,4,2,1,50,0,0
25926,-111.111111111111,4,2,1,5,0,0
26005,-111.111111111111,4,2,1,50,0,0
28559,-100,4,2,1,60,0,0
33027,-83.3333333333333,4,2,1,60,0,0
33665,-100,4,2,1,60,0,0
36138,-100,4,2,1,10,0,0
36218,-100,4,2,1,60,0,0
41325,-100,4,2,1,70,0,0
43878,-83.3333333333333,4,2,1,80,0,1
44117,-83.3333333333333,4,2,1,20,0,1
44197,-83.3333333333333,4,2,1,80,0,1
47947,-83.3333333333333,4,2,1,20,0,1
48027,-83.3333333333333,4,2,1,80,0,1
49224,-83.3333333333333,4,2,1,20,0,1
49303,-83.3333333333333,4,2,1,80,0,1
54330,-83.3333333333333,4,2,1,20,0,1
54410,-83.3333333333333,4,2,1,80,0,1
56564,-83.3333333333333,4,2,1,20,0,1
56644,-83.3333333333333,4,2,1,80,0,1
59436,-83.3333333333333,4,2,1,20,0,1
59516,-83.3333333333333,4,2,1,80,0,1
59755,-83.3333333333333,4,2,1,20,0,1
59835,-83.3333333333333,4,2,1,80,0,1
74516,-128.205128205128,4,2,1,40,0,0
75713,-128.205128205128,4,2,1,10,0,0
75793,-100,4,2,1,60,0,0
87122,-200,4,2,1,60,0,0
88378,319.148936170213,4,1,0,40,1,0

[Colours]
Combo1 : 189,189,0
Combo2 : 35,192,134
Combo3 : 186,101,175
Combo4 : 241,31,63

[HitObjects]
176,305,474,5,0,0:0:0:0:
176,305,633,2,0,P|162:222|180:158,1,150
260,120,1112,2,0,L|340:129,1,75
334,128,1351,1,0,0:0:0:0:
334,128,1431,1,0,0:0:0:0:
421,194,1591,1,4,0:3:0:0:
421,194,1910,5,2,0:3:0:0:
399,77,2069,2,0,P|361:44|262:44,1,150,8|2,0:3|0:3,0:0:0:0:
185,109,2548,2,0,B|155:182|219:182|186:265,1,150,8|0,0:3|0:0,0:0:0:0:
119,329,3027,5,0,0:0:0:0:
222,363,3186,2,0,B|295:376|295:376|368:347,1,150
455,293,3665,1,0,0:0:0:0:
455,293,3745,1,0,0:0:0:0:
455,293,3825,1,0,0:0:0:0:
455,293,3904,1,0,0:0:0:0:
455,293,3984,2,0,L|440:217,1,75,0|4,0:0|0:3,0:0:0:0:
358,56,4463,5,0,0:0:0:0:
275,141,4622,2,0,L|306:311,1,150,8|2,0:3|0:3,0:0:0:0:
254,375,5101,1,0,0:0:0:0:
377,298,5261,2,0,P|429:306|486:343,1,112.5
507,358,5580,6,0,P|509:323|512:277,1,75,4|0,0:0|0:0,0:0:0:0:
488,145,5899,2,0,P|436:189|349:178,1,150,8|2,0:0|0:0,0:0:0:0:
261,82,6378,1,0,0:0:0:0:
261,82,6537,2,0,P|264:124|262:169,1,75,8|2,0:0|0:0,0:0:0:0:
89,175,6856,6,0,P|85:250|103:326,1,150,0|0,0:1|0:0,0:1:0:0:
191,363,7335,2,0,L|266:339,1,75,8|0,0:0|0:0,0:0:0:0:
333,281,7654,1,2,0:0:0:0:
211,190,7814,2,0,L|286:214,1,75,8|0,0:0|0:0,0:0:0:0:
400,230,8133,6,0,P|408:192|407:146,1,75,2|2,0:0|0:0,0:0:0:0:
330,76,8452,2,0,P|254:93|172:77,1,150,8|2,0:0|0:0,0:0:0:0:
89,45,8931,1,2,0:0:0:0:
127,140,9091,2,0,P|128:183|120:238,1,75,8|0,0:0|0:0,0:0:0:0:
25,280,9410,6,0,B|47:314|47:314|80:295|124:296|159:321,1,150,4|0,0:0|0:0,0:0:0:0:
241,366,9888,1,8,0:0:0:0:
241,366,9968,1,0,0:0:0:0:
241,366,10048,2,0,P|245:329|247:291,1,75,8|8,0:0|0:3,0:0:0:0:
193,195,10367,2,0,P|238:206|314:209,1,112.5,8|0,0:0|0:0,0:0:0:0:
345,205,10686,6,0,P|349:166|348:120,1,75,4|0,0:0|0:0,0:0:0:0:
253,52,11005,2,0,P|174:88|109:69,1,150,8|2,0:0|0:0,0:0:0:0:
17,45,11484,1,0,0:0:0:0:
17,45,11644,2,0,P|24:94|24:140,1,75,8|2,0:0|0:0,0:0:0:0:
7,223,11963,6,0,B|43:222|80:238|80:238|116:219|159:212,1,150
311,223,12442,2,0,P|265:232|227:258,1,75,8|0,0:0|0:0,0:0:0:0:
163,314,12761,1,2,0:0:0:0:
314,368,12920,2,0,P|283:332|241:312,1,75,8|0,0:0|0:0,0:0:0:0:
150,213,13239,6,0,P|193:162|208:73,1,150,2|8,0:0|0:0,0:0:0:0:
122,36,13718,1,0,0:0:0:0:
6,112,13878,2,0,P|54:115|100:111,1,75,2|0,0:0|0:0,0:0:0:0:
208,81,14197,2,0,P|214:139|252:210,1,112.5,8|0,0:0|0:0,0:0:0:0:
268,217,14516,6,0,P|296:181|326:163,1,75,2|2,0:0|0:0,0:0:0:0:
484,188,14835,2,0,P|456:224|426:242,1,75,0|8,0:0|0:0,0:0:0:0:
385,113,15154,1,8,0:0:0:0:
385,113,15234,1,8,0:0:0:0:
385,113,15314,1,2,0:3:0:0:
235,188,15474,2,0,L|225:134,1,37.5,8|8,0:0|0:0,0:0:0:0:
149,105,15633,2,0,L|139:159,1,37.5,8|8,0:0|0:0,0:0:0:0:
57,224,15793,6,0,P|132:221|184:230,1,112.500004291535,4|0,0:0|0:0,0:0:0:0:
254,354,16431,1,4,0:0:0:0:
254,354,16910,1,0,0:0:0:0:
254,354,17069,2,0,P|249:291|250:230,1,112.500004291535,4|0,0:0|0:0,0:0:0:0:
288,116,17708,5,8,0:0:0:0:
288,116,17787,1,8,0:0:0:0:
288,116,17867,1,8,0:3:0:0:
392,141,18027,1,8,0:0:0:0:
392,141,18106,1,8,0:0:0:0:
392,141,18186,1,8,0:3:0:0:
354,256,18346,6,0,L|431:259,1,67.4999979400635,4|0,0:0|0:0,0:0:0:0:
311,190,18665,2,0,P|274:237|302:313,1,134.999995880127,8|2,0:0|0:0,0:0:0:0:
362,365,19144,1,0,0:0:0:0:
446,332,19303,1,8,0:0:0:0:
419,191,19463,6,0,L|421:266,1,67.4999979400635,0|2,0:0|0:0,0:0:0:0:
342,156,19782,2,0,P|327:125|305:101,1,67.4999979400635,0|8,0:0|0:0,0:0:0:0:
168,92,20101,2,0,P|197:100|233:127,1,67.4999979400635,0|2,0:0|0:0,0:0:0:0:
274,229,20420,1,0,0:0:0:0:
129,222,20580,1,8,0:0:0:0:
274,229,20739,1,0,0:0:0:0:
142,361,20899,6,0,P|132:320|132:281,1,67.4999979400635,2|0,0:0|0:0,0:0:0:0:
274,229,21218,2,0,P|284:270|284:309,1,67.4999979400635,8|0,0:0|0:0,0:0:0:0:
129,222,21537,2,0,P|131:188|140:155,1,67.4999979400635,2|0,0:0|0:0,0:0:0:0:
216,78,21856,1,8,0:0:0:0:
310,136,22016,1,0,0:0:0:0:
393,20,22176,6,0,P|407:90|400:167,1,134.999995880127,2|8,0:0|0:0,0:0:0:0:
365,249,22654,1,0,0:0:0:0:
365,249,22814,2,0,L|447:258,1,67.4999979400635,2|0,0:0|0:0,0:0:0:0:
306,307,23133,2,0,L|238:314,1,67.4999979400635,8|0,0:0|0:0,0:0:0:0:
89,234,23452,6,0,P|156:246|222:235,1,134.999995880127,4|8,0:0|0:0,0:0:0:0:
280,161,23931,1,0,0:0:0:0:
194,54,24091,2,0,P|194:91|199:139,1,67.4999979400635,2|0,0:0|0:0,0:0:0:0:
222,235,24410,1,8,0:0:0:0:
302,142,24569,6,0,P|349:141|375:148,1,67.4999979400635,0|2,0:0|0:0,0:0:0:0:
462,231,24888,2,0,P|415:232|389:225,1,67.4999979400635,0|8,0:0|0:0,0:0:0:0:
294,74,25208,2,0,L|303:150,1,67.4999979400635,0|2,0:0|0:0,0:0:0:0:
395,227,25527,1,0,0:0:0:0:
281,320,25686,2,0,L|295:206,1,101.249996910095,8|0,0:0|0:0,0:0:0:0:
301,141,26005,5,4,0:0:0:0:
42,190,26484,1,8,0:0:0:0:
42,190,26564,1,8,0:0:0:0:
42,190,26644,2,8,L|45:242,1,33.7499989700318
132,250,26803,2,8,L|135:198,1,33.7499989700318
215,172,26963,1,8,0:3:0:0:
196,317,27122,1,12,0:3:0:0:
121,142,27282,5,8,0:0:0:0:
121,142,27442,2,0,P|157:141|211:149,1,67.4999979400635,8|0,0:0|0:0,0:0:0:0:
279,216,27761,1,8,0:0:0:0:
302,86,27920,1,8,0:0:0:0:
320,77,28000,1,8,0:0:0:0:
339,71,28080,1,8,0:0:0:0:
359,69,28160,1,8,0:0:0:0:
379,69,28239,1,8,0:0:0:0:
489,184,28559,6,0,L|482:264,1,75,4|0,0:0|0:0,0:0:0:0:
391,325,28878,1,8,0:0:0:0:
407,224,29037,1,0,0:0:0:0:
472,344,29197,1,2,0:0:0:0:
356,300,29356,2,0,P|308:300|280:310,1,75,2|8,0:0|0:0,0:0:0:0:
200,365,29676,1,0,0:0:0:0:
71,261,29835,6,0,P|139:251|216:293,1,150,2|8,0:0|0:0,0:0:0:0:
288,363,30314,1,0,0:0:0:0:
274,235,30474,1,2,0:0:0:0:
200,365,30633,1,2,0:0:0:0:
356,300,30793,2,0,P|404:300|432:310,1,75,8|0,0:0|0:0,0:0:0:0:
497,230,31112,6,0,P|471:155|471:79,1,150,2|8,0:0|0:0,0:0:0:0:
387,25,31591,1,0,0:0:0:0:
295,100,31750,2,0,L|385:111,1,75,2|2,0:0|0:0,0:0:0:0:
268,183,32069,1,8,0:0:0:0:
229,45,32229,1,0,0:0:0:0:
381,145,32388,6,0,P|385:192|374:239,1,75,2|2,0:0|0:0,0:0:0:0:
251,332,32708,2,0,P|246:294|250:257,1,75,8|0,0:0|0:0,0:0:0:0:
472,304,33027,6,0,B|428:314|428:314|385:303|385:303|332:320,1,134.999995880127,4|0,0:0|0:0,0:0:0:0:
251,332,33346,2,0,P|246:294|272:200,1,134.999995880127,4|0,0:0|0:0,0:0:0:0:
309,124,33665,6,0,L|226:133,1,75,4|0,0:0|0:0,0:0:0:0:
126,189,33984,1,8,0:0:0:0:
150,69,34144,1,0,0:0:0:0:
49,205,34303,1,2,0:0:0:0:
196,287,34463,2,0,P|200:250|197:213,1,75,2|8,0:0|0:0,0:0:0:0:
91,325,34782,1,0,0:0:0:0:
251,332,34942,6,0,P|298:335|357:326,1,75,4|0,0:0|0:0,0:0:0:0:
385,227,35261,1,8,0:0:0:0:
412,322,35420,1,0,0:0:0:0:
497,193,35580,2,0,L|474:272,1,75,2|2,0:0|0:0,0:0:0:0:
425,144,35899,2,0,P|344:142|306:184,1,112.5,8|0,0:0|0:0,0:0:0:0:
286,227,36218,5,4,0:0:0:0:
286,227,36697,1,8,0:0:0:0:
286,227,36777,1,8,0:0:0:0:
286,227,36856,2,0,L|206:218,1,75,8|0,0:0|0:0,0:0:0:0:
69,179,37176,2,0,L|143:170,1,75,8|0,0:3|0:0,0:0:0:0:
284,141,37495,5,8,0:0:0:0:
236,308,37654,1,8,0:0:0:0:
236,308,37974,5,8,0:0:0:0:
404,276,38133,1,8,0:0:0:0:
404,276,38213,1,0,0:0:0:0:
404,276,38293,1,8,0:0:0:0:
404,276,38372,1,0,0:0:0:0:
404,276,38452,2,0,L|409:236,1,37.5,8|8,0:0|0:0,0:0:0:0:
318,202,38612,2,0,L|322:239,1,37.5,8|8,0:0|0:0,0:0:0:0:
391,150,38771,5,0,0:0:0:0:
261,108,38931,1,8,0:0:0:0:
261,108,39091,2,0,L|245:184,1,75,4|0,0:0|0:0,0:0:0:0:
91,250,39410,1,8,0:0:0:0:
91,250,39569,2,0,L|107:326,1,75,4|0,0:0|0:0,0:0:0:0:
261,360,39888,5,10,0:0:0:0:
91,250,40208,1,10,0:0:0:0:
261,108,40527,1,10,0:0:0:0:
382,257,40846,2,0,L|370:336,1,75,10|0,0:0|0:0,0:0:0:0:
261,360,41165,1,0,0:0:0:0:
173,253,41325,6,0,P|197:208|204:170,1,75,4|8,0:0|0:0,0:0:0:0:
202,184,41564,1,8,0:0:0:0:
202,184,41644,1,8,0:0:0:0:
276,80,41803,2,0,P|300:125|307:163,1,75,4|8,0:0|0:0,0:0:0:0:
305,148,42042,1,8,0:0:0:0:
305,148,42122,1,8,0:0:0:0:
416,229,42282,2,0,L|411:269,3,37.5,2|2|2|2,0:0|0:0|0:0|0:0,0:0:0:0:
401,322,42601,6,0,P|322:306|248:333,1,150,4|2,0:0|0:0,0:0:0:0:
162,361,43080,1,2,0:0:0:0:
212,257,43239,5,2,0:0:0:0:
210,226,43319,1,2,0:0:0:0:
207,196,43399,1,2,0:0:0:0:
204,165,43479,1,2,0:0:0:0:
202,134,43559,5,10,0:0:0:0:
222,94,43638,1,10,0:0:0:0:
263,75,43718,1,10,0:0:0:0:
308,75,43798,1,10,0:0:0:0:
351,90,43878,6,0,B|330:179|330:179|342:228,1,134.999995880127,4|0,0:0|0:0,0:0:0:0:
396,285,44197,2,0,B|410:328|410:328|398:376,1,89.9999972534181,8|0,0:0|0:0,0:0:0:0:
187,267,44516,2,0,P|231:252|276:212,1,89.9999972534181,2|2,0:0|0:0,0:0:0:0:
308,75,44835,1,8,0:0:0:0:
182,41,44995,6,0,B|169:87|187:127|187:127|142:154|84:133,1,179.999994506836
11,110,45474,1,8,0:0:0:0:
81,233,45633,2,0,P|162:236|268:185,1,179.999994506836,0|2,0:0|0:0,0:0:0:0:
351,90,46112,1,8,0:0:0:0:
342,238,46271,1,0,0:0:0:0:
214,136,46431,6,0,L|320:149,1,89.9999972534181,2|2,0:0|0:0,0:0:0:0:
181,219,46750,1,8,0:0:0:0:
342,238,46910,1,0,0:0:0:0:
214,136,47069,1,2,0:0:0:0:
245,301,47229,1,2,0:0:0:0:
303,146,47388,1,8,0:0:0:0:
334,311,47548,1,0,0:0:0:0:
471,223,47708,6,0,P|409:215|332:243,1,134.999995880127,2|0,0:0|0:0,0:0:0:0:
280,288,48027,2,0,L|299:376,1,89.9999972534181,8|0,0:0|0:0,0:0:0:0:
415,349,48346,1,0,0:0:0:0:
265,254,48505,2,0,P|220:245|176:248,2,89.9999972534181,2|8|0,0:0|0:0|0:0,0:0:0:0:
145,322,48984,6,0,P|102:282|114:201,1,134.999995880127,4|0,0:0|0:0,0:0:0:0:
167,154,49303,2,0,P|194:119|182:67,1,89.9999972534181,8|0,0:0|0:0,0:0:0:0:
47,61,49622,1,2,0:0:0:0:
107,210,49782,1,2,0:0:0:0:
188,75,49942,1,8,0:0:0:0:
27,181,50101,6,0,L|47:280,1,89.9999972534181,0|2,0:0|0:0,0:0:0:0:
177,337,50420,2,0,L|194:248,1,89.9999972534181,2|8,0:0|0:0,0:0:0:0:
283,124,50739,2,0,P|351:116|388:122,1,89.9999972534181,2|0,0:0|0:0,0:0:0:0:
471,250,51059,2,0,P|403:258|366:252,1,89.9999972534181,2|8,0:0|0:0,0:0:0:0:
478,145,51378,1,0,0:0:0:0:
512,320,51537,6,0,P|426:337|328:325,1,179.999994506836,2|8,0:0|0:0,0:0:0:0:
257,253,52016,1,0,0:0:0:0:
362,188,52176,1,2,0:0:0:0:
169,165,52335,6,0,P|172:210|184:265,1,89.9999972534181,2|12,0:0|0:0,0:0:0:0:
264,349,52654,1,0,0:0:0:0:
362,188,52814,6,0,L|357:248,3,44.999998626709,8|0|0|0,0:0|0:0|0:0|0:0,0:0:0:0:
260,297,53133,2,0,L|256:252,3,44.999998626709,8|0|0|0,0:0|0:0|0:0|0:0,0:0:0:0:
169,166,53453,5,8,0:3:0:0:
194,159,53532,1,8,0:3:0:0:
220,153,53612,1,8,0:3:0:0:
246,145,53692,1,8,0:3:0:0:
272,139,53771,2,0,L|276:95,1,44.999998626709,8|8,0:3|0:3,0:0:0:0:
362,188,53931,2,0,L|358:232,1,44.999998626709,8|8,0:3|0:3,0:0:0:0:
455,147,54091,6,0,B|459:52|459:52|429:91,1,134.999995880127,4|0,0:0|0:0,0:0:0:0:
362,188,54410,2,0,P|392:230|450:245,1,89.9999972534181,8|0,0:0|0:0,0:0:0:0:
286,270,54729,2,0,P|256:312|198:327,1,89.9999972534181,2|2,0:0|0:0,0:0:0:0:
113,270,55048,1,8,0:0:0:0:
170,118,55208,6,0,B|181:158|170:208|170:208|214:188|269:205,1,179.999994506836,0|2,0:0|0:0,0:0:0:0:
362,188,55686,1,8,0:0:0:0:
221,326,55846,2,0,P|327:336|402:301,1,179.999994506836,2|2,0:0|0:0,0:0:0:0:
497,240,56325,2,0,P|476:155|472:103,1,134.999995880127,8|0,0:0|0:0,0:0:0:0:
453,32,56644,6,0,L|360:50,1,89.9999972534181,4|0,0:0|0:0,0:0:0:0:
276,119,56963,1,8,0:0:0:0:
393,165,57122,1,0,0:0:0:0:
246,276,57282,2,0,P|233:221|242:175,1,89.9999972534181,2|2,0:0|0:0,0:0:0:0:
401,275,57601,2,0,P|414:330|405:376,1,89.9999972534181,8|0,0:0|0:0,0:0:0:0:
241,368,57920,5,2,0:0:0:0:
323,223,58080,1,2,0:0:0:0:
166,293,58239,1,8,0:0:0:0:
401,275,58399,2,0,P|414:220|405:174,1,89.9999972534181,2|0,0:0|0:0,0:0:0:0:
237,188,58718,2,0,P|233:233|246:276,1,89.9999972534181,2|8,0:0|0:0,0:0:0:0:
339,368,59037,1,0,0:0:0:0:
339,368,59117,1,0,0:0:0:0:
339,368,59197,6,0,P|368:318|446:292,1,134.999995880127,4|0,0:0|0:0,0:0:0:0:
494,228,59516,2,0,P|444:199|418:121,1,134.999995880127,8|0,0:0|0:0,0:0:0:0:
357,70,59835,2,0,L|255:85,1,89.9999972534181,2|0,0:0|0:0,0:0:0:0:
113,117,60154,2,0,P|200:134|232:147,1,89.9999972534181,8|0,0:0|0:0,0:0:0:0:
310,245,60474,5,2,0:0:0:0:
188,314,60633,1,2,0:0:0:0:
310,245,60793,2,0,P|397:228|429:215,1,89.9999972534181,8|0,0:0|0:0,0:0:0:0:
456,100,61112,1,2,0:0:0:0:
334,31,61271,1,2,0:0:0:0:
456,100,61431,2,0,P|473:187|486:219,1,89.9999972534181,8|0,0:0|0:0,0:0:0:0:
499,347,61750,6,0,P|451:341|392:340,1,89.9999972534181,4|0,0:0|0:0,0:0:0:0:
286,361,62069,2,0,P|301:273|268:189,1,179.999994506836,8|2,0:0|0:0,0:0:0:0:
269,190,62548,1,2,0:0:0:0:
99,256,62708,2,0,P|147:250|206:249,1,89.9999972534181,12|0,0:0|0:0,0:0:0:0:
365,286,63027,6,0,P|381:261|394:228,3,44.999998626709,8|0|0|0,0:0|0:0|0:0|0:0,0:0:0:0:
370,158,63346,2,0,L|427:163,1,44.999998626709,8|0,0:0|0:0,0:0:0:0:
298,129,63505,2,0,L|241:134,1,44.999998626709,0|2,0:0|0:0,0:0:0:0:
356,55,63665,5,10,0:0:0:0:
391,59,63745,1,2,0:0:0:0:
426,63,63825,1,2,0:0:0:0:
461,68,63904,1,2,0:0:0:0:
496,72,63984,5,10,0:0:0:0:
477,113,64064,1,10,0:0:0:0:
469,157,64144,1,10,0:0:0:0:
476,201,64224,1,10,0:0:0:0:
494,241,64303,6,0,P|502:287|497:336,1,89.9999972534181,4|0,0:0|0:0,0:0:0:0:
365,360,64622,1,8,0:0:0:0:
388,230,64782,1,0,0:0:0:0:
260,284,64942,2,0,P|236:209|244:99,1,179.999994506836,2|8,0:0|0:0,0:0:0:0:
360,31,65420,6,0,L|334:122,1,89.9999972534181,0|2,0:0|0:0,0:0:0:0:
181,201,65739,2,0,L|272:178,1,89.9999972534181,0|8,0:0|0:0,0:0:0:0:
418,272,66059,1,2,0:0:0:0:
418,272,66218,2,0,L|352:203,1,89.9999972534181,0|2,0:0|0:0,0:0:0:0:
241,108,66537,2,0,P|187:118|114:104,1,89.9999972534181,8|0,0:0|0:0,0:0:0:0:
63,85,66777,1,0,0:0:0:0:
63,85,66856,6,0,L|75:193,1,89.9999972534181,4|0,0:0|0:0,0:0:0:0:
125,300,67176,1,8,0:0:0:0:
204,195,67335,1,0,0:0:0:0:
56,265,67495,2,0,P|50:332|146:375,1,179.999994506836,2|8,0:0|0:0,0:0:0:0:
226,278,67974,6,0,P|274:276|322:286,1,89.9999972534181,0|2,0:0|0:0,0:0:0:0:
223,125,68293,2,0,P|200:167|168:204,1,89.9999972534181,2|8,0:0|0:0,0:0:0:0:
357,198,68612,1,2,0:0:0:0:
357,198,68771,2,0,P|331:157|315:110,1,89.9999972534181,0|10,0:0|0:0,0:0:0:0:
355,38,69011,1,8,0:0:0:0:
355,38,69091,2,0,L|456:54,1,89.9999972534181,8|8,0:0|0:0,0:0:0:0:
508,127,69330,1,8,0:0:0:0:
508,127,69410,6,0,P|487:166|458:201,1,89.9999972534181,4|0,0:0|0:0,0:0:0:0:
345,278,69729,1,8,0:0:0:0:
316,118,69888,1,0,0:0:0:0:
345,278,70048,2,0,P|428:269|511:321,1,179.999994506836,2|8,0:0|0:0,0:0:0:0:
352,362,70527,6,0,P|310:355|271:318,1,89.9999972534181,0|2,0:0|0:0,0:0:0:0:
272,135,70846,2,0,P|286:174|274:227,1,89.9999972534181,2|8,0:0|0:0,0:0:0:0:
116,318,71165,2,0,P|143:285|194:269,1,89.9999972534181,2|0,0:0|0:0,0:0:0:0:
345,278,71484,1,2,0:0:0:0:
204,183,71644,2,0,P|189:143|201:90,1,89.9999972534181,8|0,0:0|0:0,0:0:0:0:
298,19,71963,5,4,0:0:0:0:
272,135,72122,1,8,0:0:0:0:
298,19,72282,1,8,0:0:0:0:
454,90,72442,5,4,0:0:0:0:
480,206,72601,1,8,0:0:0:0:
454,90,72761,1,8,0:0:0:0:
337,237,72920,6,0,L|237:241,1,89.9999972534181,4|8,0:0|0:0,0:0:0:0:
120,281,73239,1,8,0:0:0:0:
163,59,73399,6,0,L|167:159,1,89.9999972534181,4|8,0:0|0:0,0:0:0:0:
200,311,73718,1,8,0:0:0:0:
272,135,73878,6,0,L|317:125,3,44.999998626709,8|8|8|8,0:0|0:0|0:0|0:0,0:0:0:0:
367,118,74197,1,2,0:0:0:0:
363,162,74277,1,2,0:0:0:0:
359,206,74356,1,2,0:0:0:0:
355,250,74436,1,2,0:0:0:0:
351,294,74516,1,0,0:0:0:0:
351,294,75314,5,0,0:0:0:0:
367,118,75474,2,0,L|357:231,1,87.7500029457093,4|0,0:3|0:0,0:0:0:0:
351,294,75793,6,0,P|296:288|250:295,1,75,4|2,0:0|0:0,0:0:0:0:
177,336,76112,2,0,P|187:250|172:184,1,150,8|8,0:0|0:0,0:0:0:0:
78,104,76591,2,0,B|113:126|113:126|224:94,1,150,2|0,0:0|0:0,0:0:0:0:
251,82,76989,1,0,0:0:0:0:
251,82,77069,5,0,0:0:0:0:
250,214,77229,2,0,P|324:177|399:177,1,150,8|0,0:0|0:0,0:0:0:0:
475,240,77708,2,0,L|462:316,1,75,2|0,0:0|0:0,0:0:0:0:
342,362,78027,2,0,L|329:288,1,75,8|0,0:0|0:0,0:0:0:0:
184,257,78346,5,4,0:0:0:0:
184,257,78505,2,0,L|171:330,1,75,2|8,0:0|0:0,0:0:0:0:
58,352,78825,1,2,0:0:0:0:
58,352,78904,1,2,0:0:0:0:
58,352,78984,2,0,P|45:295|49:252,1,75,8|8,0:0|0:0,0:0:0:0:
90,190,79303,1,8,0:0:0:0:
2,72,79463,6,0,B|76:83|76:83|154:61,1,150,8|2,0:0|0:0,0:0:0:0:
216,166,79942,1,8,0:0:0:0:
244,46,80101,1,0,0:0:0:0:
123,153,80261,2,0,L|127:196,3,37.5,8|8|8|8,0:0|0:0|0:0|0:0,0:0:0:0:
70,263,80580,2,0,L|46:224,1,37.5,8|0,0:3|0:0,0:0:0:0:
177,266,80739,2,0,L|201:227,1,37.5,8|0,0:3|0:0,0:0:0:0:
259,160,80899,6,0,P|300:155|348:156,1,75,4|2,0:0|0:0,0:0:0:0:
435,210,81218,1,8,0:0:0:0:
328,263,81378,1,2,0:0:0:0:
328,263,81458,1,2,0:0:0:0:
328,263,81537,2,0,P|335:325|408:368,1,150,2|8,0:0|0:0,0:0:0:0:
495,281,82016,6,0,L|482:191,1,75,8|2,0:0|0:0,0:0:0:0:
364,116,82335,2,0,L|353:190,1,75,8|0,0:0|0:0,0:0:0:0:
458,106,82654,1,8,0:0:0:0:
328,36,82814,1,8,0:3:0:0:
247,154,82974,1,0,0:0:0:0:
154,47,83133,2,0,P|117:53|62:86,1,75,2|2,0:0|0:0,0:0:0:0:
63,102,83372,1,2,0:0:0:0:
63,102,83452,6,0,L|73:178,1,75,4|8,0:0|0:0,0:0:0:0:
128,281,83771,1,8,0:0:0:0:
286,202,83931,6,0,P|248:189|201:197,1,75,4|8,0:0|0:0,0:0:0:0:
233,326,84250,1,0,0:0:0:0:
393,299,84410,6,0,L|403:223,1,75,4|8,0:0|0:0,0:0:0:0:
458,120,84729,1,8,0:0:0:0:
486,235,84888,1,4,0:0:0:0:
374,142,85048,6,0,L|323:137,3,37.5,8|8|8|8,0:3|0:3|0:3|0:3,0:0:0:0:
298,162,85367,2,0,L|304:218,1,37.5,8|8,0:3|0:3,0:0:0:0:
203,153,85527,2,0,L|206:115,1,37.5,8|8,0:3|0:3,0:0:0:0:
114,187,85686,1,4,0:3:0:0:
119,224,85766,1,0,0:0:0:0:
123,261,85846,1,4,0:3:0:0:
128,298,85926,1,0,0:0:0:0:
136,334,86005,6,0,P|177:308|213:305,1,75
309,337,86325,1,0,0:0:0:0:
383,254,86484,2,0,P|419:246|449:224,1,75
274,221,86803,1,0,0:0:0:0:
309,337,86963,1,0,0:0:0:0:
307,141,87122,6,0,P|298:97|440:113,1,262.5,4|0,0:0|0:0,0:0:0:0:
384,166,88378,5,0,0:0:0:0:
378,202,88457,1,0,0:0:0:0:
374,239,88537,1,0,0:0:0:0:
370,276,88617,1,0,0:0:0:0:
367,313,88697,1,0,0:0:0:0:
