osu file format v14

[General]
AudioFilename: audio.mp3
AudioLeadIn: 0
PreviewTime: 43319
Countdown: 0
SampleSet: Normal
StackLeniency: 0.7
Mode: 0
LetterboxInBreaks: 0
WidescreenStoryboard: 0

[Editor]
DistanceSpacing: 1.3
BeatDivisor: 4
GridSize: 32
TimelineZoom: 1

[Metadata]
Title:BRAVER
TitleUnicode:BRAVER
Artist:ZAQ
ArtistUnicode:ZAQ
Creator:Yasaija 714
Version:Hard
Source:食戟のソーマ 餐ノ皿
Tags:shokugeki no soma san no sara tv size opening season 3 Karen eLy Doormat _kotachi_ xxdeathx
BeatmapID:1431577
BeatmapSetID:676865

[Difficulty]
HPDrainRate:5
CircleSize:4
OverallDifficulty:6
ApproachRate:8
SliderMultiplier:1.35
SliderTickRate:1

[Events]
//Background and Video events
0,0,"BG.jpg",0,0
Video,0,"opening.avi"
//Break Periods
//Storyboard Layer 0 (Background)
//Storyboard Layer 1 (Fail)
//Storyboard Layer 2 (Pass)
//Storyboard Layer 3 (Foreground)
//Storyboard Sound Samples

[TimingPoints]
474,319.148936170213,4,1,1,50,1,0
5580,-100,4,2,1,60,0,0
15793,-133.333333333333,4,2,1,40,0,0
18346,-111.111111111111,4,2,1,50,0,0
28559,-100,4,2,1,60,0,0
41325,-100,4,2,1,70,0,0
43878,-90.9090909090909,4,2,1,80,0,1
74516,-125,4,2,1,40,0,0
75793,-100,4,2,1,60,0,0
88378,319.148936170213,4,1,0,40,1,0

[Colours]
Combo1 : 189,189,0
Combo2 : 35,192,134
Combo3 : 186,101,175
Combo4 : 241,31,63

[HitObjects]
153,301,474,5,0,0:0:0:0:
153,301,633,2,0,P|175:237|163:158,1,135,0|0,0:0|0:0,0:0:0:0:
154,70,1112,1,0,0:0:0:0:
154,70,1192,1,0,0:0:0:0:
154,70,1271,2,0,L|194:77,4,33.75
27,74,1910,5,2,0:3:0:0:
27,74,2069,2,0,P|20:158|38:211,1,135,8|2,0:3|0:3,0:0:0:0:
89,265,2548,2,0,B|154:248|154:248|231:258,1,135,8|0,0:3|0:0,0:0:0:0:
302,282,3027,5,0,0:0:0:0:
302,282,3186,2,0,P|392:302|440:276,1,135,0|0,0:0|0:0,0:0:0:0:
508,243,3665,1,0,0:0:0:0:
508,243,3745,1,0,0:0:0:0:
508,243,3825,2,0,L|514:288,4,33.75
473,133,4463,5,0,0:0:0:0:
473,133,4622,2,0,B|377:124|377:124|329:154,1,135,8|2,0:3|0:3,0:0:0:0:
286,203,5101,2,0,P|294:235|296:281,2,67.5,0|0|0,0:0|0:0|0:0,0:0:0:0:
197,151,5580,6,0,P|126:151|67:105,1,135,4|8,0:0|0:0,0:0:0:0:
24,268,6218,2,0,P|57:258|100:257,1,67.5,2|0,0:0|0:0,0:0:0:0:
171,259,6537,2,0,P|204:266|242:287,1,67.5,8|2,0:0|0:0,0:0:0:0:
309,349,6856,6,0,P|315:265|333:203,1,135,0|0,0:1|0:0,0:0:0:0:
396,172,7335,2,0,P|397:133|380:89,1,67.5,8|0,0:0|0:0,0:0:0:0:
314,80,7654,2,0,P|312:46|320:13,2,67.5,2|8|0,0:0|0:0|0:0,0:0:0:0:
265,154,8133,6,0,P|210:174|125:157,1,135,2|8,0:0|0:0,0:0:0:0:
3,64,8771,1,2,0:0:0:0:
3,64,8931,2,0,L|9:137,2,67.5,2|8|0,0:0|0:0|0:0,0:0:0:0:
126,27,9410,6,0,L|135:160,1,135,4|0,0:0|0:0,0:0:0:0:
150,261,9888,2,0,B|217:295|219:235|305:264,1,135,8|8,0:0|0:3,0:0:0:0:
377,289,10367,2,0,P|380:251|373:212,1,67.5,8|0,0:0|0:0,0:0:0:0:
310,144,10686,6,0,P|369:139|442:104,1,135,4|8,0:0|0:0,0:0:0:0:
293,6,11325,2,0,L|287:81,1,67.5,2|0,0:0|0:0,0:0:0:0:
207,108,11644,2,0,L|213:183,1,67.5,8|2,0:0|0:0,0:0:0:0:
292,213,11963,2,0,L|283:357,1,135,0|0,0:0|0:0,0:0:0:0:
216,290,12442,2,0,P|181:277|148:273,1,67.5,8|0,0:0|0:0,0:0:0:0:
63,284,12761,2,0,P|27:290|-5:303,2,67.5,2|8|0,0:0|0:0|0:0,0:0:0:0:
148,356,13239,6,0,P|176:276|153:222,1,135,2|8,0:0|0:0,0:0:0:0:
34,121,13878,1,2,0:0:0:0:
34,121,14037,2,0,P|84:124|125:116,2,67.5,0|8|0,0:0|0:0|0:0,0:0:0:0:
116,41,14516,6,0,L|202:61,1,67.5,2|2,0:0|0:0,0:0:0:0:
273,85,14835,2,0,L|226:134,1,67.5,0|8,0:0|0:0,0:0:0:0:
156,198,15154,2,0,L|136:133,1,67.5,8|2,0:0|0:3,0:0:0:0:
189,25,15474,2,0,P|258:25|298:57,1,101.25,8|8,0:0|0:0,0:0:0:0:
273,85,15793,6,0,B|227:182|311:182|270:285,1,202.500007724762,4|4,0:0|0:0,0:0:0:0:
104,352,16910,1,0,0:0:0:0:
104,352,17069,2,0,P|167:341|264:365,1,151.875005793572,4|0,0:0|0:0,0:0:0:0:
339,337,17708,2,0,L|344:311,2,25.3125009655953,8|8|8,0:0|0:0|0:3,0:0:0:0:
424,310,18027,2,0,L|420:286,2,25.3125009655953,8|8|8,0:0|0:0|0:3,0:0:0:0:
360,232,18346,6,0,P|298:230|238:189,1,121.499996292114,4|8,0:0|0:0,0:0:0:0:
157,89,18984,1,2,0:0:0:0:
157,89,19144,2,0,L|151:149,1,60.7499981460572,0|8,0:0|0:0,0:0:0:0:
82,183,19463,2,0,L|88:250,1,60.7499981460572,0|2,0:0|0:0,0:0:0:0:
142,306,19782,2,0,P|185:294|206:294,1,60.7499981460572,0|8,0:0|0:0,0:0:0:0:
274,331,20101,2,0,P|317:343|338:343,1,60.7499981460572,0|2,0:0|0:0,0:0:0:0:
406,304,20420,2,0,L|411:243,1,60.7499981460572,0|8,0:0|0:0,0:0:0:0:
380,165,20739,1,0,0:0:0:0:
314,224,20899,6,0,P|276:225|243:216,1,60.7499981460572,2|0,0:0|0:0,0:0:0:0:
177,184,21218,2,0,P|172:213|174:244,1,60.7499981460572,8|0,0:0|0:0,0:0:0:0:
192,325,21537,1,2,0:0:0:0:
112,302,21697,2,0,P|74:301|41:310,2,60.7499981460572,0|8|0,0:0|0:0|0:0,0:0:0:0:
192,325,22176,2,0,L|205:384,1,60.7499981460572,2|0,0:0|0:0,0:0:0:0:
283,359,22495,2,0,L|296:300,1,60.7499981460572,8|0,0:0|0:0,0:0:0:0:
353,239,22814,1,2,0:0:0:0:
398,308,22974,2,0,P|430:312|473:312,2,60.7499981460572,0|8|0,0:0|0:0|0:0,0:0:0:0:
478,236,23452,6,0,P|483:178|458:116,1,121.499996292114,4|8,0:0|0:0,0:0:0:0:
392,72,23931,1,0,0:0:0:0:
392,72,24091,2,0,P|357:78|327:79,1,60.7499981460572,2|0,0:0|0:0,0:0:0:0:
253,56,24410,1,8,0:0:0:0:
253,56,24569,2,0,L|247:126,1,60.7499981460572,0|2,0:0|0:0,0:0:0:0:
169,143,24888,2,0,L|160:82,1,60.7499981460572,0|8,0:0|0:0,0:0:0:0:
82,115,25208,2,0,L|73:176,1,60.7499981460572,0|2,0:0|0:0,0:0:0:0:
49,256,25527,1,0,0:0:0:0:
49,256,25686,2,0,P|121:253|161:265,1,91.1249972190858,8|0,0:0|0:0,0:0:0:0:
175,286,26005,6,0,B|157:200|157:200|173:161,1,121.499996292114,4|0,0:0|0:0,0:0:0:0:
225,96,26484,1,8,0:0:0:0:
225,96,26564,1,8,0:0:0:0:
225,96,26644,2,0,L|285:105,1,60.7499981460572,8|8,0:0|0:0,0:0:0:0:
346,162,26963,2,0,L|406:153,1,60.7499981460572,8|12,0:3|0:3,0:0:0:0:
474,100,27282,5,8,0:0:0:0:
474,100,27442,1,8,0:0:0:0:
462,269,27761,1,8,0:0:0:0:
462,269,27920,1,8,0:0:0:0:
376,238,28080,2,0,L|379:268,2,30.3749990730286,8|8|8,0:0|0:0|0:0,0:0:0:0:
284,365,28559,6,0,P|249:352|200:350,1,67.5,4|0,0:0|0:0,0:0:0:0:
128,349,28878,2,0,P|91:355|47:378,1,67.5,8|0,0:0|0:0,0:0:0:0:
1,300,29197,1,2,0:0:0:0:
1,300,29356,2,0,P|30:229|29:166,1,135,2|0,0:0|0:0,0:0:0:0:
10,82,29835,6,0,L|76:94,1,67.5,2|0,0:0|0:0,0:0:0:0:
151,149,30154,2,0,L|217:137,1,67.5,8|0,0:0|0:0,0:0:0:0:
290,78,30474,1,2,0:0:0:0:
290,78,30633,2,0,P|304:144|301:230,1,135,2|0,0:0|0:0,0:0:0:0:
248,285,31112,6,0,P|255:320|269:363,1,67.5,2|0,0:0|0:0,0:0:0:0:
349,372,31431,2,0,P|405:346|486:360,1,135,8|2,0:0|0:0,0:0:0:0:
503,270,31910,1,2,0:0:0:0:
503,270,32069,2,0,L|511:196,1,67.5,8|0,0:0|0:0,0:0:0:0:
420,137,32388,2,0,L|427:204,2,67.5,2|2|8,0:0|0:0|0:0,0:0:0:0:
353,76,32867,1,0,0:0:0:0:
344,198,33027,6,0,P|266:195|217:211,1,101.25,4|0,0:0|0:0,0:0:0:0:
190,229,33346,2,0,P|193:151|177:102,1,101.25,4|0,0:0|0:0,0:0:0:0:
153,79,33665,6,0,L|85:92,1,67.5,4|0,0:0|0:0,0:0:0:0:
25,158,33984,2,0,L|37:224,1,67.5,8|0,0:0|0:0,0:0:0:0:
96,297,34303,1,2,0:0:0:0:
96,297,34463,2,0,P|161:281|230:293,1,135,2|0,0:0|0:0,0:0:0:0:
314,320,34942,6,0,P|321:284|317:240,1,67.5,4|0,0:0|0:0,0:0:0:0:
304,161,35261,2,0,P|280:185|252:204,1,67.5,8|0,0:0|0:0,0:0:0:0:
160,200,35580,1,2,0:0:0:0:
160,200,35739,2,0,P|141:132|150:56,1,135,2|0,0:0|0:0,0:0:0:0:
233,16,36218,5,4,0:0:0:0:
432,56,36697,1,8,0:0:0:0:
432,56,36777,1,8,0:0:0:0:
432,56,36856,2,0,L|425:129,1,67.5,8|0,0:0|0:0,0:0:0:0:
340,152,37176,2,0,L|347:225,1,67.5,8|0,0:3|0:0,0:0:0:0:
435,248,37495,5,8,0:0:0:0:
366,310,37654,1,8,0:0:0:0:
258,230,37974,5,8,0:0:0:0:
189,292,38133,2,0,L|189:256,2,33.75,8|0|8,0:0|0:0|0:0,0:0:0:0:
116,235,38452,2,0,L|116:268,2,33.75,8|8|8,0:0|0:0|0:0,0:0:0:0:
14,271,38771,5,0,0:0:0:0:
21,173,38931,1,8,0:0:0:0:
21,173,39091,2,0,P|90:161|158:175,1,135,4|8,0:0|0:0,0:0:0:0:
228,223,39569,2,0,P|297:235|365:221,2,135,4|10|10,0:0|0:0|0:0,0:0:0:0:
195,49,40527,1,10,0:0:0:0:
388,70,40846,2,0,L|380:141,1,67.5,10|0,0:0|0:0,0:0:0:0:
359,224,41165,1,0,0:0:0:0:
470,182,41325,6,0,P|478:252|436:314,1,135,4|8,0:0|0:0,0:0:0:0:
355,349,41803,2,0,B|318:341|318:341|261:359|261:359|216:346,1,135,4|8,0:0|0:0,0:0:0:0:
159,272,42282,2,0,P|142:234|146:194,1,67.5,2|2,0:0|0:0,0:0:0:0:
175,102,42601,6,0,L|318:121,1,135,4|2,0:0|0:0,0:0:0:0:
377,194,43080,2,0,L|234:213,1,135,2|2,0:0|0:0,0:0:0:0:
159,272,43559,1,10,0:0:0:0:
243,211,43718,1,10,0:0:0:0:
264,369,43878,5,4,0:0:0:0:
264,369,44197,2,0,P|308:344|373:339,1,111.375003398895,8|0,0:0|0:0,0:0:0:0:
422,351,44516,2,0,P|438:303|429:257,1,74.2500022659302,2|2,0:0|0:0,0:0:0:0:
377,194,44835,1,8,0:0:0:0:
501,224,44995,6,0,P|490:151|503:66,1,148.50000453186,0|0,0:0|0:0,0:0:0:0:
499,77,45474,1,8,0:0:0:0:
408,26,45633,2,0,B|420:101|420:101|412:137|418:184,1,148.50000453186,0|2,0:0|0:0,0:0:0:0:
501,224,46112,2,0,B|504:260|498:300,1,74.2500022659302,8|0,0:0|0:0,0:0:0:0:
388,340,46431,6,0,L|313:334,2,74.2500022659302,2|2|8,0:0|0:0|0:0,0:0:0:0:
420,256,46910,1,0,0:0:0:0:
316,252,47069,2,0,L|241:246,2,74.2500022659302,2|2|8,0:0|0:0|0:0,0:0:0:0:
348,168,47548,1,0,0:0:0:0:
260,98,47708,6,0,P|189:98|113:166,1,148.50000453186,2|8,0:0|0:0,0:0:0:0:
75,228,48186,1,0,0:0:0:0:
75,228,48346,2,0,L|91:306,1,74.2500022659302,0|2,0:0|0:0,0:0:0:0:
188,355,48665,2,0,L|202:282,1,74.2500022659302,8|0,0:0|0:0,0:0:0:0:
262,179,48984,6,0,P|330:193|388:185,1,111.375003398895,4|0,0:0|0:0,0:0:0:0:
425,172,49303,2,0,P|417:209|419:254,1,74.2500022659302,8|0,0:0|0:0,0:0:0:0:
495,334,49622,2,0,P|502:296|501:252,2,74.2500022659302,2|2|8,0:0|0:0|0:0,0:0:0:0:
378,362,50101,6,0,P|304:341|220:356,1,148.50000453186,0|2,0:0|0:0,0:0:0:0:
125,376,50580,1,8,0:0:0:0:
125,376,50739,2,0,B|109:320|149:274|149:274|129:222,1,148.50000453186,2|2,0:0|0:0,0:0:0:0:
72,143,51218,1,8,0:0:0:0:
153,62,51378,6,0,P|237:68|321:70,1,148.50000453186,0|0,0:0|0:0,0:0:0:0:
414,56,51856,2,0,P|414:97|406:130,1,74.2500022659302,8|0,0:0|0:0,0:0:0:0:
330,192,52176,1,2,0:0:0:0:
447,216,52335,2,0,P|455:252|454:289,2,74.2500022659302,2|12|0,0:0|0:0|0:0,0:0:0:0:
372,319,52814,6,0,P|306:336|198:316,1,148.50000453186,8|8,0:0|0:0,0:0:0:0:
154,264,53293,1,0,0:0:0:0:
249,222,53452,2,0,L|244:182,2,37.1250011329651,8|8|8,0:3|0:3|0:3,0:0:0:0:
354,227,53771,2,0,L|359:187,2,37.1250011329651,8|8|8,0:3|0:3|0:3,0:0:0:0:
407,120,54091,5,4,0:0:0:0:
407,120,54410,2,0,P|345:103|301:54,1,111.375003398895,8|0,0:0|0:0,0:0:0:0:
276,26,54729,2,0,L|261:105,1,74.2500022659302,2|2,0:0|0:0,0:0:0:0:
244,185,55048,1,8,0:0:0:0:
169,84,55208,6,0,P|98:83|30:131,1,148.50000453186,0|2,0:0|0:0,0:0:0:0:
35,124,55686,1,8,0:0:0:0:
126,190,55846,2,0,B|135:265|135:265|114:343,1,148.50000453186,2|2,0:0|0:0,0:0:0:0:
211,379,56325,2,0,L|231:304,1,74.2500022659302,8|0,0:0|0:0,0:0:0:0:
285,206,56644,6,0,P|341:213|380:207,2,74.2500022659302,4|0|8,0:0|0:0|0:0,0:0:0:0:
229,120,57122,1,0,0:0:0:0:
229,120,57282,2,0,L|149:142,1,74.2500022659302,2|2,0:0|0:0,0:0:0:0:
92,49,57601,2,0,L|50:121,1,74.2500022659302,8|0,0:0|0:0,0:0:0:0:
9,218,57920,6,0,P|69:206|104:204,1,74.2500022659302,2|2,0:0|0:0,0:0:0:0:
194,240,58239,1,8,0:0:0:0:
194,240,58399,2,0,P|276:249|351:229,1,148.50000453186,2|2,0:0|0:0,0:0:0:0:
411,169,58878,1,8,0:0:0:0:
466,291,59037,1,0,0:0:0:0:
466,291,59117,1,0,0:0:0:0:
466,291,59197,6,0,P|422:288|381:294,1,74.2500022659302,4|0,0:0|0:0,0:0:0:0:
302,376,59516,2,0,P|258:379|217:373,1,74.2500022659302,8|0,0:0|0:0,0:0:0:0:
144,291,59835,2,0,L|125:366,1,74.2500022659302,2|0,0:0|0:0,0:0:0:0:
231,288,60154,2,0,L|212:216,1,74.2500022659302,8|0,0:0|0:0,0:0:0:0:
125,121,60474,6,0,L|196:141,1,74.2500022659302,2|2,0:0|0:0,0:0:0:0:
322,112,60793,2,0,L|268:163,1,74.2500022659302,8|0,0:0|0:0,0:0:0:0:
180,232,61112,1,2,0:0:0:0:
180,232,61271,1,2,0:0:0:0:
281,286,61431,2,0,P|334:286|369:278,1,74.2500022659302,8|0,0:0|0:0,0:0:0:0:
458,233,61750,6,0,P|444:158|461:83,1,148.50000453186,4|8,0:0|0:0,0:0:0:0:
458,88,62229,1,0,0:0:0:0:
359,31,62388,2,0,B|257:54|257:54|203:37,1,148.50000453186,2|12,0:0|0:0,0:0:0:0:
259,144,62867,1,0,0:0:0:0:
136,121,63027,6,0,P|131:178|137:215,1,74.2500022659302,8|0,0:0|0:0,0:0:0:0:
132,194,63266,1,0,0:0:0:0:
132,194,63346,1,8,0:0:0:0:
209,269,63505,1,0,0:0:0:0:
285,208,63665,2,0,L|322:212,3,37.1250011329651,10|2|2|2,0:0|0:0|0:0|0:0,0:0:0:0:
365,248,63984,2,0,L|402:244,3,37.1250011329651,10|10|10|10,0:0|0:0|0:0|0:0,0:0:0:0:
448,211,64303,6,0,P|454:170|447:124,1,74.2500022659302,4|0,0:0|0:0,0:0:0:0:
376,65,64622,1,8,0:0:0:0:
345,162,64782,1,0,0:0:0:0:
376,65,64942,2,0,P|298:82|225:56,1,148.50000453186,2|8,0:0|0:0,0:0:0:0:
131,103,65420,2,0,P|127:148|134:183,1,74.2500022659302,0|2,0:0|0:0,0:0:0:0:
210,246,65739,2,0,P|214:291|207:326,2,74.2500022659302,0|8|2,0:0|0:0|0:0,0:0:0:0:
131,176,66218,1,0,0:0:0:0:
131,176,66378,2,0,P|198:144|289:174,1,148.50000453186,2|0,0:0|0:0,0:0:0:0:
346,226,66856,6,0,P|342:271|349:306,1,74.2500022659302,4|0,0:0|0:0,0:0:0:0:
441,360,67176,1,8,0:0:0:0:
336,384,67335,1,0,0:0:0:0:
441,360,67495,2,0,P|456:276|437:201,1,148.50000453186,2|8,0:0|0:0,0:0:0:0:
375,139,67974,2,0,P|325:140|286:134,1,74.2500022659302,0|2,0:0|0:0,0:0:0:0:
221,68,68293,2,0,P|171:67|132:73,2,74.2500022659302,2|8|2,0:0|0:0|0:0,0:0:0:0:
301,137,68771,1,0,0:0:0:0:
301,137,68931,2,0,B|265:208|329:210|300:288,1,148.50000453186,10|8,0:0|0:0,0:0:0:0:
216,353,69410,6,0,P|173:355|138:348,1,74.2500022659302,4|0,0:0|0:0,0:0:0:0:
70,294,69729,1,8,0:0:0:0:
160,245,69888,1,0,0:0:0:0:
70,294,70048,2,0,P|82:221|70:144,1,148.50000453186,2|8,0:0|0:0,0:0:0:0:
31,54,70527,2,0,L|108:62,1,74.2500022659302,0|2,0:0|0:0,0:0:0:0:
180,136,70846,2,0,L|257:128,2,74.2500022659302,2|8|2,0:0|0:0|0:0,0:0:0:0:
71,147,71325,1,0,0:0:0:0:
71,147,71484,2,0,P|60:220|72:293,1,148.50000453186,2|0,0:0|0:0,0:0:0:0:
176,353,71963,6,0,L|185:274,2,74.2500022659302,4|8|8,0:0|0:0|0:0,0:0:0:0:
268,265,72442,2,0,L|276:338,2,74.2500022659302,4|8|8,0:0|0:0|0:0,0:0:0:0:
372,335,72920,2,0,L|381:256,2,74.2500022659302,4|8|8,0:0|0:0|0:0,0:0:0:0:
463,247,73399,2,0,L|471:320,2,74.2500022659302,4|8|8,0:0|0:0|0:0,0:0:0:0:
389,154,73878,6,0,P|342:161|284:157,1,74.2500022659302,8|8,0:0|0:0,0:0:0:0:
166,121,74197,2,0,P|203:121|239:127,1,74.2500022659302,2|2,0:0|0:0,0:0:0:0:
198,219,74516,1,0,0:0:0:0:
198,219,75314,5,0,0:0:0:0:
198,219,75474,2,0,L|193:121,1,81,4|0,0:3|0:0,0:0:0:0:
218,94,75793,6,0,P|257:100|298:102,2,67.5,4|2|8,0:0|0:0|0:0,0:0:0:0:
68,33,76431,1,8,0:0:0:0:
68,33,76591,2,0,P|68:108|53:174,1,135,2|0,0:0|0:0,0:0:0:0:
2,234,77069,2,0,P|-2:270|2:309,2,67.5,0|8|0,0:0|0:0|0:0,0:0:0:0:
55,166,77548,1,0,0:0:0:0:
113,229,77708,2,0,P|180:229|210:225,1,67.5,2|0,0:0|0:0,0:0:0:0:
244,170,78027,2,0,P|315:165|373:172,1,101.25,8|0,0:0|0:0,0:0:0:0:
391,189,78346,6,0,P|384:224|390:271,2,67.5,4|2|8,0:0|0:0|0:0,0:0:0:0:
449,122,78825,1,2,0:0:0:0:
449,122,78984,2,0,P|450:88|444:55,2,67.5,8|8|8,0:0|0:0|0:0,0:0:0:0:
366,95,79463,6,0,L|299:118,1,67.5,8|0,0:0|0:0,0:0:0:0:
187,119,79782,2,0,L|240:165,1,67.5,2|8,0:0|0:0,0:0:0:0:
298,263,80101,2,0,L|311:193,1,67.5,0|8,0:0|0:0,0:0:0:0:
302,116,80420,2,0,P|368:135|393:195,1,135,8|8,0:0|0:3,0:0:0:0:
381,288,80899,6,0,L|393:354,2,67.5,4|2|8,0:0|0:0|0:0,0:0:0:0:
298,263,81378,1,2,0:0:0:0:
244,329,81537,2,0,P|176:335|114:300,1,135,2|8,0:0|0:0,0:0:0:0:
90,215,82016,6,0,P|89:176|97:144,1,67.5,8|2,0:0|0:0,0:0:0:0:
176,67,82335,2,0,P|175:106|183:138,1,67.5,8|0,0:0|0:0,0:0:0:0:
263,214,82654,2,0,P|262:175|270:143,1,67.5,8|8,0:0|0:3,0:0:0:0:
333,82,82974,1,0,0:0:0:0:
333,82,83133,2,0,P|400:85|443:80,1,101.25,2|2,0:0|0:0,0:0:0:0:
480,56,83452,6,0,L|476:133,2,67.5,4|8|8,0:0|0:0|0:0,0:0:0:0:
382,131,83931,2,0,L|385:198,2,67.5,4|8|8,0:0|0:0|0:0,0:0:0:0:
313,244,84410,2,0,P|278:246|236:240,2,67.5,4|8|8,0:0|0:0|0:0,0:0:0:0:
216,159,84888,5,4,0:0:0:0:
120,196,85048,2,0,L|126:253,3,33.75,8|8|8|8,0:3|0:3|0:3|0:3,0:0:0:0:
163,265,85367,2,0,L|157:322,3,33.75,8|8|8|8,0:3|0:3|0:3|0:3,0:0:0:0:
121,336,85686,2,0,L|64:342,3,33.75,4|0|4|0,0:3|0:0|0:3|0:0,0:0:0:0:
38,318,86005,6,0,P|28:277|25:244,1,67.5,0|0,0:0|0:0,0:0:0:0:
52,168,86325,1,0,0:0:0:0:
52,168,86484,2,0,L|122:175,2,67.5,0|0|0,0:0|0:0|0:0,0:0:0:0:
16,84,86963,1,0,0:0:0:0:
135,38,87122,1,4,0:0:0:0:
256,192,87282,12,0,88697,0:0:0:0:
