osu file format v14

[General]
AudioFilename: audio.mp3
AudioLeadIn: 0
PreviewTime: 43319
Countdown: 0
SampleSet: Soft
StackLeniency: 0.7
Mode: 0
LetterboxInBreaks: 0
WidescreenStoryboard: 0

[Editor]
Bookmarks: 73186
DistanceSpacing: 1
BeatDivisor: 2
GridSize: 32
TimelineZoom: 1

[Metadata]
Title:BRAVER
TitleUnicode:BRAVER
Artist:ZAQ
ArtistUnicode:ZAQ
Creator:Yasaija 714
Version:Easy
Source:食戟のソーマ 餐ノ皿
Tags:shokugeki no soma san no sara tv size opening season 3 Karen eLy Doormat _kotachi_ xxdeathx
BeatmapID:1431575
BeatmapSetID:676865

[Difficulty]
HPDrainRate:3
CircleSize:2.5
OverallDifficulty:3
ApproachRate:3
SliderMultiplier:0.9
SliderTickRate:1

[Events]
//Background and Video events
0,0,"BG.jpg",0,0
Video,0,"opening.avi"
//Break Periods
//Storyboard Layer 0 (Background)
//Storyboard Layer 1 (Fail)
//Storyboard Layer 2 (Pass)
//Storyboard Layer 3 (Foreground)
//Storyboard Sound Samples

[TimingPoints]
474,319.148936170213,4,1,1,50,1,0
5580,-100,4,2,1,60,0,0
15793,-100,4,2,1,40,0,0
18346,-100,4,2,1,50,0,0
28559,-100,4,2,1,60,0,0
41325,-100,4,2,1,70,0,0
43878,-100,4,2,1,80,0,1
74516,-100,4,2,1,40,0,0
75793,-100,4,2,1,60,0,0
88378,319.148936170213,4,1,0,40,1,0

[Colours]
Combo1 : 189,189,0
Combo2 : 35,192,134
Combo3 : 186,101,175
Combo4 : 241,31,63

[HitObjects]
73,186,474,6,0,P|148:204|209:185,1,135,0|0,0:0|0:0,0:0:0:0:
279,78,1431,1,0,0:0:0:0:
384,162,1910,2,0,P|372:231|372:304,1,135,2|2,0:3|0:3,0:0:0:0:
189,322,3027,6,0,P|200:255|201:188,1,135,0|0,0:0|0:0,0:0:0:0:
96,103,3984,1,0,0:0:0:0:
206,25,4463,2,0,B|246:48|246:48|298:42|351:49,1,135,0|2,0:0|0:3,0:0:0:0:
500,116,5580,6,0,P|450:192|436:294,1,180,4|2,0:0|0:0,0:0:0:0:
439,368,6537,1,8,0:0:0:0:
357,329,6856,2,0,B|294:318|294:318|209:341,1,135,0|8,0:1|0:0,0:0:0:0:
95,374,7814,1,8,0:0:0:0:
64,289,8133,6,0,P|38:196|74:112,2,180,2|2|4,0:0|0:0|0:0,0:0:0:0:
171,207,9888,1,8,0:0:0:0:
288,273,10367,1,8,0:0:0:0:
320,189,10686,6,0,P|369:234|346:341,1,180,4|2,0:0|0:0,0:0:0:0:
262,357,11644,1,8,0:0:0:0:
288,273,11963,2,0,P|212:262|162:230,2,135,0|8|8,0:0|0:0|0:0,0:0:0:0:
320,189,13239,6,0,B|403:156|403:156|501:171,1,180,2|2,0:0|0:0,0:0:0:0:
498,349,14516,2,0,P|454:337|406:336,1,90,2|0,0:0|0:0,0:0:0:0:
321,350,15154,2,0,P|277:362|229:363,1,90,8|8,0:0|0:0,0:0:0:0:
155,317,15793,5,4,0:0:0:0:
458,123,17069,2,0,P|348:112|269:129,1,180,4|8,0:0|0:0,0:0:0:0:
195,154,18027,1,8,0:0:0:0:
177,242,18346,6,0,P|176:293|186:341,1,90,4|8,0:0|0:0,0:0:0:0:
268,360,18984,2,0,P|349:366|422:341,2,135,2|0|8,0:0|0:0|0:0,0:0:0:0:
183,331,20261,2,0,P|132:331|90:340,1,90,2|8,0:0|0:0,0:0:0:0:
13,297,20899,6,0,B|5:253|5:253|12:205,1,90,2|8,0:0|0:0,0:0:0:0:
67,138,21537,2,0,B|111:130|111:130|159:137,1,90,2|8,0:0|0:0,0:0:0:0:
239,170,22176,2,0,B|283:177|283:177|327:171,2,90,2|8|2,0:0|0:0|0:0,0:0:0:0:
284,92,23133,1,8,0:0:0:0:
373,95,23452,6,0,P|406:127|413:189,1,90,4|8,0:0|0:0,0:0:0:0:
376,249,24091,2,0,B|387:298|386:343|386:343|413:382,2,135,2|0|8,0:0|0:0|0:0,0:0:0:0:
327,171,25367,2,0,P|280:180|240:206,1,90,2|8,0:0|0:0,0:0:0:0:
189,273,26005,5,4,0:0:0:0:
30,358,26644,2,0,P|16:297|18:243,1,90,8|8,0:0|0:3,0:0:0:0:
53,188,27282,2,0,B|142:192|142:192|201:168,2,135,8|8|8,0:0|0:0|0:0,0:0:0:0:
28,101,28559,6,0,L|124:105,1,90,4|8,0:0|0:0,0:0:0:0:
188,49,29197,2,0,L|284:45,1,90,2|8,0:0|0:0,0:0:0:0:
363,72,29835,2,0,P|377:120|377:180,1,90,2|8,0:0|0:0,0:0:0:0:
295,193,30474,2,0,P|281:241|281:301,1,90,2|8,0:0|0:0,0:0:0:0:
349,337,31112,6,0,L|441:342,2,90,2|8|2,0:0|0:0|0:0,0:0:0:0:
264,368,32069,1,8,0:0:0:0:
278,280,32388,2,0,P|230:269|181:279,1,90,2|8,0:0|0:0,0:0:0:0:
107,311,33027,1,4,0:0:0:0:
45,245,33346,1,4,0:0:0:0:
95,170,33665,6,0,P|143:181|192:171,1,90,4|8,0:0|0:0,0:0:0:0:
247,112,34303,2,0,P|263:70|294:38,1,90,2|8,0:0|0:0,0:0:0:0:
385,37,34942,2,0,P|416:69|432:110,1,90,4|8,0:0|0:0,0:0:0:0:
381,185,35580,2,0,P|337:195|293:189,1,90,2|8,0:0|0:0,0:0:0:0:
247,112,36218,5,4,0:0:0:0:
234,291,36856,2,0,B|189:285|189:285|138:292,1,90,8|8,0:0|0:3,0:0:0:0:
62,328,37495,6,0,B|41:289|41:289|54:191,1,135,8|8,0:0|0:0,0:0:0:0:
96,69,38452,1,8,0:0:0:0:
193,162,38931,2,0,B|256:197|329:177,1,135,8|8,0:0|0:0,0:0:0:0:
448,128,39888,2,0,L|436:221,2,90,10|10|10,0:0|0:0|0:0,0:0:0:0:
430,39,40846,1,10,0:0:0:0:
307,92,41325,6,0,P|225:57|137:62,2,135,4|4|2,0:0|0:0|0:0,0:0:0:0:
323,178,42601,2,0,L|299:361,1,180,4|2,0:0|0:0,0:0:0:0:
119,353,43878,6,0,P|109:309|108:264,1,90,4|8,0:0|0:0,0:0:0:0:
173,201,44516,2,0,P|107:174|44:200,1,135,2|0,0:0|0:0,0:0:0:0:
18,279,45314,1,0,0:0:0:0:
107,264,45633,2,0,P|173:291|236:265,1,135,0|8,0:0|0:0,0:0:0:0:
232,180,46431,6,0,P|280:168|337:184,1,90,2|8,0:0|0:0,0:0:0:0:
396,220,47069,2,0,L|391:313,1,90,2|8,0:0|0:0,0:0:0:0:
311,351,47708,2,0,P|263:363|206:347,2,90,2|8|0,0:0|0:0|0:0,0:0:0:0:
264,274,48665,1,8,0:0:0:0:
175,257,48984,6,0,P|174:210|155:141,1,90,4|8,0:0|0:0,0:0:0:0:
121,89,49622,2,0,B|158:67|158:67|261:63,1,135,2|0,0:0|0:0,0:0:0:0:
339,59,50420,1,2,0:0:0:0:
320,146,50739,2,0,P|324:199|344:244,1,90,2|2,0:0|0:0,0:0:0:0:
389,306,51378,6,0,P|307:345|213:319,1,180,0|0,0:0|0:0,0:0:0:0:
154,268,52335,1,2,0:0:0:0:
187,136,52814,2,0,B|278:153|278:153|323:145,2,135,8|0|8,0:0|0:0|0:3,0:0:0:0:
106,94,54091,6,0,P|62:108|21:152,1,90,4|8,0:0|0:0,0:0:0:0:
33,226,54729,2,0,B|42:316|42:316|68:355,1,135,2|0,0:0|0:0,0:0:0:0:
154,372,55527,1,2,0:0:0:0:
219,310,55846,2,0,L|229:170,1,135,2|8,0:0|0:0,0:0:0:0:
247,86,56644,6,0,P|290:100|358:102,1,90,4|8,0:0|0:0,0:0:0:0:
405,49,57282,2,0,P|448:35|516:33,1,90,2|8,0:0|0:0,0:0:0:0:
508,119,57920,2,0,L|500:212,1,90,2|8,0:0|0:0,0:0:0:0:
426,261,58559,2,0,L|418:354,1,90,0|8,0:0|0:0,0:0:0:0:
328,360,59197,6,0,P|222:369|132:305,1,180,4|2,0:0|0:0,0:0:0:0:
126,252,60154,1,8,0:0:0:0:
176,177,60474,2,0,B|187:134|187:134|177:88,2,90,2|8|2,0:0|0:0|0:0,0:0:0:0:
98,131,61431,1,8,0:0:0:0:
24,182,61750,6,0,P|5:125|83:42,1,180,4|2,0:0|0:0,0:0:0:0:
167,49,62708,1,12,0:0:0:0:
243,95,63027,2,0,B|276:184|202:185|243:286,1,180,8|10,0:0|0:0,0:0:0:0:
395,355,64303,6,0,P|445:345|489:319,1,90,4|8,0:0|0:0,0:0:0:0:
499,238,64942,2,0,B|496:149|496:149|472:99,2,135,2|0|8,0:0|0:0|0:0,0:0:0:0:
412,263,66218,2,0,L|410:172,1,90,0|8,0:0|0:0,0:0:0:0:
357,100,66856,6,0,P|302:97|238:108,1,90,4|8,0:0|0:0,0:0:0:0:
197,157,67495,2,0,P|185:242|200:304,2,135,2|0|8,0:0|0:0|0:0,0:0:0:0:
279,192,68771,2,0,P|272:233|296:294,1,90,0|8,0:0|0:0,0:0:0:0:
375,280,69410,6,0,P|388:237|381:193,1,90,4|8,0:0|0:0,0:0:0:0:
332,117,70048,2,0,P|290:100|237:19,2,135,2|0|8,0:0|0:0|0:0,0:0:0:0:
422,112,71325,2,0,P|456:84|500:74,1,90,0|8,0:0|0:0,0:0:0:0:
494,163,71963,6,0,L|488:303,1,135,4|4,0:0|0:0,0:0:0:0:
353,297,72920,2,0,L|347:162,1,135,4|4,0:0|0:0,0:0:0:0:
233,88,73878,2,0,P|185:84|130:90,1,90,8|2,0:0|0:0,0:0:0:0:
60,122,74516,1,0,0:0:0:0:
29,328,75793,6,0,P|116:301|202:332,1,180,4|8,0:0|0:0,0:0:0:0:
376,343,77069,2,0,B|389:254|389:254|354:169,1,180,0|2,0:0|0:0,0:0:0:0:
210,63,78346,2,0,P|125:90|41:63,1,180,4|8,0:0|0:0,0:0:0:0:
5,239,79622,2,0,B|94:272|94:202|193:238,1,180,0|8,0:0|0:0,0:0:0:0:
254,285,80580,1,8,0:3:0:0:
321,225,80899,6,0,P|344:289|277:372,1,180,4|2,0:0|0:0,0:0:0:0:
106,325,82176,2,0,B|96:280|80:238|80:238|98:199|106:148,1,180,2|8,0:0|0:3,0:0:0:0:
92,63,83133,1,2,0:0:0:0:
179,42,83452,6,0,L|330:67,1,135,4|4,0:0|0:0,0:0:0:0:
392,172,84410,2,0,L|241:197,1,135,4|4,0:0|0:0,0:0:0:0:
184,307,85367,2,0,L|312:331,1,90,8|4,0:3|0:3,0:0:0:0:
360,340,86005,1,0,0:0:0:0:
256,192,87122,12,0,88697,0:0:0:0:
