osu file format v14

[General]
AudioFilename: audio.mp3
AudioLeadIn: 0
PreviewTime: 43320
Countdown: 0
SampleSet: Soft
StackLeniency: 0.7
Mode: 2
LetterboxInBreaks: 0
WidescreenStoryboard: 1

[Editor]
Bookmarks: 5581,18347,37496,87123,89357
DistanceSpacing: 1
BeatDivisor: 4
GridSize: 16
TimelineZoom: 3.699998

[Metadata]
Title:BRAVER (TV Size)
TitleUnicode:BRAVER (TV Size)
Artist:ZAQ
ArtistUnicode:ZAQ
Creator:Nakano Ichika
Version:SALAD
Source:食戟のソーマ 餐ノ皿
Tags:Shokugeki no Sōma San no Sara Soma Souma The Third Plate Gourmet Food Wars! 附田 祐斗 Tsukuda Yuuto 幸平 創真 Yukihira 薙切 えりな Nakiri Erina 愛里寿 Arisu Alice 水戸 郁魅 Mito Ikumi タクミ・アルディーニ Takumi Arudīni Aldini アルディーニ Isami 田所 恵 Tadokoro Megumi asuna female vocal op opening theme anime japanese rock jrock j-rock
BeatmapID:3374638
BeatmapSetID:1653206

[Difficulty]
HPDrainRate:3
CircleSize:3
OverallDifficulty:7
ApproachRate:7
SliderMultiplier:1.4
SliderTickRate:1

[Events]
//Background and Video events
0,0,"bg.jpg",0,0
//Break Periods
//Storyboard Layer 0 (Background)
//Storyboard Layer 1 (Fail)
//Storyboard Layer 2 (Pass)
//Storyboard Layer 3 (Foreground)
//Storyboard Layer 4 (Overlay)
//Storyboard Sound Samples

[TimingPoints]
514,319.148936170213,4,2,1,50,1,0
982,319.148936170213,4,2,1,50,1,0
1461,322.580645161291,4,2,1,50,1,0
1785,306.122448979592,4,2,1,50,1,0
1938,309.278350515464,4,2,1,50,1,0
2092,310.880829015544,4,2,1,50,1,0
2402,322.580645161291,4,2,1,50,1,0
2724,326.086956521739,4,2,1,50,1,0
3050,319.148936170213,4,2,1,50,1,0
3521,319.148936170213,4,2,1,50,1,0
3688,307.692307692308,4,2,1,50,1,0
3995,319.148936170213,4,2,1,50,1,0
4314,-100,4,2,1,40,0,0
4473,-100,4,2,1,50,0,0
4633,-100,4,2,1,55,0,0
4952,314.136125654451,4,2,1,55,1,0
5266,326.530612244898,4,2,1,55,1,0
5581,-100,4,2,1,70,0,0
5603,319.148936170213,4,2,1,70,1,0
18359,-100,4,2,1,75,0,0
38147,314.136125654451,4,2,1,75,1,0
38775,400,4,2,1,75,1,0
38986,319.148936170213,4,2,1,75,1,0
39145,310.880829015544,4,2,1,75,1,0
39455,310.880829015544,4,2,1,75,1,0
39921,360.360360360361,4,2,1,75,1,0
40097,319.148936170213,4,2,1,75,1,0
41373,307.692307692308,4,2,1,75,1,0
41988,314.136125654451,4,2,1,75,1,0
42616,317.460317460318,4,2,1,75,1,0
42933,327.868852459017,4,2,1,75,1,0
43260,319.148936170213,4,2,1,75,1,0
43896,319.148936170213,4,2,1,75,1,1
52832,315.789473684211,4,2,1,85,1,1
53147,322.580645161291,4,2,1,85,1,1
53469,315.789473684211,4,2,1,85,1,1
53784,326.530612244898,4,2,1,85,1,1
54028,-100,4,2,1,85,0,0
54110,319.148936170213,4,2,1,85,1,0
54110,-100,4,2,1,85,0,1
56663,317.460317460318,4,2,1,85,1,1
56980,319.148936170213,4,2,1,85,1,1
57937,319.148936170213,4,2,1,85,1,1
63362,318.725099601594,4,2,1,85,1,1
64318,319.148936170213,4,2,1,75,1,0
75488,333.333333333334,4,2,1,65,1,0
75821,357.142857142858,4,2,1,65,1,0
76178,288.461538461539,4,2,1,65,1,0
76466,307.692307692308,4,2,1,65,1,0
77081,327.868852459017,4,2,1,65,1,0
78064,310.880829015544,4,2,1,65,1,0
78378,319.148936170213,4,2,1,65,1,0
81250,297.029702970297,4,2,1,65,1,0
81547,337.078651685393,4,2,1,65,1,0
81884,321.71581769437,4,2,1,65,1,0
82207,319.148936170213,4,2,1,65,1,0
83165,315.789473684211,4,2,1,65,1,0
83480,309.278350515464,4,2,1,65,1,0
84098,348.837209302326,4,2,1,65,1,0
84446,307.692307692308,4,2,1,65,1,0
84753,326.086956521739,4,2,1,65,1,0
85079,319.148936170213,4,2,1,65,1,0
85398,312.5,4,2,1,65,1,0
85710,320.855614973262,4,2,1,65,1,0
86028,-100,4,2,1,50,0,0
86030,313.315926892951,4,2,1,50,1,0
88351,315.789473684211,4,2,1,50,1,0
88690,-100,4,2,1,30,0,0
89006,-100,4,2,1,25,0,0
89164,-100,4,2,1,15,0,0
89322,-100,4,2,1,5,0,0

[Colours]
Combo1 : 0,128,192
Combo2 : 255,34,34
Combo3 : 255,149,43

[HitObjects]
223,263,514,5,8,3:2:0:0:
293,265,674,1,8,3:2:0:0:
153,192,982,1,8,3:2:0:0:
83,196,1141,2,0,B|13:197|13:197|83:196,1,140,8|2,3:2|0:0,0:0:0:0:
153,192,1621,1,8,0:0:0:0:
293,102,1938,6,0,L|367:102,1,70,8|2,0:0|0:0,0:0:0:0:
224,103,2402,2,0,L|81:103,1,140,8|2,0:0|0:0,0:0:0:0:
223,212,3050,5,8,3:2:0:0:
293,214,3209,1,8,3:2:0:0:
153,214,3521,1,8,3:2:0:0:
83,218,3688,2,0,B|13:219|13:219|83:218,1,140,8|2,3:2|0:0,0:0:0:0:
153,214,4155,1,8,0:0:0:0:
292,215,4473,6,0,L|220:214,1,70,12|2,0:0|0:0,0:0:0:0:
82,212,4952,2,0,L|223:215,1,140,8|2,0:0|0:0,0:0:0:0:
502,188,5603,6,0,L|361:187,1,140,6|8,3:2|0:0,0:0:0:0:
222,187,6241,2,0,L|363:188,1,140,2|8,3:2|0:0,0:0:0:0:
222,287,6879,6,0,P|180:237|221:187,1,140,0|8,3:2|0:0,0:0:0:0:
292,173,7358,2,0,L|438:177,2,140,2|2|0,3:2|3:2|3:2,0:0:0:0:
221,171,8156,5,2,3:2:0:0:
150,171,8315,1,2,0:0:0:0:
221,171,8475,1,8,0:0:0:0:
359,170,8794,2,0,P|398:223|358:274,1,140,2|8,3:2|0:0,0:0:0:0:
185,160,9432,6,0,L|44:158,1,140,6|0,3:2|0:0,0:0:0:0:
115,158,9911,2,0,L|185:159,2,70,12|2|2,3:2|0:0|0:0,0:0:0:0:
45,158,10390,1,8,3:2:0:0:
325,314,10709,2,0,L|468:311,1,140,6|8,3:2|0:0,0:0:0:0:
324,314,11347,2,0,L|173:316,1,140,2|8,3:2|0:0,0:0:0:0:
324,196,11985,6,0,B|394:197|394:197|324:193,1,140,0|8,3:2|0:0,0:0:0:0:
254,197,12464,2,0,L|97:196,2,140,2|2|2,3:2|3:2|0:0,0:0:0:0:
342,227,13262,6,0,L|411:228,2,70,2|2|8,3:2|0:0|0:0,0:0:0:0:
201,179,13900,2,0,L|59:179,1,140,2|8,3:2|0:0,0:0:0:0:
201,70,14539,6,0,L|341:72,1,140,2|0,3:2|3:2,0:0:0:0:
271,71,15017,2,0,L|196:70,2,70,12|2|2,0:0|3:2|0:0,0:0:0:0:
341,71,15496,1,8,3:2:0:0:
61,322,15815,5,6,3:2:0:0:
256,192,16134,12,8,18049,3:2:0:0:
170,255,18368,5,6,3:2:0:0:
309,241,18688,1,8,3:2:0:0:
170,255,19007,2,0,L|167:183,1,70,2|0,3:2|3:2,0:0:0:0:
307,177,19485,6,0,L|452:180,2,140,0|0|0,3:2|3:2|3:2,0:0:0:0:
166,169,20443,1,0,3:2:0:0:
306,101,20762,6,0,P|328:193|237:222,1,210,0|8,3:2|0:0,0:0:0:0:
96,131,21560,2,0,B|25:129|25:129|97:129,1,140,2|8,0:0|3:2,0:0:0:0:
183,133,22039,6,0,L|329:136,1,140,0|0,3:2|3:2,0:0:0:0:
393,137,22517,1,8,3:2:0:0:
253,235,22837,1,2,3:2:0:0:
393,250,23156,1,8,0:0:0:0:
111,311,23475,6,0,P|65:269|112:228,1,140,6|8,3:2|3:2,0:0:0:0:
255,227,24113,2,0,L|325:228,1,70,2|0,3:2|3:2,0:0:0:0:
185,132,24592,6,0,L|35:137,2,140,0|0|0,3:2|3:2|3:2,0:0:0:0:
326,132,25549,1,0,3:2:0:0:
186,264,25868,1,0,3:2:0:0:
99,263,26028,6,0,P|27:211|105:169,1,210,6|2,0:0|0:0,0:0:0:0:
176,183,26666,2,0,L|258:190,2,70,2|2|2,3:2|3:2|3:2,0:0:0:0:
316,156,27305,6,0,L|388:154,1,70,6|2,3:2|3:2,0:0:0:0:
246,84,27783,2,0,L|176:85,1,70,2|8,3:2|0:0,0:0:0:0:
316,96,28262,1,2,3:2:0:0:
35,304,28581,6,0,L|106:304,1,70,6|0,3:2|3:2,0:0:0:0:
175,305,28900,2,0,L|246:306,1,70,8|0,3:2|0:0,0:0:0:0:
174,304,29220,1,2,3:2:0:0:
105,304,29379,1,2,3:2:0:0:
243,158,29698,6,0,L|385:144,1,140,0|0,3:2|3:2,0:0:0:0:
312,150,30177,2,0,L|236:157,1,70,8|0,3:2|0:0,0:0:0:0:
305,82,30496,1,2,3:2:0:0:
374,82,30656,1,2,3:2:0:0:
232,307,30975,6,0,L|81:308,1,140,0|0,3:2|3:2,0:0:0:0:
21,305,31454,2,0,L|20:227,1,70,8|0,3:2|0:0,0:0:0:0:
90,235,31773,1,2,3:2:0:0:
160,235,31932,1,2,3:2:0:0:
298,306,32251,2,0,L|158:307,1,140,0|0,3:2|3:2,0:0:0:0:
159,308,32730,1,8,3:2:0:0:
325,99,33049,1,6,3:2:0:0:
171,96,33368,1,6,3:2:0:0:
452,241,33688,6,0,L|452:168,1,70,6|0,3:2|3:2,0:0:0:0:
381,169,34007,2,0,L|304:168,1,70,8|0,3:2|0:0,0:0:0:0:
381,169,34326,2,0,L|456:170,1,70,2|2,3:2|3:2,0:0:0:0:
310,257,34805,6,0,L|166:257,1,140,0|0,3:2|3:2,0:0:0:0:
104,231,35283,1,8,3:2:0:0:
94,161,35443,1,0,3:2:0:0:
131,101,35603,1,2,3:2:0:0:
218,93,35762,2,0,L|357:100,1,140,2|0,3:2|3:2,0:0:0:0:
182,303,36241,6,0,P|105:247|155:166,1,210,6|2,0:0|0:0,0:0:0:0:
225,168,36879,2,0,L|306:167,2,70,2|2|2,3:2|3:2|3:2,0:0:0:0:
366,152,37517,6,0,L|448:154,1,70,8|10,3:2|3:2,0:0:0:0:
295,55,37996,2,0,L|221:58,1,67,8|8,3:2|3:2,0:0:0:0:
295,55,38304,1,2,0:0:0:0:
365,52,38461,1,2,3:2:0:0:
226,164,38775,5,2,3:2:0:0:
147,159,38986,1,12,3:2:0:0:
226,164,39145,1,12,3:2:0:0:
366,166,39455,2,0,L|292:164,1,70,12|12,3:2|3:2,0:0:0:0:
156,91,39921,5,8,3:2:0:0:
296,60,40257,1,8,3:2:0:0:
156,91,40575,1,8,3:2:0:0:
296,60,40894,2,0,P|318:129|300:198,1,140,8|0,3:2|3:2,0:0:0:0:
215,199,41373,6,0,L|5:198,1,210,6|6,0:0|3:2,0:0:0:0:
182,203,42302,1,6,3:2:0:0:
461,201,42617,5,6,3:2:0:0:
256,192,42933,12,2,43579,3:2:0:0:
351,253,43896,6,0,L|495:255,2,140,6|8|2,3:2|3:2|3:2,0:0:0:0:
209,99,44853,2,0,L|136:100,1,70,8|2,3:2|3:2,0:0:0:0:
281,53,45332,6,0,L|359:56,2,70,2|8|0,3:2|3:2|3:2,0:0:0:0:
141,166,45970,2,0,L|210:167,1,70,2|8,0:0|3:2,0:0:0:0:
352,244,46449,6,0,L|422:244,2,70,2|2|8,3:2|3:2|3:2,0:0:0:0:
212,228,47087,2,0,L|133:231,2,70,2|2|8,3:2|3:2|3:2,0:0:0:0:
352,181,47725,6,0,L|493:176,1,140,2|8,3:2|3:2,0:0:0:0:
352,60,48364,2,0,L|281:52,1,70,0|2,3:2|3:2,0:0:0:0:
212,42,48683,1,8,0:0:0:0:
492,236,49002,6,0,L|352:237,2,140,6|8|2,3:2|3:2|3:2,0:0:0:0:
351,84,49959,1,8,3:2:0:0:
263,83,50119,6,0,L|409:85,2,140,0|2|2,3:2|3:2|3:2,0:0:0:0:
123,66,51076,1,2,3:2:0:0:
400,284,51396,6,0,P|483:231|460:135,1,210,0|8,3:2|0:0,0:0:0:0:
322,72,52193,2,0,L|183:66,1,140,2|12,0:0|0:0,0:0:0:0:
322,205,52832,6,0,L|395:209,2,70,2|2|2,3:2|0:0|3:2,0:0:0:0:
182,228,53469,2,0,L|111:235,2,70,2|2|2,3:2|3:2|3:2,0:0:0:0:
463,137,54110,6,0,L|316:130,2,140,6|8|2,3:2|3:2|3:2,0:0:0:0:
323,246,55067,2,0,L|251:242,1,70,8|0,3:2|3:2,0:0:0:0:
114,166,55546,6,0,L|38:161,2,70,2|8|2,0:0|3:2|3:2,0:0:0:0:
254,175,56184,2,0,L|327:178,1,70,2|8,0:0|3:2,0:0:0:0:
42,296,56663,6,0,L|36:154,1,140,2|8,3:2|3:2,0:0:0:0:
176,108,57299,2,0,L|249:110,1,70,2|2,3:2|3:2,0:0:0:0:
317,111,57618,1,8,3:2:0:0:
177,55,57937,6,0,L|32:56,1,140,2|8,3:2|3:2,0:0:0:0:
124,56,58415,2,0,L|268:57,1,140,2|2,3:2|3:2,0:0:0:0:
335,59,58894,1,8,3:2:0:0:
54,268,59213,6,0,P|11:222|53:175,1,140,6|8,3:2|3:2,0:0:0:0:
194,162,59851,2,0,L|336:156,1,140,2|8,3:2|3:2,0:0:0:0:
193,92,60490,6,0,L|44:98,2,140,2|8|2,3:2|3:2|3:2,0:0:0:0:
333,80,61447,1,8,3:2:0:0:
53,293,61766,6,0,L|47:141,1,140,6|8,3:2|3:2,0:0:0:0:
187,232,62405,2,0,L|326:234,1,140,2|12,3:2|3:2,0:0:0:0:
47,90,63043,6,0,L|3:34,2,70,6|2|8,3:2|0:0|3:2,0:0:0:0:
187,128,63680,2,0,L|259:127,1,70,8|2,3:2|0:0,0:0:0:0:
327,126,63999,1,2,0:0:0:0:
46,298,64318,6,0,P|12:243|56:195,1,140,6|8,3:2|3:2,0:0:0:0:
128,196,64796,1,0,0:0:0:0:
199,199,64956,2,0,L|345:201,1,140,2|8,3:2|0:0,0:0:0:0:
269,197,65435,6,0,L|125:201,2,140,0|2|2,3:2|3:2|3:2,0:0:0:0:
339,193,66232,1,0,3:2:0:0:
199,102,66552,1,8,3:2:0:0:
480,101,66871,6,0,L|340:100,1,140,2|8,3:2|3:2,0:0:0:0:
270,104,67349,1,0,0:0:0:0:
341,100,67509,2,0,B|411:101|411:101|341:103,1,140,2|8,3:2|0:0,0:0:0:0:
271,247,67988,6,0,L|122:251,2,140,0|2|2,3:2|3:2|3:2,0:0:0:0:
340,243,68786,1,0,3:2:0:0:
200,186,69105,1,8,3:2:0:0:
480,264,69424,6,0,P|513:206|480:148,1,140,6|8,3:2|3:2,0:0:0:0:
411,140,69903,1,0,0:0:0:0:
341,141,70062,2,0,L|193:129,1,140,2|8,3:2|0:0,0:0:0:0:
272,85,70541,6,0,L|418:88,2,140,0|2|2,3:2|3:2|3:2,0:0:0:0:
201,89,71339,1,0,3:2:0:0:
342,198,71658,1,8,3:2:0:0:
59,288,71977,6,0,P|28:228|66:174,1,140,6|2,3:2|0:0,0:0:0:0:
136,167,72456,2,0,L|282:168,1,140,12|2,3:2|0:0,0:0:0:0:
346,171,72935,6,0,L|199:169,1,140,12|2,3:2|0:0,0:0:0:0:
135,168,73413,2,0,B|65:170|65:170|138:169,1,140,12|2,3:2|0:0,0:0:0:0:
206,57,73892,1,12,3:2:0:0:
344,109,74211,1,8,3:2:0:0:
64,277,74530,5,6,3:2:0:0:
256,192,74849,12,0,75488,0:0:0:0:
334,287,75821,6,0,P|371:234|326:187,1,140,6|0,3:2|0:2,0:0:0:0:
186,173,76466,2,0,L|117:173,1,70,8|2,0:0|3:2,0:0:0:0:
255,69,76927,6,0,L|324:71,1,70,2|0,3:2|0:0,0:0:0:0:
255,69,77244,1,8,3:2:0:0:
115,261,77572,2,0,L|45:260,2,70,2|8|0,3:2|3:2|0:0,0:0:0:0:
186,260,78064,1,2,3:2:0:0:
466,273,78378,6,0,P|496:216|448:172,1,140,6|0,3:2|3:2,0:0:0:0:
309,160,79016,2,0,L|238:159,1,70,8|2,0:0|3:2,0:0:0:0:
380,102,79495,6,0,L|456:101,2,70,8|0|8,3:2|0:0|3:2,0:0:0:0:
239,95,80133,2,0,L|161:96,2,70,2|8|2,3:2|3:2|3:2,0:0:0:0:
310,93,80612,1,2,3:2:0:0:
29,312,80931,6,0,P|1:252|48:207,1,140,6|8,3:2|3:2,0:0:0:0:
181,188,81547,2,0,L|251:183,1,70,8|2,3:2|0:0,0:0:0:0:
399,123,82044,6,0,L|326:116,1,70,8|0,3:2|0:0,0:0:0:0:
258,112,82367,1,8,3:2:0:0:
398,38,82685,2,0,L|473:37,2,70,2|8|0,0:2|3:2|3:2,0:0:0:0:
328,37,83165,1,2,3:2:0:0:
44,56,83480,6,0,L|44:130,1,70,12|2,3:2|0:0,0:0:0:0:
114,128,83789,1,2,0:0:0:0:
183,131,83943,2,0,L|183:204,1,70,12|2,3:2|0:0,0:0:0:0:
112,205,84272,1,2,0:0:0:0:
32,209,84446,6,0,L|32:281,1,70,12|2,3:2|0:0,0:0:0:0:
98,280,84753,1,2,0:0:0:0:
165,280,84916,2,0,B|305:281,1,138,12|2,3:2|0:0,0:0:0:0:
304,281,85398,1,2,0:0:0:0:
164,213,85710,1,2,0:0:0:0:
441,175,86030,6,0,P|476:239|248:370,1,420,2|2,3:2|0:0,0:0:0:0:
75,339,87126,5,6,3:2:0:0:
256,192,87439,12,0,89456,0:0:0:0:
