osu file format v14

[General]
AudioFilename: audio.mp3
AudioLeadIn: 0
PreviewTime: 43320
Countdown: 0
SampleSet: Soft
StackLeniency: 0.7
Mode: 2
LetterboxInBreaks: 0
WidescreenStoryboard: 1

[Editor]
Bookmarks: 5581,18347,37496,87123,89357
DistanceSpacing: 1
BeatDivisor: 8
GridSize: 8
TimelineZoom: 3.699998

[Metadata]
Title:BRAVER (TV Size)
TitleUnicode:BRAVER (TV Size)
Artist:ZAQ
ArtistUnicode:ZAQ
Creator:Nakano Ichika
Version:RAIN
Source:食戟のソーマ 餐ノ皿
Tags:Shokugeki no Sōma San no Sara Soma Souma The Third Plate Gourmet Food Wars! 附田 祐斗 Tsukuda Yuuto 幸平 創真 Yukihira 薙切 えりな Nakiri Erina 愛里寿 Arisu Alice 水戸 郁魅 Mito Ikumi タクミ・アルディーニ Takumi Arudīni Aldini アルディーニ Isami 田所 恵 Tadokoro Megumi asuna female vocal op opening theme anime japanese rock jrock j-rock
BeatmapID:3411176
BeatmapSetID:1653206

[Difficulty]
HPDrainRate:5
CircleSize:4
OverallDifficulty:9
ApproachRate:9
SliderMultiplier:1.8
SliderTickRate:2

[Events]
//Background and Video events
0,0,"bg.jpg",0,0
//Break Periods
//Storyboard Layer 0 (Background)
//Storyboard Layer 1 (Fail)
//Storyboard Layer 2 (Pass)
//Storyboard Layer 3 (Foreground)
//Storyboard Layer 4 (Overlay)
//Storyboard Sound Samples

[TimingPoints]
514,319.148936170213,4,2,1,50,1,0
982,319.148936170213,4,2,1,50,1,0
1461,322.580645161291,4,2,1,50,1,0
1785,306.122448979592,4,2,1,50,1,0
1938,309.278350515464,4,2,1,50,1,0
2092,310.880829015544,4,2,1,50,1,0
2402,322.580645161291,4,2,1,50,1,0
2724,326.086956521739,4,2,1,50,1,0
3050,319.148936170213,4,2,1,50,1,0
3521,319.148936170213,4,2,1,50,1,0
3688,307.692307692308,4,2,1,50,1,0
3995,319.148936170213,4,2,1,50,1,0
4314,-100,4,2,1,40,0,0
4473,-100,4,2,1,50,0,0
4633,-100,4,2,1,55,0,0
4952,314.136125654451,4,2,1,55,1,0
5266,326.530612244898,4,2,1,55,1,0
5581,-100,4,2,1,70,0,0
5603,319.148936170213,4,2,1,70,1,0
18359,-100,4,2,1,75,0,0
38147,314.136125654451,4,2,1,75,1,0
38775,400,4,2,1,75,1,0
38986,319.148936170213,4,2,1,75,1,0
39145,310.880829015544,4,2,1,75,1,0
39455,310.880829015544,4,2,1,75,1,0
39921,360.360360360361,4,2,1,75,1,0
40097,319.148936170213,4,2,1,75,1,0
41373,307.692307692308,4,2,1,75,1,0
41988,314.136125654451,4,2,1,75,1,0
42616,317.460317460318,4,2,1,75,1,0
42933,327.868852459017,4,2,1,75,1,0
43260,319.148936170213,4,2,1,75,1,0
43896,319.148936170213,4,2,1,75,1,1
52832,315.789473684211,4,2,1,85,1,1
53147,322.580645161291,4,2,1,85,1,1
53469,315.789473684211,4,2,1,85,1,1
53784,326.530612244898,4,2,1,85,1,1
54028,-100,4,2,1,85,0,0
54110,319.148936170213,4,2,1,85,1,0
54110,-100,4,2,1,85,0,1
56663,317.460317460318,4,2,1,85,1,1
56980,319.148936170213,4,2,1,85,1,1
57937,319.148936170213,4,2,1,85,1,1
63362,318.725099601594,4,2,1,85,1,1
64318,319.148936170213,4,2,1,75,1,0
75488,333.333333333334,4,2,1,65,1,0
75821,357.142857142858,4,2,1,65,1,0
76178,288.461538461539,4,2,1,65,1,0
76466,307.692307692308,4,2,1,65,1,0
77081,327.868852459017,4,2,1,65,1,0
78064,310.880829015544,4,2,1,65,1,0
78378,319.148936170213,4,2,1,65,1,0
81250,297.029702970297,4,2,1,65,1,0
81547,337.078651685393,4,2,1,65,1,0
81884,321.71581769437,4,2,1,65,1,0
82207,319.148936170213,4,2,1,65,1,0
83165,315.789473684211,4,2,1,65,1,0
83480,309.278350515464,4,2,1,65,1,0
84098,348.837209302326,4,2,1,65,1,0
84446,307.692307692308,4,2,1,65,1,0
84753,326.086956521739,4,2,1,65,1,0
85079,319.148936170213,4,2,1,65,1,0
85398,312.5,4,2,1,65,1,0
85710,320.855614973262,4,2,1,65,1,0
86028,-100,4,2,1,50,0,0
86030,313.315926892951,4,2,1,50,1,0
88351,315.789473684211,4,2,1,50,1,0
88690,-100,4,2,1,30,0,0
89006,-100,4,2,1,25,0,0
89164,-100,4,2,1,15,0,0
89322,-100,4,2,1,5,0,0

[Colours]
Combo1 : 0,128,192
Combo2 : 255,34,34
Combo3 : 255,149,43

[HitObjects]
352,337,514,5,8,3:2:0:0:
126,346,673,2,0,L|125:252,1,90,8|0,3:2|0:0,0:0:0:0:
352,248,982,1,8,3:2:0:0:
126,257,1142,1,8,3:2:0:0:
83,246,1222,1,0,0:0:0:0:
65,206,1301,1,2,0:0:0:0:
84,167,1381,1,2,0:0:0:0:
127,157,1461,2,0,L|173:159,1,45,2|2,0:0|0:0,0:0:0:0:
217,158,1622,6,0,L|397:160,1,177,8|8,0:0|0:0,0:0:0:0:
285,278,2092,2,0,L|230:280,2,45,2|8|2,0:0|0:0|0:0,0:0:0:0:
331,275,2325,1,0,0:0:0:0:
387,276,2402,2,0,L|392:185,1,90,8|2,0:0|0:0,0:0:0:0:
346,188,2643,2,0,L|300:189,2,45,2|2|2,0:0|0:0|0:0,0:0:0:0:
392,187,2887,1,8,0:0:0:0:
167,193,3050,5,8,3:2:0:0:
392,187,3209,2,0,L|389:93,1,90,8|0,3:2|0:0,0:0:0:0:
163,86,3521,1,8,3:2:0:0:
389,96,3688,1,8,3:2:0:0:
399,138,3764,1,0,0:0:0:0:
379,177,3841,1,2,0:0:0:0:
338,193,3918,1,2,0:0:0:0:
297,178,3995,1,2,0:0:0:0:
276,139,4074,1,2,0:0:0:0:
286,96,4154,1,8,0:0:0:0:
377,98,4314,5,2,0:0:0:0:
211,258,4473,2,0,L|119:253,1,90,12|2,0:0|0:0,0:0:0:0:
166,255,4713,1,0,0:0:0:0:
211,181,4792,2,0,L|259:183,1,45,2|0,0:0|0:0,0:0:0:0:
199,179,4952,1,8,0:0:0:0:
154,173,5030,1,0,0:0:0:0:
119,147,5109,1,2,0:0:0:0:
121,103,5187,1,0,0:0:0:0:
159,82,5266,2,0,L|256:88,1,90,2|2,0:0|0:0,0:0:0:0:
485,299,5603,6,0,L|480:201,1,90,6|0,3:2|0:0,0:0:0:0:
376,177,5922,2,0,L|382:268,1,90,8|0,0:0|0:0,0:0:0:0:
216,107,6241,2,0,L|127:108,1,90,2|2,3:2|0:0,0:0:0:0:
230,43,6560,2,0,L|319:40,1,90,8|2,0:0|0:0,0:0:0:0:
485,227,6879,6,0,L|391:224,2,90,0|2|8,3:2|0:0|0:0,0:0:0:0:
319,235,7358,2,0,L|317:139,1,90,2|0,3:2|0:0,0:0:0:0:
421,96,7677,1,2,3:2:0:0:
318,63,7837,2,0,L|225:65,1,90,8|0,0:0|3:2,0:0:0:0:
454,117,8156,6,0,L|460:211,1,90,2|2,3:2|0:0,0:0:0:0:
356,286,8475,2,0,L|350:192,1,90,8|0,0:0|0:0,0:0:0:0:
184,170,8794,2,0,L|277:166,1,90,2|2,3:2|0:0,0:0:0:0:
379,116,9113,2,0,L|386:208,1,90,8|0,0:0|0:0,0:0:0:0:
160,70,9432,6,0,L|71:72,2,90,6|0|0,3:2|0:0|0:0,0:0:0:0:
385,60,9911,1,12,3:2:0:0:
425,75,9991,1,0,0:0:0:0:
432,118,10071,1,2,0:0:0:0:
398,144,10150,1,2,0:0:0:0:
358,166,10230,1,2,0:0:0:0:
346,206,10310,1,2,0:0:0:0:
379,231,10390,1,8,3:2:0:0:
490,272,10549,1,2,0:0:0:0:
266,268,10709,6,0,L|176:269,1,90,6|0,3:2|0:0,0:0:0:0:
72,236,11028,2,0,L|161:235,1,90,8|0,0:0|0:0,0:0:0:0:
329,217,11347,2,0,L|340:126,1,90,2|2,3:2|0:0,0:0:0:0:
236,144,11666,2,0,L|225:53,1,90,8|2,0:0|0:0,0:0:0:0:
391,52,11985,6,0,L|483:53,2,90,0|2|8,3:2|0:0|0:0,0:0:0:0:
225,54,12464,2,0,L|235:143,1,90,2|0,3:2|0:0,0:0:0:0:
338,147,12783,1,2,3:2:0:0:
235,143,12943,2,0,L|143:141,1,90,8|2,0:0|0:0,0:0:0:0:
145,141,13182,1,2,0:0:0:0:
302,280,13262,6,0,L|397:280,1,90,2|2,3:2|0:0,0:0:0:0:
288,234,13581,2,0,L|285:142,1,90,8|0,0:0|0:0,0:0:0:0:
389,157,13900,2,0,L|392:65,1,90,2|2,3:2|0:0,0:0:0:0:
288,60,14220,2,0,L|194:58,1,90,8|0,0:0|0:0,0:0:0:0:
364,230,14539,6,0,L|458:229,1,90,2|2,3:2|0:0,0:0:0:0:
318,192,14858,1,0,3:2:0:0:
454,168,15017,1,12,0:0:0:0:
228,106,15177,2,0,L|176:107,1,45,2|2,3:2|0:0,0:0:0:0:
228,107,15337,2,0,L|276:108,1,45,2|2,0:0|0:0,0:0:0:0:
421,147,15496,1,8,3:2:0:0:
456,120,15576,1,2,0:0:0:0:
456,77,15656,1,2,0:0:0:0:
422,50,15735,1,2,0:0:0:0:
264,76,15815,6,0,P|134:148|260:227,2,360,6|0|0,3:2|3:2|3:2,0:0:0:0:
277,276,17730,2,0,L|324:278,2,45,8|8|2,3:2|0:0|0:0,0:0:0:0:
111,192,18049,2,0,L|60:196,2,45,8|2|2,3:2|0:0|0:0,0:0:0:0:
337,184,18368,6,0,L|428:182,1,90,6|0,3:2|0:0,0:0:0:0:
323,107,18688,2,0,L|317:197,1,90,8|0,3:2|0:0,0:0:0:0:
421,257,19007,1,2,3:2:0:0:
318,265,19166,2,0,L|314:169,1,90,0|8,3:2|0:0,0:0:0:0:
481,70,19485,6,0,L|388:70,1,90,0|2,3:2|0:0,0:0:0:0:
287,74,19805,2,0,L|288:168,1,90,0|8,3:2|0:0,0:0:0:0:
392,191,20124,2,0,L|301:192,1,90,0|2,3:2|0:0,0:0:0:0:
199,247,20443,2,0,L|292:245,1,90,0|8,3:2|0:0,0:0:0:0:
124,257,20762,6,0,L|127:165,1,90,0|2,3:2|0:0,0:0:0:0:
232,161,21081,2,0,L|235:69,1,90,0|8,3:2|0:0,0:0:0:0:
131,72,21400,2,0,L|222:73,1,90,0|2,3:2|0:0,0:0:0:0:
325,270,21720,2,0,L|235:271,1,90,0|8,3:2|3:2,0:0:0:0:
461,270,22039,6,0,P|510:240|453:159,1,180,0|0,3:2|3:2,0:0:0:0:
351,188,22517,2,0,L|355:94,1,90,8|0,3:2|0:0,0:0:0:0:
459,57,22837,2,0,L|367:52,1,90,2|0,3:2|3:2,0:0:0:0:
265,93,23156,2,0,L|356:98,1,90,8|0,0:0|3:2,0:0:0:0:
128,284,23475,6,0,L|38:279,1,90,6|0,3:2|0:0,0:0:0:0:
143,257,23794,2,0,L|234:256,1,90,8|0,3:2|0:0,0:0:0:0:
128,198,24113,1,2,3:2:0:0:
231,192,24273,2,0,L|233:102,1,90,0|8,3:2|0:0,0:0:0:0:
67,43,24592,6,0,L|66:133,1,90,0|2,3:2|0:0,0:0:0:0:
170,142,24911,2,0,L|267:139,1,90,0|8,3:2|0:0,0:0:0:0:
155,273,25230,2,0,L|65:274,2,90,0|2|0,3:2|0:0|3:2,0:0:0:0:
291,275,25709,2,0,L|386:274,1,90,8|0,0:0|3:2,0:0:0:0:
155,210,26028,6,0,P|77:119|179:57,1,270,6|2,0:0|0:0,0:0:0:0:
131,54,26587,1,0,0:0:0:0:
89,69,26666,1,2,3:2:0:0:
63,106,26746,1,0,0:0:0:0:
66,150,26826,1,2,3:2:0:0:
93,185,26906,1,0,0:0:0:0:
253,164,26985,2,0,L|297:164,1,45,2|2,3:2|0:0,0:0:0:0:
252,166,27145,2,0,L|203:166,1,45,2|2,3:2|0:0,0:0:0:0:
368,167,27305,5,6,3:2:0:0:
458,256,27464,2,0,L|455:166,1,90,2|0,3:2|0:0,0:0:0:0:
229,266,27783,1,2,3:2:0:0:
454,258,27943,1,8,0:0:0:0:
489,230,28023,1,2,0:0:0:0:
492,187,28103,1,2,3:2:0:0:
461,156,28182,1,2,0:0:0:0:
418,157,28262,2,0,L|329:156,1,90,2|0,3:2|0:0,0:0:0:0:
101,250,28581,6,0,L|194:249,1,90,6|0,3:2|3:2,0:0:0:0:
295,245,28900,2,0,L|201:246,1,90,8|0,3:2|0:0,0:0:0:0:
101,190,29220,2,0,L|194:190,2,90,2|2|8,3:2|3:2|0:0,0:0:0:0:
328,180,29698,6,0,L|235:176,1,90,0|2,3:2|0:0,0:0:0:0:
342,123,30017,1,0,3:2:0:0:
238,175,30177,2,0,L|236:82,1,90,8|0,3:2|0:0,0:0:0:0:
342,123,30496,1,2,3:2:0:0:
238,175,30656,2,0,L|143:171,1,90,2|8,3:2|0:0,0:0:0:0:
378,187,30975,6,0,L|476:192,2,90,0|2|0,3:2|0:0|3:2,0:0:0:0:
274,187,31454,2,0,L|280:93,1,90,8|0,3:2|0:0,0:0:0:0:
383,90,31773,1,2,3:2:0:0:
277,276,31932,2,0,L|273:184,1,90,2|8,3:2|0:0,0:0:0:0:
439,275,32251,6,0,P|463:219|374:161,1,180,0|0,3:2|3:2,0:0:0:0:
278,196,32730,2,0,L|374:200,1,90,8|0,3:2|0:0,0:0:0:0:
141,255,33049,2,0,P|96:216|140:175,1,135,6|0,3:2|0:0,0:0:0:0:
297,174,33368,2,0,P|342:134|298:93,1,135,6|0,3:2|0:0,0:0:0:0:
138,90,33688,6,0,L|41:93,2,90,6|0|8,3:2|3:2|3:2,0:0:0:0:
228,88,34166,1,0,0:0:0:0:
124,90,34326,2,0,L|119:180,1,90,2|2,3:2|3:2,0:0:0:0:
224,224,34645,1,8,0:0:0:0:
450,292,34805,6,0,P|477:213|404:176,1,180,0|0,3:2|3:2,0:0:0:0:
300,193,35283,2,0,L|391:186,1,90,8|0,3:2|3:2,0:0:0:0:
285,153,35603,1,2,3:2:0:0:
389,186,35762,2,0,L|385:93,1,90,2|8,3:2|0:0,0:0:0:0:
281,75,36081,1,0,3:2:0:0:
57,69,36241,6,0,P|10:184|118:243,1,270,6|2,0:0|0:0,0:0:0:0:
171,232,36799,1,0,0:0:0:0:
129,215,36879,1,2,3:2:0:0:
105,176,36959,1,0,0:0:0:0:
104,130,37039,1,2,3:2:0:0:
135,97,37118,1,0,0:0:0:0:
281,83,37198,1,2,3:2:0:0:
316,107,37278,1,0,0:0:0:0:
317,150,37358,1,2,3:2:0:0:
282,176,37438,1,0,0:0:0:0:
124,228,37517,5,8,3:2:0:0:
34,236,37677,2,0,L|29:145,1,90,10|0,3:2|0:0,0:0:0:0:
256,216,37997,1,8,3:2:0:0:
33,238,38147,1,8,3:2:0:0:
2,269,38225,1,2,0:0:0:0:
6,313,38304,1,2,0:0:0:0:
41,339,38382,1,2,0:0:0:0:
200,336,38461,1,2,3:2:0:0:
230,304,38539,1,2,0:0:0:0:
226,260,38618,1,2,0:0:0:0:
191,234,38696,1,2,0:0:0:0:
133,230,38775,5,2,3:2:0:0:
299,167,38975,1,12,3:2:0:0:
68,169,39145,2,0,L|67:72,1,90,12|0,3:2|0:0,0:0:0:0:
291,70,39455,1,12,3:2:0:0:
66,79,39610,2,0,L|159:75,1,90,12|0,3:2|0:0,0:0:0:0:
384,118,39921,5,8,3:2:0:0:
113,290,40257,1,8,3:2:0:0:
383,297,40575,1,8,3:2:0:0:
113,290,40894,2,0,L|100:200,1,90,8|0,3:2|0:0,0:0:0:0:
192,173,41214,1,0,3:2:0:0:
418,169,41373,6,0,L|423:117,1,45,6|0,0:0|0:0,0:0:0:0:
379,119,41526,2,0,L|332:121,1,45,2|2,0:0|0:0,0:0:0:0:
278,118,41680,2,0,L|275:67,1,45,2|0,3:2|0:0,0:0:0:0:
436,236,41834,5,6,3:2:0:0:
477,220,41911,1,0,0:0:0:0:
495,180,41988,1,2,0:0:0:0:
481,139,42066,1,2,0:0:0:0:
441,120,42145,2,0,L|396:119,1,45,2|0,3:2|0:0,0:0:0:0:
248,178,42302,2,0,L|201:181,1,45,6|0,3:2|0:0,0:0:0:0:
208,207,42459,2,0,L|255:202,1,45,2|2,0:0|0:0,0:0:0:0:
94,322,42616,5,6,3:2:0:0:
57,297,42695,1,0,0:0:0:0:
50,254,42774,1,2,0:0:0:0:
77,220,42854,1,2,0:0:0:0:
223,223,42933,1,2,3:2:0:0:
259,198,43014,1,2,0:0:0:0:
266,155,43096,1,2,0:0:0:0:
239,121,43178,1,2,0:0:0:0:
92,112,43260,6,0,L|44:120,1,45,2|2,3:2|0:0,0:0:0:0:
92,112,43419,2,0,L|137:105,1,45,2|2,0:0|0:0,0:0:0:0:
297,94,43579,2,0,L|343:101,1,45,2|2,3:2|0:0,0:0:0:0:
182,255,43738,2,0,L|136:248,1,45,2|2,3:2|0:0,0:0:0:0:
323,209,43896,6,0,L|414:205,1,90,6|0,3:2|0:0,0:0:0:0:
276,133,44215,2,0,L|187:129,1,90,8|0,3:2|0:0,0:0:0:0:
352,135,44534,2,0,L|359:43,1,90,2|2,3:2|0:0,0:0:0:0:
222,35,44853,1,8,3:2:0:0:
447,50,45013,6,0,L|454:141,1,90,2|0,3:2|0:0,0:0:0:0:
318,186,45332,1,2,3:2:0:0:
454,140,45491,1,8,3:2:0:0:
289,184,45651,2,0,L|197:174,1,90,0|2,3:2|0:0,0:0:0:0:
86,157,45970,1,2,0:0:0:0:
252,143,46130,2,0,L|155:137,1,90,8|0,3:2|0:0,0:0:0:0:
388,151,46449,5,2,3:2:0:0:
298,198,46608,1,2,3:2:0:0:
52,206,46768,1,8,3:2:0:0:
142,146,46927,1,0,0:0:0:0:
366,79,47087,1,2,3:2:0:0:
227,80,47247,1,2,3:2:0:0:
451,245,47406,1,8,3:2:0:0:
337,252,47566,1,0,0:0:0:0:
101,302,47725,6,0,L|95:212,1,90,2|2,3:2|0:0,0:0:0:0:
233,202,48044,2,0,L|239:112,1,90,8|2,3:2|0:0,0:0:0:0:
103,89,48364,1,0,3:2:0:0:
239,111,48523,1,2,3:2:0:0:
103,89,48683,2,0,L|10:100,1,90,8|0,0:0|0:0,0:0:0:0:
242,196,49002,6,0,L|337:199,2,90,6|2|8,3:2|0:0|3:2,0:0:0:0:
129,189,49481,1,0,0:0:0:0:
294,198,49640,2,0,L|302:104,1,90,2|2,3:2|0:0,0:0:0:0:
188,85,49959,1,8,3:2:0:0:
412,64,50119,6,0,L|320:60,1,90,0|2,3:2|0:0,0:0:0:0:
185,114,50438,2,0,L|189:204,1,90,2|8,3:2|0:0,0:0:0:0:
326,237,50757,2,0,L|420:236,1,90,2|0,3:2|0:0,0:0:0:0:
280,304,51076,2,0,L|191:305,2,90,2|8|0,3:2|0:0|3:2,0:0:0:0:
56,254,51555,6,0,L|52:164,1,90,2|2,0:0|3:2,0:0:0:0:
188,135,51874,2,0,L|284:140,2,90,8|0|2,0:0|3:2|0:0,0:0:0:0:
75,130,52353,1,2,3:2:0:0:
301,221,52513,2,0,L|306:130,1,90,12|0,0:0|3:2,0:0:0:0:
81,248,52832,6,0,L|35:245,1,45,2|0,3:2|0:0,0:0:0:0:
81,248,52989,2,0,L|128:251,1,45,2|0,0:0|0:0,0:0:0:0:
285,293,53147,2,0,L|331:290,1,45,2|0,3:2|0:0,0:0:0:0:
285,293,53308,2,0,L|238:296,1,45,2|2,0:0|0:0,0:0:0:0:
82,248,53469,5,2,3:2:0:0:
44,226,53547,1,0,0:0:0:0:
40,182,53626,1,2,3:2:0:0:
72,154,53705,1,0,0:0:0:0:
231,132,53784,2,0,L|277:126,1,45,2|2,3:2|0:0,0:0:0:0:
115,84,53947,2,0,L|69:77,1,45,2|2,3:2|0:0,0:0:0:0:
254,67,54110,6,0,L|345:75,1,90,6|0,3:2|0:0,0:0:0:0:
208,131,54429,2,0,L|202:220,1,90,8|0,3:2|0:0,0:0:0:0:
337,272,54748,2,0,L|343:183,1,90,2|2,3:2|0:0,0:0:0:0:
208,131,55067,1,8,3:2:0:0:
434,124,55227,6,0,L|345:112,1,90,0|2,3:2|0:0,0:0:0:0:
208,96,55546,1,2,0:0:0:0:
369,117,55705,2,0,L|361:208,1,90,8|2,3:2|3:2,0:0:0:0:
226,217,56024,1,0,0:0:0:0:
360,207,56184,1,2,0:0:0:0:
194,220,56344,2,0,L|184:131,1,90,8|0,3:2|0:0,0:0:0:0:
410,197,56663,6,0,L|499:190,1,90,2|2,3:2|3:2,0:0:0:0:
272,132,56980,1,8,3:2:0:0:
384,125,57139,1,0,0:0:0:0:
157,90,57299,1,2,3:2:0:0:
270,61,57458,1,2,3:2:0:0:
493,221,57618,1,8,3:2:0:0:
380,241,57777,1,0,0:0:0:0:
156,267,57937,5,2,3:2:0:0:
291,264,58096,1,2,3:2:0:0:
156,267,58256,1,8,3:2:0:0:
381,228,58415,2,0,L|376:131,1,90,2|0,3:2|0:0,0:0:0:0:
239,113,58734,1,2,3:2:0:0:
405,62,58894,2,0,L|314:60,1,90,8|2,3:2|0:0,0:0:0:0:
270,58,59133,1,2,0:0:0:0:
111,62,59213,6,0,L|114:154,1,90,6|0,3:2|0:0,0:0:0:0:
251,270,59532,2,0,L|254:178,1,90,8|0,3:2|0:0,0:0:0:0:
115,152,59851,2,0,L|24:160,1,90,2|2,3:2|0:0,0:0:0:0:
163,227,60171,2,0,L|70:237,1,90,8|0,3:2|0:0,0:0:0:0:
301,240,60490,6,0,L|393:234,1,90,2|2,3:2|0:0,0:0:0:0:
255,177,60809,2,0,L|249:87,1,90,8|0,3:2|0:0,0:0:0:0:
384,36,61128,2,0,L|390:126,1,90,2|2,3:2|0:0,0:0:0:0:
255,175,61447,2,0,L|347:164,1,90,8|0,3:2|0:0,0:0:0:0:
116,230,61766,6,0,L|25:226,1,90,6|2,3:2|0:0,0:0:0:0:
161,170,62085,2,0,L|69:166,1,90,8|0,3:2|0:0,0:0:0:0:
208,233,62405,2,0,L|299:230,1,90,2|2,3:2|0:0,0:0:0:0:
71,85,62724,2,0,L|75:174,1,90,12|0,3:2|0:0,0:0:0:0:
297,229,63043,6,0,L|386:214,1,90,6|2,3:2|0:0,0:0:0:0:
342,203,63282,1,2,0:0:0:0:
184,196,63362,1,8,3:2:0:0:
148,171,63441,1,0,0:0:0:0:
145,127,63521,1,2,0:0:0:0:
176,98,63601,1,0,0:0:0:0:
335,82,63680,6,0,L|383:84,1,45,8|0,3:2|0:0,0:0:0:0:
335,82,63840,2,0,L|284:79,1,45,2|2,0:0|0:0,0:0:0:0:
132,224,63999,2,0,L|84:226,1,45,2|0,0:0|0:0,0:0:0:0:
84,270,64158,2,0,L|135:267,1,45,2|0,0:0|0:0,0:0:0:0:
310,299,64318,6,0,L|313:203,1,90,6|0,3:2|0:0,0:0:0:0:
223,185,64637,1,8,3:2:0:0:
336,214,64796,1,0,0:0:0:0:
170,225,64956,2,0,L|166:135,1,90,2|2,3:2|0:0,0:0:0:0:
256,99,65275,1,8,0:0:0:0:
32,63,65435,6,0,L|37:154,1,90,0|2,3:2|0:0,0:0:0:0:
172,131,65754,2,0,L|263:125,2,90,2|8|2,3:2|0:0|3:2,0:0:0:0:
276,199,66232,2,0,L|271:107,1,90,0|2,3:2|0:0,0:0:0:0:
105,267,66552,2,0,L|195:260,1,90,8|0,3:2|0:0,0:0:0:0:
420,254,66871,6,0,L|327:250,1,90,2|0,3:2|0:0,0:0:0:0:
238,189,67190,1,8,3:2:0:0:
353,170,67349,1,0,0:0:0:0:
188,207,67509,2,0,L|181:117,1,90,2|2,3:2|0:0,0:0:0:0:
272,109,67828,1,8,0:0:0:0:
45,54,67988,6,0,L|136:46,1,90,0|2,3:2|0:0,0:0:0:0:
270,99,68307,2,0,L|179:96,1,90,2|8,3:2|0:0,0:0:0:0:
89,163,68626,1,2,3:2:0:0:
193,258,68786,2,0,L|102:256,1,90,0|2,3:2|0:0,0:0:0:0:
103,256,69025,1,2,0:0:0:0:
261,232,69105,2,0,L|351:233,1,90,8|2,3:2|0:0,0:0:0:0:
397,234,69344,1,2,0:0:0:0:
239,184,69424,6,0,L|148:184,1,90,6|0,3:2|0:0,0:0:0:0:
239,121,69743,1,8,3:2:0:0:
126,105,69903,1,0,0:0:0:0:
292,130,70062,2,0,L|285:40,1,90,2|2,3:2|0:0,0:0:0:0:
195,36,70381,1,8,0:0:0:0:
421,165,70541,6,0,L|510:157,1,90,0|2,3:2|0:0,0:0:0:0:
375,241,70860,2,0,L|277:231,1,90,2|8,3:2|0:0,0:0:0:0:
389,193,71179,2,0,L|392:101,1,90,2|0,3:2|3:2,0:0:0:0:
302,99,71498,1,2,0:0:0:0:
136,76,71658,2,0,L|41:84,1,90,8|0,3:2|0:0,0:0:0:0:
272,178,71977,6,0,L|280:270,1,90,6|2,3:2|0:0,0:0:0:0:
190,267,72296,1,2,0:0:0:0:
417,174,72456,2,0,L|425:82,1,90,12|2,3:2|0:0,0:0:0:0:
335,85,72775,1,2,0:0:0:0:
111,166,72935,6,0,L|17:171,2,90,12|2|2,3:2|0:0|0:0,0:0:0:0:
336,219,73413,2,0,L|430:224,2,90,12|2|2,3:2|0:0|0:0,0:0:0:0:
110,288,73892,1,12,3:2:0:0:
81,254,73972,1,0,0:0:0:0:
90,212,74052,1,2,0:0:0:0:
128,191,74131,1,0,0:0:0:0:
288,189,74211,1,8,3:2:0:0:
316,155,74291,1,2,0:0:0:0:
307,113,74371,1,2,0:0:0:0:
269,92,74450,1,2,0:0:0:0:
99,89,74530,6,0,P|10:270|195:348,1,450,6|2,3:2|0:0,0:0:0:0:
361,284,75488,2,0,L|355:194,1,90,8|0,0:0|0:0,0:0:0:0:
116,192,75821,6,0,L|26:186,1,90,6|0,3:2|0:0,0:0:0:0:
130,119,76178,2,0,L|223:122,1,90,0|0,0:2|0:2,0:0:0:0:
324,126,76466,1,8,0:0:0:0:
159,117,76619,2,0,L|163:206,1,90,2|0,3:2|0:0,0:0:0:0:
328,261,76927,6,0,L|376:263,2,45,2|0|0,3:2|0:0|0:0,0:0:0:0:
102,299,77244,2,0,L|99:208,1,90,8|0,3:2|0:0,0:0:0:0:
204,178,77572,1,2,3:2:0:0:
100,142,77736,2,0,L|189:133,1,90,8|0,3:2|0:0,0:0:0:0:
86,83,78064,2,0,L|178:73,1,90,2|0,3:2|0:0,0:0:0:0:
401,163,78378,6,0,L|407:253,1,90,6|0,3:2|0:0,0:0:0:0:
303,275,78697,2,0,L|211:268,1,90,0|0,3:2|0:0,0:0:0:0:
318,198,79016,1,8,0:0:0:0:
152,194,79175,2,0,L|149:105,1,90,2|0,3:2|0:0,0:0:0:0:
315,82,79495,6,0,L|222:78,1,90,8|0,3:2|0:0,0:0:0:0:
330,143,79814,2,0,L|238:139,1,90,8|0,3:2|0:0,0:0:0:0:
137,135,80133,1,2,3:2:0:0:
362,272,80292,2,0,L|411:268,1,45,8|0,3:2|0:0,0:0:0:0:
362,272,80452,2,0,L|318:269,1,45,2|0,3:2|0:0,0:0:0:0:
373,272,80612,2,0,P|412:221|377:168,1,135,2|2,3:2|0:0,0:0:0:0:
220,187,80931,6,0,L|126:176,1,90,6|2,3:2|0:0,0:0:0:0:
234,106,81250,2,0,L|327:113,1,90,8|0,3:2|0:0,0:0:0:0:
180,167,81547,2,0,L|170:256,1,90,8|2,3:2|0:0,0:0:0:0:
265,259,81884,1,0,0:0:0:0:
39,292,82044,6,0,L|35:201,1,90,8|0,3:2|0:0,0:0:0:0:
140,189,82366,2,0,L|144:98,1,90,8|0,3:2|0:0,0:0:0:0:
40,77,82685,1,2,0:2:0:0:
205,112,82845,2,0,L|296:120,1,90,8|0,3:2|3:2,0:0:0:0:
191,191,83165,2,0,L|101:184,1,90,2|0,3:2|0:0,0:0:0:0:
329,264,83480,6,0,L|424:273,2,90,12|2|2,3:2|0:0|0:0,0:0:0:0:
103,272,83943,2,0,L|8:281,1,90,12|2,3:2|0:0,0:0:0:0:
103,272,84272,1,2,0:0:0:0:
335,195,84446,6,0,L|434:203,2,90,12|2|2,3:2|0:0|0:0,0:0:0:0:
111,190,84916,1,12,3:2:0:0:
215,193,85079,2,0,L|262:194,1,45,2|2,0:0|0:0,0:0:0:0:
215,193,85238,2,0,L|164:192,1,45,2|0,0:0|0:0,0:0:0:0:
316,198,85398,5,2,0:0:0:0:
344,163,85476,1,2,0:0:0:0:
335,118,85554,1,2,0:0:0:0:
294,98,85632,1,0,0:0:0:0:
147,186,85710,1,2,0:0:0:0:
114,214,85790,1,2,0:0:0:0:
116,258,85870,1,2,0:0:0:0:
151,283,85950,1,2,0:0:0:0:
309,287,86030,6,0,L|406:289,2,90,2|2|2,3:2|3:2|3:2,0:0:0:0:
194,201,86500,1,2,0:0:0:0:
360,162,86656,1,2,3:2:0:0:
471,150,86813,1,2,3:2:0:0:
360,162,86970,1,2,0:0:0:0:
134,130,87126,5,6,3:2:0:0:
256,192,87283,12,0,89456,0:0:0:0:
