osu file format v14

[General]
AudioFilename: audio.mp3
AudioLeadIn: 0
PreviewTime: 43320
Countdown: 0
SampleSet: Soft
StackLeniency: 0.7
Mode: 2
LetterboxInBreaks: 0
WidescreenStoryboard: 1

[Editor]
Bookmarks: 5581,18347,37496,87123,89357
DistanceSpacing: 1
BeatDivisor: 4
GridSize: 8
TimelineZoom: 3.699998

[Metadata]
Title:BRAVER (TV Size)
TitleUnicode:BRAVER (TV Size)
Artist:ZAQ
ArtistUnicode:ZAQ
Creator:Nakano Ichika
Version:PLATTER
Source:食戟のソーマ 餐ノ皿
Tags:Shokugeki no Sōma San no Sara Soma Souma The Third Plate Gourmet Food Wars! 附田 祐斗 Tsukuda Yuuto 幸平 創真 Yukihira 薙切 えりな Nakiri Erina 愛里寿 Arisu Alice 水戸 郁魅 Mito Ikumi タクミ・アルディーニ Takumi Arudīni Aldini アルディーニ Isami 田所 恵 Tadokoro Megumi asuna female vocal op opening theme anime japanese rock jrock j-rock
BeatmapID:3411175
BeatmapSetID:1653206

[Difficulty]
HPDrainRate:4
CircleSize:3.5
OverallDifficulty:8
ApproachRate:8
SliderMultiplier:1.6
SliderTickRate:1

[Events]
//Background and Video events
0,0,"bg.jpg",0,0
//Break Periods
//Storyboard Layer 0 (Background)
//Storyboard Layer 1 (Fail)
//Storyboard Layer 2 (Pass)
//Storyboard Layer 3 (Foreground)
//Storyboard Layer 4 (Overlay)
//Storyboard Sound Samples

[TimingPoints]
514,319.148936170213,4,2,1,50,1,0
982,319.148936170213,4,2,1,50,1,0
1461,322.580645161291,4,2,1,50,1,0
1785,306.122448979592,4,2,1,50,1,0
1938,309.278350515464,4,2,1,50,1,0
2092,310.880829015544,4,2,1,50,1,0
2402,322.580645161291,4,2,1,50,1,0
2724,326.086956521739,4,2,1,50,1,0
3050,319.148936170213,4,2,1,50,1,0
3521,319.148936170213,4,2,1,50,1,0
3688,307.692307692308,4,2,1,50,1,0
3995,319.148936170213,4,2,1,50,1,0
4314,-100,4,2,1,40,0,0
4473,-100,4,2,1,50,0,0
4633,-100,4,2,1,55,0,0
4952,314.136125654451,4,2,1,55,1,0
5266,326.530612244898,4,2,1,55,1,0
5581,-100,4,2,1,70,0,0
5603,319.148936170213,4,2,1,70,1,0
18359,-100,4,2,1,75,0,0
38147,314.136125654451,4,2,1,75,1,0
38775,400,4,2,1,75,1,0
38986,319.148936170213,4,2,1,75,1,0
39145,310.880829015544,4,2,1,75,1,0
39455,310.880829015544,4,2,1,75,1,0
39921,360.360360360361,4,2,1,75,1,0
40097,319.148936170213,4,2,1,75,1,0
41373,307.692307692308,4,2,1,75,1,0
41988,314.136125654451,4,2,1,75,1,0
42616,317.460317460318,4,2,1,75,1,0
42933,327.868852459017,4,2,1,75,1,0
43260,319.148936170213,4,2,1,75,1,0
43896,319.148936170213,4,2,1,75,1,1
52832,315.789473684211,4,2,1,85,1,1
53147,322.580645161291,4,2,1,85,1,1
53469,315.789473684211,4,2,1,85,1,1
53784,326.530612244898,4,2,1,85,1,1
54028,-100,4,2,1,85,0,0
54110,319.148936170213,4,2,1,85,1,0
54110,-100,4,2,1,85,0,1
56663,317.460317460318,4,2,1,85,1,1
56980,319.148936170213,4,2,1,85,1,1
57937,319.148936170213,4,2,1,85,1,1
63362,318.725099601594,4,2,1,85,1,1
64318,319.148936170213,4,2,1,75,1,0
75488,333.333333333334,4,2,1,65,1,0
75821,357.142857142858,4,2,1,65,1,0
76178,288.461538461539,4,2,1,65,1,0
76466,307.692307692308,4,2,1,65,1,0
77081,327.868852459017,4,2,1,65,1,0
78064,310.880829015544,4,2,1,65,1,0
78378,319.148936170213,4,2,1,65,1,0
81250,297.029702970297,4,2,1,65,1,0
81547,337.078651685393,4,2,1,65,1,0
81884,321.71581769437,4,2,1,65,1,0
82207,319.148936170213,4,2,1,65,1,0
83165,315.789473684211,4,2,1,65,1,0
83480,309.278350515464,4,2,1,65,1,0
84098,348.837209302326,4,2,1,65,1,0
84446,307.692307692308,4,2,1,65,1,0
84753,326.086956521739,4,2,1,65,1,0
85079,319.148936170213,4,2,1,65,1,0
85398,312.5,4,2,1,65,1,0
85710,320.855614973262,4,2,1,65,1,0
86028,-100,4,2,1,50,0,0
86030,313.315926892951,4,2,1,50,1,0
88351,315.789473684211,4,2,1,50,1,0
88690,-100,4,2,1,30,0,0
89006,-100,4,2,1,25,0,0
89164,-100,4,2,1,15,0,0
89322,-100,4,2,1,5,0,0

[Colours]
Combo1 : 0,128,192
Combo2 : 255,34,34
Combo3 : 255,149,43

[HitObjects]
230,304,514,5,8,3:2:0:0:
309,297,673,2,0,L|310:216,1,80,8|0,3:2|0:0,0:0:0:0:
229,207,982,1,8,3:2:0:0:
389,152,1142,5,8,3:2:0:0:
424,139,1222,1,0,0:0:0:0:
427,101,1301,1,2,0:0:0:0:
394,82,1381,1,2,0:0:0:0:
356,86,1461,2,0,L|270:85,1,80,2|8,0:0|0:0,0:0:0:0:
113,173,1938,6,0,L|197:173,1,80,8|2,0:0|0:0,0:0:0:0:
193,173,2169,1,8,0:0:0:0:
193,173,2247,1,2,0:0:0:0:
272,248,2402,5,8,0:0:0:0:
193,253,2563,2,0,L|148:256,1,40,2|2,0:0|0:0,0:0:0:0:
112,258,2724,2,0,L|202:253,1,80,2|8,0:0|0:0,0:0:0:0:
352,243,3050,5,8,3:2:0:0:
277,214,3209,2,0,L|275:131,1,80,8|0,3:2|0:0,0:0:0:0:
351,112,3521,1,8,3:2:0:0:
190,42,3688,1,8,3:2:0:0:
151,39,3764,1,0,0:0:0:0:
129,70,3841,1,2,0:0:0:0:
144,105,3918,1,2,0:0:0:0:
182,110,3995,2,0,L|264:104,1,80,2|8,0:0|0:0,0:0:0:0:
398,104,4473,5,12,0:0:0:0:
237,106,4633,2,0,P|189:158|243:205,1,160,2|8,0:0|0:0,0:0:0:0:
325,206,5109,2,0,B|405:200|405:200|325:206,1,163,2|2,0:0|0:0,0:0:0:0:
84,289,5603,6,0,P|29:240|66:175,1,160,6|8,3:2|0:0,0:0:0:0:
147,169,6081,1,0,0:0:0:0:
307,150,6241,2,0,P|321:223|255:258,1,160,2|8,3:2|0:0,0:0:0:0:
175,140,6720,1,2,0:0:0:0:
416,275,6879,6,0,B|496:277|496:277|413:275,1,160,0|8,3:2|0:0,0:0:0:0:
252,271,7358,2,0,P|221:204|279:158,1,160,2|2,3:2|3:2,0:0:0:0:
359,163,7837,2,0,L|279:157,1,80,8|0,0:0|3:2,0:0:0:0:
120,71,8156,6,0,L|214:78,2,80,2|2|8,3:2|0:0|0:0,0:0:0:0:
362,185,8794,2,0,L|278:178,2,80,2|2|8,3:2|0:0|0:0,0:0:0:0:
78,273,9432,6,0,P|68:202|139:172,1,160,6|0,3:2|0:0,0:0:0:0:
297,180,9911,2,0,B|376:181|376:181|293:180,1,160,12|2,3:2|0:0,0:0:0:0:
254,179,10310,2,0,L|294:179,1,40,2|8,0:0|3:2,0:0:0:0:
376,98,10549,1,2,0:0:0:0:
137,88,10709,6,0,P|85:137|138:185,1,160,6|8,3:2|0:0,0:0:0:0:
219,202,11188,1,0,0:0:0:0:
379,157,11347,2,0,P|421:97|369:45,1,160,2|8,3:2|0:0,0:0:0:0:
289,45,11826,1,2,0:0:0:0:
47,233,11985,6,0,P|53:159|126:140,1,160,0|8,3:2|0:0,0:0:0:0:
287,233,12464,2,0,P|333:199|289:118,1,160,2|2,3:2|3:2,0:0:0:0:
216,129,12943,2,0,L|167:133,2,40,8|0|2,0:0|0:0|0:0,0:0:0:0:
378,97,13262,6,0,L|292:95,2,80,2|2|8,3:2|0:0|0:0,0:0:0:0:
137,16,13900,2,0,L|219:16,2,80,2|2|8,3:2|0:0|0:0,0:0:0:0:
417,148,14539,6,0,L|420:235,1,80,2|2,3:2|0:0,0:0:0:0:
340,237,14858,1,0,3:2:0:0:
179,237,15017,1,12,0:0:0:0:
279,237,15177,2,0,L|326:240,2,40,2|2|2,3:2|0:0|0:0,0:0:0:0:
176,145,15496,2,0,L|130:147,2,40,8|2|2,3:2|0:0|0:0,0:0:0:0:
417,148,15815,5,6,3:2:0:0:
256,192,15975,12,8,18049,3:2:0:0:
312,282,18368,6,0,P|361:227|315:169,1,160,6|8,3:2|3:2,0:0:0:0:
156,171,19007,2,0,L|77:171,1,80,2|0,3:2|3:2,0:0:0:0:
357,65,19485,6,0,L|353:147,1,80,0|2,3:2|0:0,0:0:0:0:
273,153,19805,2,0,L|277:235,1,80,0|8,3:2|0:0,0:0:0:0:
357,256,20124,2,0,L|441:252,1,80,0|2,3:2|0:0,0:0:0:0:
356,187,20443,2,0,L|273:192,1,80,0|8,3:2|0:0,0:0:0:0:
437,143,20762,6,0,P|493:181|448:248,1,160,0|0,3:2|3:2,0:0:0:0:
373,248,21241,1,8,0:0:0:0:
293,249,21400,1,0,3:2:0:0:
132,143,21720,2,0,L|131:63,1,80,0|8,3:2|3:2,0:0:0:0:
293,193,22039,6,0,P|346:146|292:100,1,160,0|0,3:2|3:2,0:0:0:0:
131,104,22517,2,0,L|135:184,1,80,8|0,3:2|0:0,0:0:0:0:
55,182,22837,2,0,L|136:180,1,80,2|0,3:2|3:2,0:0:0:0:
55,182,23156,1,8,0:0:0:0:
456,271,23475,6,0,P|496:211|439:166,1,160,6|8,3:2|3:2,0:0:0:0:
277,116,24113,2,0,L|186:117,1,80,2|0,3:2|3:2,0:0:0:0:
479,52,24592,2,0,L|399:52,1,80,0|2,3:2|0:0,0:0:0:0:
319,50,24911,2,0,L|319:130,1,80,0|8,3:2|0:0,0:0:0:0:
399,131,25230,2,0,L|480:132,1,80,0|2,3:2|0:0,0:0:0:0:
399,50,25549,1,0,3:2:0:0:
478,53,25709,1,8,0:0:0:0:
81,249,26028,6,0,P|4:177|87:112,1,240,6|2,0:0|0:0,0:0:0:0:
128,119,26587,1,0,0:0:0:0:
168,132,26666,1,2,3:2:0:0:
248,149,26826,2,0,L|288:149,2,40,2|0|2,3:2|0:0|3:2,0:0:0:0:
168,259,27145,1,2,3:2:0:0:
409,247,27305,5,6,3:2:0:0:
489,248,27464,1,2,3:2:0:0:
330,250,27783,1,2,3:2:0:0:
168,259,27943,1,8,0:0:0:0:
131,247,28023,1,2,0:0:0:0:
115,211,28103,1,2,3:2:0:0:
132,176,28182,1,2,0:0:0:0:
170,167,28262,2,0,L|251:168,1,80,2|0,3:2|0:0,0:0:0:0:
491,177,28581,6,0,L|496:262,1,80,6|0,3:2|3:2,0:0:0:0:
416,288,28900,2,0,L|337:284,1,80,8|0,3:2|0:0,0:0:0:0:
416,286,29220,2,0,L|420:200,1,80,2|2,3:2|3:2,0:0:0:0:
139,55,29698,6,0,L|302:52,1,160,0|0,3:2|3:2,0:0:0:0:
219,52,30177,2,0,L|138:55,1,80,8|0,3:2|0:0,0:0:0:0:
59,53,30496,2,0,L|145:55,1,80,2|2,3:2|3:2,0:0:0:0:
423,127,30975,2,0,P|481:172|444:236,1,160,0|0,3:2|3:2,0:0:0:0:
364,245,31454,2,0,L|282:256,2,80,8|0|2,3:2|0:0|3:2,0:0:0:0:
444,236,31932,1,2,3:2:0:0:
165,134,32251,6,0,L|18:212,1,160,0|0,3:2|3:2,0:0:0:0:
104,137,32730,1,8,3:2:0:0:
347,154,33049,1,6,3:2:0:0:
106,246,33368,1,6,3:2:0:0:
352,257,33688,6,0,L|432:254,1,80,6|0,3:2|3:2,0:0:0:0:
352,257,34007,2,0,L|271:258,1,80,8|0,3:2|0:0,0:0:0:0:
191,258,34326,2,0,L|106:265,1,80,2|2,3:2|3:2,0:0:0:0:
393,204,34805,6,0,P|408:131|339:97,1,160,0|0,3:2|3:2,0:0:0:0:
261,99,35283,2,0,L|345:97,2,80,8|0|2,3:2|3:2|3:2,0:0:0:0:
101,216,35762,2,0,L|93:132,1,80,2|8,3:2|0:0,0:0:0:0:
174,104,36081,1,0,3:2:0:0:
413,92,36241,6,0,P|489:167|414:245,1,240,6|2,0:0|0:0,0:0:0:0:
373,232,36799,2,0,L|334:218,1,40,0|2,0:0|3:2,0:0:0:0:
255,104,37039,2,0,L|213:108,2,40,2|0|2,3:2|0:0|3:2,0:0:0:0:
335,94,37358,1,2,3:2:0:0:
175,230,37517,5,8,3:2:0:0:
96,229,37677,1,10,3:2:0:0:
96,229,37996,1,8,3:2:0:0:
256,237,38147,1,8,3:2:0:0:
294,233,38225,1,2,0:0:0:0:
318,202,38304,1,2,0:0:0:0:
310,164,38382,1,2,0:0:0:0:
277,144,38461,2,0,L|199:128,1,80,2|2,3:2|0:0,0:0:0:0:
359,150,38775,6,0,L|365:68,1,80,2|12,3:2|3:2,0:0:0:0:
204,62,39145,1,12,3:2:0:0:
204,62,39455,1,12,3:2:0:0:
364,71,39610,1,12,3:2:0:0:
124,250,39921,5,8,3:2:0:0:
282,259,40257,1,8,3:2:0:0:
124,250,40576,1,8,3:2:0:0:
369,278,40895,2,0,L|373:194,1,80,8|0,3:2|0:0,0:0:0:0:
291,145,41214,1,0,3:2:0:0:
129,179,41373,6,0,L|55:138,1,80,6|2,0:0|0:0,0:0:0:0:
59,169,41603,1,2,0:0:0:0:
59,169,41680,1,2,3:2:0:0:
219,106,41834,2,0,L|301:98,1,80,6|2,3:2|0:0,0:0:0:0:
298,98,42067,1,2,0:0:0:0:
298,98,42145,1,2,3:2:0:0:
138,73,42302,2,0,L|55:63,1,80,6|2,3:2|0:0,0:0:0:0:
99,64,42538,1,2,0:0:0:0:
160,58,42616,6,0,P|245:122|175:203,1,242,6|2,3:2|0:0,0:0:0:0:
94,202,43260,2,0,L|258:199,1,160,2|2,3:2|3:2,0:0:0:0:
335,201,43739,1,2,3:2:0:0:
94,203,43896,6,0,L|91:119,1,80,6|0,3:2|0:0,0:0:0:0:
179,117,44215,2,0,L|181:36,1,80,8|0,3:2|0:0,0:0:0:0:
92,33,44534,2,0,L|261:33,1,160,2|8,3:2|3:2,0:0:0:0:
413,97,45013,6,0,P|460:155|418:219,1,160,2|2,3:2|3:2,0:0:0:0:
332,98,45491,1,8,3:2:0:0:
171,103,45651,2,0,L|332:104,1,160,0|2,3:2|0:0,0:0:0:0:
419,103,46130,2,0,L|337:103,1,80,8|0,3:2|0:0,0:0:0:0:
98,295,46449,6,0,L|10:295,1,80,2|2,3:2|3:2,0:0:0:0:
106,294,46768,2,0,L|109:214,1,80,8|0,3:2|0:0,0:0:0:0:
20,214,47087,2,0,L|100:211,2,80,2|2|8,3:2|3:2|3:2,0:0:0:0:
108,214,47566,1,0,0:0:0:0:
349,213,47725,6,0,P|430:208|502:241,2,160,2|8|0,3:2|3:2|3:2,0:0:0:0:
437,216,48523,2,0,P|465:148|403:105,1,160,2|0,3:2|0:0,0:0:0:0:
163,102,49002,6,0,L|76:103,1,80,6|2,3:2|0:0,0:0:0:0:
171,102,49321,2,0,L|255:103,1,80,8|0,3:2|0:0,0:0:0:0:
411,278,49640,2,0,P|458:222|409:168,1,160,2|8,3:2|3:2,0:0:0:0:
247,168,50119,2,0,L|417:169,2,160,0|2|2,3:2|3:2|3:2,0:0:0:0:
422,222,51076,2,0,L|509:221,2,80,2|8|0,3:2|0:0|3:2,0:0:0:0:
183,232,51555,6,0,P|142:171|194:118,1,160,2|8,0:0|0:0,0:0:0:0:
356,82,52034,2,0,P|408:134|367:196,1,160,0|2,3:2|3:2,0:0:0:0:
207,314,52513,2,0,L|124:310,1,80,12|0,0:0|3:2,0:0:0:0:
366,277,52832,5,2,3:2:0:0:
397,253,52910,1,0,0:0:0:0:
402,214,52989,1,2,0:0:0:0:
380,182,53068,1,0,0:0:0:0:
342,174,53147,2,0,L|260:183,1,80,2|2,3:2|0:0,0:0:0:0:
175,198,53469,2,0,L|179:278,1,80,2|2,3:2|3:2,0:0:0:0:
269,314,53784,2,0,L|311:312,2,40,2|2|2,3:2|0:0|3:2,0:0:0:0:
27,313,54110,6,0,L|34:230,1,80,6|0,3:2|0:0,0:0:0:0:
121,231,54429,2,0,L|114:148,1,80,8|0,3:2|0:0,0:0:0:0:
26,155,54748,2,0,L|191:148,1,160,2|8,3:2|3:2,0:0:0:0:
346,148,55227,6,0,P|389:186|343:266,1,160,0|2,3:2|0:0,0:0:0:0:
260,264,55705,1,8,3:2:0:0:
100,264,55865,2,0,L|263:264,1,160,2|2,3:2|0:0,0:0:0:0:
348,265,56344,1,8,3:2:0:0:
185,252,56503,2,0,P|147:190|204:143,1,160,0|2,0:0|3:2,0:0:0:0:
293,144,56980,2,0,L|297:62,1,80,8|0,3:2|0:0,0:0:0:0:
208,69,57299,2,0,L|290:69,1,80,2|2,3:2|3:2,0:0:0:0:
368,70,57618,2,0,L|370:156,1,80,8|0,3:2|0:0,0:0:0:0:
129,203,57937,6,0,L|49:203,2,80,2|2|8,3:2|3:2|3:2,0:0:0:0:
290,205,58415,2,0,P|323:140|258:109,1,160,2|2,3:2|3:2,0:0:0:0:
98,63,58894,2,0,L|189:59,1,80,8|2,3:2|0:0,0:0:0:0:
418,303,59213,6,0,L|501:300,1,80,6|0,3:2|0:0,0:0:0:0:
410,209,59532,2,0,L|324:211,1,80,8|0,3:2|0:0,0:0:0:0:
169,141,59851,2,0,L|249:139,1,80,2|2,3:2|0:0,0:0:0:0:
337,134,60171,2,0,L|334:51,1,80,8|0,3:2|0:0,0:0:0:0:
91,203,60490,6,0,L|5:201,1,80,2|2,3:2|0:0,0:0:0:0:
99,107,60809,2,0,L|182:107,1,80,8|0,3:2|0:0,0:0:0:0:
340,84,61128,2,0,L|344:163,1,80,2|2,3:2|0:0,0:0:0:0:
185,141,61447,2,0,L|102:140,1,80,8|0,3:2|0:0,0:0:0:0:
346,293,61766,6,0,P|388:233|335:182,1,160,6|8,3:2|3:2,0:0:0:0:
248,181,62245,1,0,0:0:0:0:
87,173,62405,2,0,L|253:153,1,160,2|12,3:2|3:2,0:0:0:0:
158,142,62883,1,0,0:0:0:0:
399,142,63043,5,6,3:2:0:0:
431,120,63123,1,0,0:0:0:0:
443,82,63202,1,2,0:0:0:0:
427,46,63282,1,2,0:0:0:0:
392,29,63362,2,0,L|308:26,1,80,8|2,3:2|0:0,0:0:0:0:
152,39,63680,5,8,3:2:0:0:
109,47,63760,1,0,0:0:0:0:
109,91,63840,1,2,0:0:0:0:
148,110,63919,1,2,0:0:0:0:
192,110,63999,2,0,L|111:111,1,80,2|2,0:0|0:0,0:0:0:0:
353,130,64318,6,0,L|363:209,1,80,6|0,3:2|0:0,0:0:0:0:
283,209,64637,2,0,L|198:213,1,80,8|0,3:2|0:0,0:0:0:0:
366,302,64956,2,0,P|410:239|351:211,1,160,2|8,3:2|0:0,0:0:0:0:
194,202,65435,6,0,L|188:120,1,80,0|2,3:2|0:0,0:0:0:0:
268,96,65754,2,0,B|348:96|348:96|265:95,1,160,2|2,3:2|3:2,0:0:0:0:
187,94,66232,2,0,L|267:95,1,80,0|2,3:2|0:0,0:0:0:0:
429,181,66552,2,0,L|422:261,1,80,8|0,3:2|0:0,0:0:0:0:
183,283,66871,6,0,L|96:284,1,80,2|0,3:2|0:0,0:0:0:0:
183,283,67190,2,0,L|266:284,1,80,8|0,3:2|0:0,0:0:0:0:
424,182,67509,2,0,L|259:180,1,160,2|8,3:2|0:0,0:0:0:0:
102,103,67988,6,0,L|104:184,1,80,0|2,3:2|0:0,0:0:0:0:
183,221,68307,2,0,L|351:206,1,160,2|2,3:2|3:2,0:0:0:0:
263,175,68786,2,0,L|267:93,1,80,0|2,3:2|0:0,0:0:0:0:
428,75,69105,2,0,L|345:73,1,80,8|2,3:2|0:0,0:0:0:0:
106,65,69424,6,0,L|22:65,1,80,6|0,3:2|0:0,0:0:0:0:
106,129,69743,2,0,L|188:131,1,80,8|0,3:2|0:0,0:0:0:0:
346,164,70062,2,0,L|184:161,1,160,2|8,3:2|0:0,0:0:0:0:
346,164,70541,6,0,L|349:246,1,80,0|2,3:2|0:0,0:0:0:0:
269,263,70860,2,0,L|108:257,1,160,2|2,3:2|3:2,0:0:0:0:
189,259,71339,2,0,L|197:176,1,80,0|2,3:2|0:0,0:0:0:0:
35,160,71658,2,0,L|43:77,1,80,8|0,3:2|0:0,0:0:0:0:
282,64,71977,6,0,L|282:144,1,80,6|2,3:2|0:0,0:0:0:0:
201,143,72296,1,2,0:0:0:0:
39,184,72456,2,0,L|39:264,1,80,12|2,3:2|0:0,0:0:0:0:
120,263,72775,1,2,0:0:0:0:
280,258,72935,6,0,L|362:258,2,80,12|2|2,3:2|0:0|0:0,0:0:0:0:
119,170,73413,2,0,L|23:173,2,80,12|2|2,3:2|0:0|0:0,0:0:0:0:
281,160,73892,6,0,L|324:161,2,40,12|0|2,3:2|0:0|0:0,0:0:0:0:
119,156,74211,2,0,L|78:158,2,40,8|2|2,3:2|0:0|0:0,0:0:0:0:
379,76,74530,6,0,P|489:215|340:313,1,400,6|2,3:2|0:0,0:0:0:0:
179,277,75488,1,8,0:0:0:0:
419,210,75821,6,0,P|465:164|416:92,1,160,6|0,3:2|0:2,0:0:0:0:
343,93,76322,1,0,0:2:0:0:
184,144,76466,2,0,L|99:146,1,80,8|2,0:0|3:2,0:0:0:0:
264,70,76927,6,0,L|311:75,2,40,2|0|0,3:2|0:0|0:0,0:0:0:0:
103,56,77244,2,0,P|52:107|99:163,1,160,8|2,3:2|3:2,0:0:0:0:
260,241,77736,2,0,L|179:241,1,80,8|0,3:2|0:0,0:0:0:0:
100,241,78064,2,0,L|181:241,1,80,2|0,3:2|0:0,0:0:0:0:
421,241,78378,6,0,P|451:176|389:129,1,160,6|0,3:2|3:2,0:0:0:0:
310,126,78856,1,0,0:0:0:0:
151,115,79016,2,0,L|155:195,1,80,8|2,0:0|3:2,0:0:0:0:
316,260,79495,6,0,L|233:256,1,80,8|0,3:2|0:0,0:0:0:0:
76,269,79814,2,0,L|242:265,1,160,8|2,3:2|3:2,0:0:0:0:
76,185,80292,1,8,3:2:0:0:
38,184,80372,1,0,0:0:0:0:
18,151,80452,1,2,3:2:0:0:
36,117,80532,1,0,0:0:0:0:
74,115,80612,2,0,L|159:113,1,80,2|2,3:2|0:0,0:0:0:0:
396,125,80931,6,0,P|421:192|357:229,1,160,6|8,3:2|3:2,0:0:0:0:
272,220,81398,1,0,0:0:0:0:
427,286,81547,2,0,L|431:206,1,80,8|2,3:2|0:0,0:0:0:0:
189,285,82044,6,0,L|187:205,1,80,8|0,3:2|0:0,0:0:0:0:
347,174,82367,2,0,P|392:118|340:67,1,160,8|2,3:2|0:2,0:0:0:0:
180,54,82846,2,0,L|97:48,1,80,8|0,3:2|3:2,0:0:0:0:
180,54,83165,2,0,L|178:134,1,80,2|0,3:2|0:0,0:0:0:0:
418,273,83480,6,0,L|422:192,1,80,12|2,3:2|0:0,0:0:0:0:
342,175,83789,1,2,0:0:0:0:
182,212,83943,2,0,L|178:131,1,80,12|2,3:2|0:0,0:0:0:0:
258,114,84272,1,2,0:0:0:0:
418,120,84446,6,0,L|497:122,2,80,12|2|2,3:2|0:0|0:0,0:0:0:0:
258,114,84916,2,0,L|176:110,1,80,12|2,3:2|0:0,0:0:0:0:
142,122,85158,1,2,0:0:0:0:
141,160,85238,1,2,0:0:0:0:
176,174,85318,1,0,0:0:0:0:
216,177,85398,6,0,L|298:177,1,80,2|2,0:0|0:0,0:0:0:0:
376,252,85710,2,0,L|375:170,1,80,2|2,0:0|0:0,0:0:0:0:
214,246,86030,6,0,L|127:254,2,80,2|2|2,3:2|3:2|3:2,0:0:0:0:
294,244,86499,1,2,0:0:0:0:
141,160,86656,2,0,L|49:165,2,80,2|2|2,3:2|3:2|0:0,0:0:0:0:
381,159,87126,5,6,3:2:0:0:
256,192,87283,12,0,89456,0:0:0:0:
