osu file format v14

[General]
AudioFilename: audio.mp3
AudioLeadIn: 0
PreviewTime: 56026
Countdown: 0
SampleSet: Normal
StackLeniency: 0.4
Mode: 1
LetterboxInBreaks: 0
WidescreenStoryboard: 0

[Editor]
Bookmarks: 3995,18995,30995,42995,56495,68495,80495,83495,92495
DistanceSpacing: 1
BeatDivisor: 4
GridSize: 32
TimelineZoom: 1.8

[Metadata]
Title:Alteration
TitleUnicode:Alteration
Artist:ZAQ
ArtistUnicode:ZAQ
Creator:Creamy Candy
Version:Roger's Futsuu
Source:ささみさん@がんばらない
Tags:opening op Sasami-san@Ganbaranai Sasami-san@Unmotivated Sasami-san at Ganbaranai - Frontier - shockolatte Roger ][ -GH- ][ Volta [_lost_] conner c_o_n_n_e_r anime japanese
BeatmapID:2194599
BeatmapSetID:1038233

[Difficulty]
HPDrainRate:7
CircleSize:2
OverallDifficulty:3
ApproachRate:0
SliderMultiplier:1.4
SliderTickRate:1

[Events]
//Background and Video events
0,0,"creamycandyispromapper.jpg",0,60
//Break Periods
//Storyboard Layer 0 (Background)
//Storyboard Layer 1 (Fail)
//Storyboard Layer 2 (Pass)
//Storyboard Layer 3 (Foreground)
//Storyboard Layer 4 (Overlay)
//Storyboard Sound Samples

[TimingPoints]
3995,375,4,1,0,80,1,0
3995,-100,4,1,0,80,0,0
4182,-100,4,1,0,60,0,0
9995,-100,4,1,0,65,0,0
15995,-100,4,1,0,70,0,0
18995,-100,4,1,0,80,0,0
30245,-100,4,1,0,30,0,0
30901,-100,4,1,0,60,0,0
30995,-100,4,1,0,70,0,0
42995,-100,4,1,0,75,0,0
54995,-100,4,1,0,40,0,0
56120,-100,4,1,0,75,0,0
56495,-100,4,1,0,80,0,1
68120,-100,4,1,0,80,0,0
68495,-100,4,1,0,80,0,1
80495,-100,4,1,0,60,0,0
80682,-100,4,1,0,40,0,0
83401,-100,4,1,0,60,0,0
83495,-100,4,1,0,70,0,0
86495,-100,4,1,0,80,0,0
88276,-100,4,1,0,50,0,0
89495,-100,4,1,0,40,0,0
90245,-100,4,1,0,30,0,0
90995,-100,4,1,0,20,0,0
91745,-100,4,1,0,10,0,0
92495,-100,4,1,0,5,0,0

[HitObjects]
32,352,3995,5,12,0:0:0:0:
32,352,4745,1,8,0:0:0:0:
32,352,5495,1,0,0:0:0:0:
32,352,5870,1,8,0:0:0:0:
32,352,6245,1,0,0:0:0:0:
32,352,6995,1,8,0:0:0:0:
32,352,7370,1,8,0:0:0:0:
32,352,7745,1,0,0:0:0:0:
32,352,8495,1,8,0:0:0:0:
32,352,8870,1,0,0:0:0:0:
32,352,9245,1,8,0:0:0:0:
32,352,9995,1,4,0:0:0:0:
32,352,10745,1,8,0:0:0:0:
32,352,11120,1,0,0:0:0:0:
32,352,11495,1,8,0:0:0:0:
32,352,11870,1,8,0:0:0:0:
32,352,12245,1,0,0:0:0:0:
32,352,12995,1,12,0:0:0:0:
32,352,13557,1,0,0:0:0:0:
32,352,14120,1,8,0:0:0:0:
32,352,14495,1,0,0:0:0:0:
32,352,15245,1,0,0:0:0:0:
32,352,15620,1,0,0:0:0:0:
32,352,15995,1,8,0:0:0:0:
32,352,16370,1,0,0:0:0:0:
32,352,16745,1,8,0:0:0:0:
32,352,16932,1,0,0:0:0:0:
32,352,17120,1,8,0:0:0:0:
32,352,17495,1,0,0:0:0:0:
32,352,17870,1,8,0:0:0:0:
32,352,18057,1,8,0:0:0:0:
32,352,18245,1,0,0:0:0:0:
32,352,18620,1,8,0:0:0:0:
32,352,18995,1,4,0:0:0:0:
32,352,19745,1,0,0:0:0:0:
32,352,20120,1,8,0:0:0:0:
32,352,20307,1,8,0:0:0:0:
32,352,20495,1,0,0:0:0:0:
32,352,20870,1,8,0:0:0:0:
32,352,21057,1,8,0:0:0:0:
32,352,21620,1,0,0:0:0:0:
32,352,21995,1,8,0:0:0:0:
32,352,22370,1,0,0:0:0:0:
32,352,22557,1,0,0:0:0:0:
32,352,22745,1,8,0:0:0:0:
32,352,23120,1,0,0:0:0:0:
32,352,23495,1,8,0:0:0:0:
32,352,23682,1,0,0:0:0:0:
32,352,23870,1,8,0:0:0:0:
32,352,24245,1,0,0:0:0:0:
32,352,24995,1,0,0:0:0:0:
32,352,25370,1,8,0:0:0:0:
32,352,25557,1,0,0:0:0:0:
32,352,25932,1,0,0:0:0:0:
32,352,26120,1,8,0:0:0:0:
32,352,26495,1,0,0:0:0:0:
32,352,26870,1,8,0:0:0:0:
32,352,27245,1,0,0:0:0:0:
32,352,27432,1,0,0:0:0:0:
32,352,27620,1,8,0:0:0:0:
32,352,27807,1,8,0:0:0:0:
32,352,27995,1,4,0:0:0:0:
32,352,28557,1,8,0:0:0:0:
32,352,28932,1,8,0:0:0:0:
32,352,29495,1,0,0:0:0:0:
32,352,29870,1,12,0:0:0:0:
32,352,30995,1,4,0:0:0:0:
32,352,31370,1,8,0:0:0:0:
32,352,31745,1,0,0:0:0:0:
32,352,32120,1,8,0:0:0:0:
32,352,32870,1,8,0:0:0:0:
32,352,33245,1,0,0:0:0:0:
32,352,33620,1,8,0:0:0:0:
32,352,34370,1,0,0:0:0:0:
32,352,34745,1,8,0:0:0:0:
32,352,35120,1,8,0:0:0:0:
32,352,35495,1,0,0:0:0:0:
32,352,35870,1,8,0:0:0:0:
32,352,36057,1,8,0:0:0:0:
32,352,36245,1,0,0:0:0:0:
32,352,36620,1,8,0:0:0:0:
32,352,37370,1,8,0:0:0:0:
32,352,37745,1,0,0:0:0:0:
32,352,37932,1,8,0:0:0:0:
32,352,38307,1,8,0:0:0:0:
32,352,38495,1,0,0:0:0:0:
32,352,38870,1,0,0:0:0:0:
32,352,39245,1,8,0:0:0:0:
32,352,39995,1,0,0:0:0:0:
32,352,40370,1,8,0:0:0:0:
32,352,40745,1,8,0:0:0:0:
32,352,41120,1,0,0:0:0:0:
32,352,41307,1,0,0:0:0:0:
32,352,41870,1,8,0:0:0:0:
32,352,42057,1,0,0:0:0:0:
32,352,42432,1,8,0:0:0:0:
32,352,42620,1,8,0:0:0:0:
32,352,42995,1,4,0:0:0:0:
32,352,43370,1,8,0:0:0:0:
32,352,43745,1,0,0:0:0:0:
32,352,43932,1,0,0:0:0:0:
32,352,44120,1,8,0:0:0:0:
32,352,44495,1,0,0:0:0:0:
32,352,44870,1,8,0:0:0:0:
32,352,45057,1,8,0:0:0:0:
32,352,45620,1,8,0:0:0:0:
32,352,45995,1,0,0:0:0:0:
32,352,46370,1,8,0:0:0:0:
32,352,46557,1,8,0:0:0:0:
32,352,46745,1,0,0:0:0:0:
32,352,47495,1,0,0:0:0:0:
32,352,47870,1,8,0:0:0:0:
32,352,48057,1,0,0:0:0:0:
32,352,48432,1,8,0:0:0:0:
32,352,48620,1,8,0:0:0:0:
32,352,48995,1,4,0:0:0:0:
32,352,49370,1,8,0:0:0:0:
32,352,49745,1,0,0:0:0:0:
32,352,50120,1,0,0:0:0:0:
32,352,50495,1,8,0:0:0:0:
32,352,50870,1,0,0:0:0:0:
32,352,51057,1,0,0:0:0:0:
32,352,51245,1,8,0:0:0:0:
32,352,51995,1,0,0:0:0:0:
32,352,52370,1,8,0:0:0:0:
32,352,52557,1,0,0:0:0:0:
32,352,53120,1,8,0:0:0:0:
32,352,53495,1,0,0:0:0:0:
32,352,53870,1,8,0:0:0:0:
32,352,54057,1,8,0:0:0:0:
32,352,54245,1,0,0:0:0:0:
32,352,54432,1,0,0:0:0:0:
32,352,54620,1,8,0:0:0:0:
256,192,54995,8,0,56120,0:0:0:0:
32,352,56495,5,12,0:0:0:0:
32,352,56870,1,0,0:0:0:0:
32,352,57057,1,0,0:0:0:0:
32,352,57245,1,8,0:0:0:0:
32,352,57620,1,0,0:0:0:0:
32,352,57995,1,8,0:0:0:0:
32,352,58370,1,8,0:0:0:0:
32,352,58557,1,0,0:0:0:0:
32,352,58745,1,8,0:0:0:0:
32,352,59307,1,0,0:0:0:0:
32,352,59495,1,0,0:0:0:0:
32,352,59870,1,8,0:0:0:0:
32,352,60245,1,0,0:0:0:0:
32,352,60432,1,0,0:0:0:0:
32,352,60620,1,8,0:0:0:0:
32,352,60995,1,8,0:0:0:0:
32,352,61276,1,0,0:0:0:0:
32,352,61557,1,0,0:0:0:0:
32,352,61745,1,8,0:0:0:0:
32,352,62495,1,4,0:0:0:0:
32,352,62870,1,8,0:0:0:0:
32,352,63245,1,0,0:0:0:0:
32,352,63432,1,0,0:0:0:0:
32,352,63620,1,8,0:0:0:0:
32,352,63995,1,0,0:0:0:0:
32,352,64370,1,8,0:0:0:0:
32,352,64557,1,8,0:0:0:0:
32,352,65120,1,0,0:0:0:0:
32,352,65495,1,8,0:0:0:0:
32,352,65870,1,0,0:0:0:0:
32,352,66057,1,0,0:0:0:0:
32,352,66432,1,8,0:0:0:0:
32,352,66807,1,8,0:0:0:0:
32,352,67370,1,0,0:0:0:0:
32,352,67557,1,8,0:0:0:0:
32,352,67745,1,0,0:0:0:0:
32,352,68120,1,8,0:0:0:0:
32,352,68495,1,4,0:0:0:0:
32,352,68870,1,8,0:0:0:0:
32,352,69057,1,0,0:0:0:0:
32,352,69245,1,8,0:0:0:0:
32,352,69620,1,0,0:0:0:0:
32,352,69995,1,8,0:0:0:0:
32,352,70370,1,0,0:0:0:0:
32,352,70557,1,0,0:0:0:0:
32,352,70745,1,8,0:0:0:0:
32,352,71307,1,0,0:0:0:0:
32,352,71495,1,0,0:0:0:0:
32,352,71870,1,8,0:0:0:0:
32,352,72245,1,0,0:0:0:0:
32,352,72432,1,0,0:0:0:0:
32,352,72620,1,8,0:0:0:0:
32,352,72995,1,8,0:0:0:0:
32,352,73276,1,8,0:0:0:0:
32,352,73557,1,8,0:0:0:0:
32,352,73745,1,0,0:0:0:0:
32,352,74495,1,12,0:0:0:0:
32,352,74870,1,0,0:0:0:0:
32,352,75057,1,8,0:0:0:0:
32,352,75432,1,0,0:0:0:0:
32,352,75620,1,0,0:0:0:0:
32,352,75995,1,8,0:0:0:0:
32,352,76370,1,0,0:0:0:0:
32,352,76745,1,8,0:0:0:0:
32,352,76932,1,8,0:0:0:0:
32,352,77495,1,0,0:0:0:0:
32,352,77870,1,8,0:0:0:0:
32,352,78245,1,8,0:0:0:0:
32,352,78432,1,0,0:0:0:0:
32,352,78807,1,8,0:0:0:0:
32,352,78995,1,8,0:0:0:0:
32,352,79370,1,0,0:0:0:0:
32,352,79557,1,8,0:0:0:0:
32,352,79932,1,0,0:0:0:0:
32,352,80120,1,0,0:0:0:0:
32,352,80307,1,8,0:0:0:0:
256,192,80495,8,0,82745,0:0:0:0:
32,352,83495,5,4,0:0:0:0:
32,352,83870,1,8,0:0:0:0:
32,352,84057,1,0,0:0:0:0:
32,352,84432,1,0,0:0:0:0:
32,352,84807,1,8,0:0:0:0:
32,352,85370,1,8,0:0:0:0:
32,352,85745,1,0,0:0:0:0:
32,352,85932,1,8,0:0:0:0:
32,352,86120,1,0,0:0:0:0:
32,352,86495,1,12,0:0:0:0:
32,352,87057,1,4,0:0:0:0:
32,352,87620,1,4,0:0:0:0:
32,352,88182,1,12,0:0:0:0:
256,192,88370,8,4,92495,0:0:0:0:
