osu file format v14

[General]
AudioFilename: audio.mp3
AudioLeadIn: 0
PreviewTime: 56026
Countdown: 0
SampleSet: Soft
StackLeniency: 0.4
Mode: 0
LetterboxInBreaks: 0
WidescreenStoryboard: 0

[Editor]
DistanceSpacing: 1.4
BeatDivisor: 16
GridSize: 32
TimelineZoom: 2.4

[Metadata]
Title:Alteration
TitleUnicode:Alteration
Artist:ZAQ
ArtistUnicode:ZAQ
Creator:Creamy Candy
Version:Frontier's Expert
Source:ささみさん@がんばらない
Tags:opening op Sasami-san@Ganbaranai Sasami-san@Unmotivated Sasami-san at Ganbaranai - Frontier - shockolatte Roger ][ -GH- ][ Volta [_lost_] conner c_o_n_n_e_r anime japanese
BeatmapID:2183892
BeatmapSetID:1038233

[Difficulty]
HPDrainRate:6
CircleSize:3.8
OverallDifficulty:8
ApproachRate:9.3
SliderMultiplier:3.2
SliderTickRate:1

[Events]
//Background and Video events
0,0,"creamycandyispromapper.jpg",0,0
//Break Periods
//Storyboard Layer 0 (Background)
//Storyboard Layer 1 (Fail)
//Storyboard Layer 2 (Pass)
//Storyboard Layer 3 (Foreground)
//Storyboard Layer 4 (Overlay)
//Storyboard Sound Samples

[TimingPoints]
3995,375,4,2,1,55,1,0
3995,-133.333333333333,4,2,1,55,0,0
4088,-100,4,2,1,55,0,0
6245,-66.6666666666667,4,2,1,55,0,0
6995,-200,4,2,1,55,0,0
8495,-114.285714285714,4,2,1,55,0,0
9245,-61.5384615384615,4,2,1,55,0,0
9995,-133.333333333333,4,2,1,55,0,0
10745,-100,4,2,1,55,0,0
12245,-133.333333333333,4,2,1,55,0,0
12995,-113.636363636364,4,2,100,55,0,0
13088,-113.636363636364,4,2,1,55,0,0
13557,-57.1428571428571,4,2,1,55,0,0
14495,-100,4,2,2,55,0,0
15245,-133.333333333333,4,2,2,55,0,0
17495,-133.333333333333,4,2,2,40,0,0
17870,-133.333333333333,4,2,2,45,0,0
18245,-133.333333333333,4,2,2,50,0,0
18620,-133.333333333333,4,2,1,55,0,0
18995,-133.333333333333,4,2,100,55,0,0
19088,-133.333333333333,4,2,1,65,0,0
27995,-100,4,2,1,65,0,0
28557,-50,4,2,1,65,0,0
29495,-133.333333333333,4,2,1,65,0,0
29870,-100,4,2,44,55,0,0
29963,-100,4,2,1,55,0,0
30245,-100,4,2,1,55,0,0
30620,-33.3333333333333,4,2,1,55,0,0
30995,-100,4,2,1,55,0,0
35495,-133.333333333333,4,2,1,55,0,0
36057,-40,4,2,1,55,0,0
36807,-200,4,2,1,55,0,0
37745,-100,4,2,1,55,0,0
42432,-66.6666666666667,4,2,1,55,0,0
42995,-100,4,2,3,65,0,0
43088,-100,4,2,3,65,0,0
45057,-40,4,2,3,65,0,0
45995,-100,4,2,3,65,0,0
46745,-100,4,2,3,65,0,0
48995,-100,4,2,3,65,0,0
53495,-100,4,2,2,55,0,0
54245,-57.1428571428571,4,2,2,55,0,0
55370,-400,4,2,1,55,0,0
56495,-80,4,2,100,70,0,0
56518,-80,4,2,1,70,0,0
57057,-400,4,2,1,70,0,0
57245,-80,4,2,1,70,0,0
57995,-80,4,2,1,70,0,0
58370,-108.695652173913,4,2,1,70,0,0
58557,-133.333333333333,4,2,1,70,0,0
58745,-30.7692307692308,4,2,1,70,0,1
59495,-100,4,2,1,70,0,0
59870,-80,4,2,1,70,0,0
60245,-66.6666666666667,4,2,1,70,0,0
60995,-75.187969924812,4,2,1,70,0,1
61745,-50,4,2,1,70,0,1
62120,-1000,4,2,1,70,0,0
62682,-89.2857142857143,4,2,1,70,0,0
63057,-133.333333333333,4,2,1,70,0,0
63245,-114.285714285714,4,2,1,70,0,0
63432,-100,4,2,1,70,0,0
63620,-88.8888888888889,4,2,1,70,0,0
63807,-80,4,2,1,70,0,0
63995,-100,4,2,1,70,0,0
64932,-81.9672131147541,4,2,1,70,0,0
65495,-75.187969924812,4,2,1,70,0,0
66057,-66.6666666666667,4,2,1,70,0,0
66432,-86.9565217391304,4,2,1,70,0,0
66807,-100,4,2,1,70,0,1
68495,-80,4,2,100,70,0,0
68518,-80,4,2,1,70,0,0
69057,-400,4,2,1,70,0,0
69245,-80,4,2,1,70,0,0
70745,-30.7692307692308,4,2,1,70,0,1
71495,-100,4,2,1,70,0,0
71870,-80,4,2,1,70,0,0
72245,-66.6666666666667,4,2,1,70,0,0
72995,-75.187969924812,4,2,1,70,0,1
74307,-75.187969924812,4,2,1,70,0,0
75057,-1000,4,2,1,70,0,0
75995,-75.187969924812,4,2,1,70,0,0
76276,-75.187969924812,4,2,1,5,0,0
76370,-33.3333333333333,4,2,1,70,0,0
76932,-500,4,2,1,70,0,0
78713,-500,4,2,1,5,0,0
78807,-40,4,2,1,70,0,1
80495,-333.333333333333,4,2,1,55,0,0
83495,-133.333333333333,4,2,100,55,0,0
83518,-133.333333333333,4,2,1,55,0,0
86495,-64.1025641025641,4,2,1,55,0,0
87057,-60.2409638554217,4,2,1,55,0,0
87620,-20.8333333333333,4,2,1,55,0,0
88182,-111.111111111111,4,2,100,55,0,0
88205,-111.111111111111,4,2,1,55,0,0
90995,-111.111111111111,4,2,1,35,0,0
91745,-111.111111111111,4,2,1,15,0,0
92495,-111.111111111111,4,2,1,5,0,0

[Colours]
Combo1 : 168,226,61
Combo2 : 204,0,0
Combo3 : 255,106,89
Combo4 : 245,210,10

[HitObjects]
256,192,1932,12,2,3620,0:0:0:0:
24,384,3995,6,0,P|32:319|39:265,1,120.000004577637,6|2,1:2|0:0,0:0:0:0:
20,247,4276,2,0,B|137:251|55:212|179:218,1,160,2|0,0:0|0:0,0:0:0:0:
209,294,4557,5,2,0:0:0:0:
209,294,4651,1,2,0:0:0:0:
209,294,4745,2,0,P|261:300|326:224,1,160,2|2,0:0|0:0,0:0:0:0:
341,243,5026,2,0,P|406:251|510:263,1,160,2|0,0:0|0:0,0:0:0:0:
512,280,5307,1,0,1:0:0:0:
99,171,5495,6,0,P|205:160|344:147,2,240,2|2|2,1:2|0:0|0:0,0:0:0:0:
99,171,6245,6,0,B|95:126|60:101|60:101|163:84|189:162|189:162|201:160|201:160|189:162|189:162|172:237|255:273|312:230|298:160|268:147,1,480.000018310548,2|8,0:0|0:1,0:0:0:0:
238,85,6807,1,0,1:0:0:0:
356,148,6995,6,0,P|365:109|388:77,1,80,4|0,1:2|0:0,0:0:0:0:
355,147,7370,2,0,P|316:158|277:153,1,80,8|0,0:1|0:0,0:0:0:0:
355,147,7745,2,0,P|383:174|399:210,1,80,2|0,0:0|0:0,0:0:0:0:
375,288,8120,1,8,0:1:0:0:
375,288,8307,1,2,1:2:0:0:
246,231,8495,6,0,P|141:240|36:249,2,210.000002002716,4|2|2,1:3|0:0|0:0,0:0:0:0:
245,230,9245,6,0,B|269:154|189:122|123:152|142:241|142:241|153:241|153:241|142:241|142:241|143:336|7:345|-4:252|-4:252|36:248,1,520.00001487732,2|8,0:0|0:1,0:0:0:0:
64,167,9807,1,2,0:0:0:0:
399,372,9995,6,0,P|367:323|374:265,1,120.000004577637,2|2,1:3|0:1,0:0:0:0:
479,350,10276,1,2,0:0:0:0:
479,350,10370,2,0,P|485:291|453:242,1,120.000004577637,2|2,1:3|0:1,0:0:0:0:
237,158,10745,6,0,B|382:184|382:184|423:144|464:153,1,240.000009155274,2|0,1:3|0:0,0:0:0:0:
465,153,11120,2,0,B|510:87|510:87|471:15,1,160,2|2,1:3|0:1,0:0:0:0:
223,66,11495,5,2,1:3:0:0:
241,162,11682,1,2,0:1:0:0:
241,162,11776,1,0,0:0:0:0:
241,162,11870,1,2,1:3:0:0:
251,250,12057,1,2,0:1:0:0:
379,284,12245,6,0,B|435:291|462:361|462:361|463:288|514:256,1,240.000009155274,2|2,1:3|1:3,0:0:0:0:
434,218,12807,1,4,0:3:0:0:
322,195,12995,6,0,B|173:175|239:292|58:264,1,281.60000859375,6|2,1:2|1:2,0:0:0:0:
62,264,13557,6,0,B|81:191|81:191|87:198|87:198|87:190|87:190|177:178|177:178|179:185|179:185|185:178|185:178|209:224|209:224|214:219|214:219|203:228|203:228|208:224|208:224|238:281|238:281|246:277|246:277|238:283|238:283|321:273|321:273|316:267|316:267|321:273|321:273|351:232|351:232|322:195,1,560.000005340576,2|0,0:0|1:0,0:0:0:0:
390,134,14120,5,0,1:0:0:0:
390,134,14307,1,0,1:0:0:0:
489,329,14495,6,0,B|451:316|427:370|427:370|370:315|414:238|414:238|470:225|484:179,1,320,0|0,1:0|1:0,0:0:0:0:
479,78,15057,1,0,1:0:0:0:
235,232,15245,6,0,P|220:160|179:105,1,120.000004577637,0|0,1:0|1:0,0:0:0:0:
345,0,15620,2,0,P|314:51|305:110,1,120.000004577637,0|0,1:0|1:0,0:0:0:0:
344,189,15995,5,4,1:3:0:0:
256,192,16088,12,2,18620,1:3:0:0:
17,382,18995,5,6,1:2:0:0:
13,365,19182,1,2,0:0:0:0:
70,302,19370,5,10,0:0:0:0:
146,314,19557,1,2,0:0:0:0:
222,326,19745,1,2,1:2:0:0:
302,372,19932,5,2,0:0:0:0:
307,354,20120,1,10,0:0:0:0:
312,336,20307,1,2,0:0:0:0:
232,29,20495,5,2,1:2:0:0:
322,122,20682,5,2,0:0:0:0:
347,197,20870,1,10,0:0:0:0:
399,139,21058,1,2,0:0:0:0:
374,64,21245,5,0,1:2:0:0:
374,64,21339,1,0,1:2:0:0:
374,64,21433,1,2,1:2:0:0:
192,128,21620,1,10,0:0:0:0:
10,192,21807,1,4,0:3:0:0:
282,355,21995,5,2,1:2:0:0:
77,252,22182,5,2,0:2:0:0:
94,167,22370,1,10,0:0:0:0:
34,105,22557,1,2,0:2:0:0:
276,367,22745,5,2,1:2:0:0:
41,91,22932,5,2,0:2:0:0:
111,163,23119,1,10,0:0:0:0:
91,261,23307,1,2,0:2:0:0:
0,303,23495,6,0,P|27:315|44:339,1,60.0000022888184,2|0,1:2|0:0,0:0:0:0:
111,163,23682,2,0,P|123:135|147:118,1,60.0000022888184,2|0,0:2|0:0,0:0:0:0:
91,261,23870,6,0,P|118:250|148:255,1,60.0000022888184,10|0,0:0|0:0,0:0:0:0:
41,91,24057,2,0,P|30:63|35:33,1,60.0000022888184,2|0,0:2|0:0,0:0:0:0:
144,11,24245,5,2,1:2:0:0:
156,8,24338,1,2,1:2:0:0:
168,5,24432,1,2,0:2:0:0:
243,17,24620,1,10,0:0:0:0:
318,29,24807,1,2,1:2:0:0:
483,214,24995,5,2,1:2:0:0:
297,180,25182,5,2,0:2:0:0:
309,273,25370,1,10,0:0:0:0:
321,366,25557,1,2,1:2:0:0:
321,366,25651,1,0,0:0:0:0:
321,366,25745,2,0,L|391:376,1,60.0000022888184,2|0,0:2|0:0,0:0:0:0:
474,299,25932,6,0,P|443:251|440:183,2,120.000004577637,2|10|2,1:2|0:0|1:2,0:0:0:0:
486,43,26495,5,2,1:2:0:0:
388,54,26682,1,2,1:2:0:0:
290,65,26870,1,10,0:2:0:0:
53,7,27057,5,2,1:2:0:0:
192,76,27245,5,2,1:2:0:0:
185,90,27432,5,2,1:2:0:0:
188,63,27526,1,0,0:0:0:0:
209,79,27620,1,2,1:2:0:0:
409,6,27807,5,2,1:2:0:0:
464,69,27995,6,0,L|403:385,1,320,12|2,0:2|0:0,0:0:0:0:
464,69,28557,6,0,B|345:47|318:218|419:241|453:191|453:191|449:203|449:203|579:212|518:354|423:291|423:291|441:307|441:307|406:320|404:383|404:383,1,640,4|4,1:2|1:0,0:0:0:0:
332,305,29120,1,2,0:0:0:0:
196,340,29307,5,2,1:2:0:0:
183,348,29401,1,0,0:0:0:0:
170,356,29495,2,0,L|161:233,1,120.000004577637,2|2,1:2|1:2,0:0:0:0:
40,135,29870,2,0,B|98:152|161:122|105:67|212:33|257:89,1,240.000009155274,6|0,0:3|0:0,0:0:0:0:
301,17,30245,6,0,L|270:268,1,240.000009155274,2|0,0:0|0:0,0:0:0:0:
301,17,30620,6,0,B|181:-52|147:102|216:184|257:160|321:46|262:117|361:-14|553:67|482:241|327:383|268:212|270:163|281:189|273:147|186:142|159:227|186:313|247:339|296:303|271:255,1,720.000027465821,2|0,0:0|0:0,0:0:0:0:
300,360,30995,6,0,B|340:339|350:300|350:300|341:340|373:372,1,160,4|0,1:2|0:0,0:0:0:0:
511,191,31370,2,0,P|449:239|422:313,1,160,0|0,1:0|0:0,0:0:0:0:
292,65,31745,5,0,1:0:0:0:
379,134,31932,1,0,0:0:0:0:
370,56,32120,1,0,1:0:0:0:
301,143,32307,1,0,0:0:0:0:
53,74,32495,5,0,1:0:0:0:
133,35,32682,1,2,0:0:0:0:
147,45,32776,1,2,0:0:0:0:
150,58,32870,2,0,L|131:233,1,160,0|2,1:0|0:0,0:0:0:0:
60,382,33245,5,2,1:2:0:0:
170,285,33432,1,2,0:0:0:0:
97,313,33620,1,2,1:2:0:0:
244,310,33807,1,0,0:0:0:0:
305,41,33995,6,0,B|259:73|259:73|274:177,1,160,0|0,1:0|0:0,0:0:0:0:
506,252,34370,2,0,B|410:266|456:200|346:218,1,160,0|0,1:0|0:0,0:0:0:0:
296,265,34745,5,0,1:0:0:0:
299,293,34932,1,0,0:0:0:0:
170,285,35120,5,0,1:0:0:0:
172,312,35307,1,0,0:0:0:0:
67,170,35495,6,0,P|182:174|248:80,1,240.000009155274,0|0,1:0|1:0,0:0:0:0:
67,170,36057,6,0,B|59:218|96:255|96:255|130:186|130:186|88:122|130:67|130:67|195:95|181:174|181:174|196:235|249:240|278:208|272:173|233:133|233:133|176:68|215:29|215:29|251:46|248:80,1,800,2|0,0:0|0:0,0:0:0:0:
331,32,36620,5,0,1:0:0:0:
454,78,36807,2,0,P|411:85|369:105,1,80,0|0,0:0|1:0,0:0:0:0:
420,379,37182,5,0,0:0:0:0:
432,348,37370,1,0,1:0:0:0:
418,317,37557,1,0,0:0:0:0:
512,320,37745,5,0,1:0:0:0:
341,351,37932,2,0,L|171:333,1,160,0|0,0:0|1:0,0:0:0:0:
31,336,38307,2,0,B|40:287|80:269|120:278|120:278|104:295|101:312,1,160,0|0,0:0|1:0,0:0:0:0:
202,82,38682,5,0,0:0:0:0:
236,170,38870,1,0,1:0:0:0:
197,256,39057,1,2,0:0:0:0:
195,249,39151,1,2,0:0:0:0:
193,242,39245,1,2,1:2:0:0:
286,247,39432,2,0,B|318:250|336:269|336:269|401:273|426:225,1,160,0|0,0:0|1:0,0:0:0:0:
481,31,39807,6,0,B|411:-19|338:49|376:81|290:150|200:81,1,320,0|0,0:0|0:0,0:0:0:0:
151,4,40370,2,0,B|99:67|99:67|130:149,1,160,0|0,1:0|0:0,0:0:0:0:
135,360,40745,2,0,B|187:297|187:297|156:215,1,160,0|0,1:0|0:0,0:0:0:0:
71,211,41120,5,0,1:0:0:0:
41,222,41307,1,4,1:3:0:0:
441,173,41682,5,0,0:0:0:0:
471,162,41869,1,2,1:3:0:0:
335,34,42057,6,0,P|385:125|411:288,1,240,4|0,0:3|0:0,0:0:0:0:
444,328,42432,6,0,B|415:340|404:372|404:372|397:341|373:322,1,120.000004577637,8|0,0:0|0:0,0:0:0:0:
231,249,42620,6,0,B|201:242|184:212|184:212|183:244|163:267,1,120.000004577637,8|0,0:0|0:0,0:0:0:0:
208,329,42807,6,0,B|250:353|332:328|280:271|332:232|411:257,1,240.000009155274,0|2,0:0|1:2,0:0:0:0:
145,39,43182,5,0,0:0:0:0:
117,111,43370,1,8,0:1:0:0:
165,171,43557,1,0,0:0:0:0:
193,99,43745,1,0,1:0:0:0:
67,220,43932,5,0,1:0:0:0:
374,246,44120,1,8,0:1:0:0:
67,220,44307,6,0,B|184:210|184:210|264:255|264:255|374:246,1,320,0|0,1:0|0:0,0:0:0:0:
23,292,44870,1,8,0:1:0:0:
67,220,45057,6,0,B|53:104|173:99|183:210|183:210|230:235|261:175|261:175|197:298|197:298|230:234|264:255|264:255|272:384|391:366|374:247,1,800,0|2,1:0|1:2,0:0:0:0:
436,192,45620,5,8,0:1:0:0:
446,191,45713,1,2,1:2:0:0:
456,190,45807,1,2,1:2:0:0:
392,6,45995,6,0,P|339:49|331:146,1,160,4|0,0:3|0:0,0:0:0:0:
80,136,46370,2,0,P|122:189|219:197,1,160,8|0,0:1|0:0,0:0:0:0:
415,249,46745,6,0,B|324:273|267:203|329:153|255:56|158:104,1,320,0|8,1:0|0:1,0:0:0:0:
80,136,47307,1,0,1:0:0:0:
23,292,47495,6,0,B|36:306|36:306|220:284,1,160,4|0,0:3|0:0,0:0:0:0:
394,317,47870,6,0,B|385:224|291:177|211:215|211:215|248:234|256:272,1,320,8|0,0:1|0:0,0:0:0:0:
455,371,48432,6,0,L|513:363,1,40,8|0,0:1|0:0,0:0:0:0:
455,371,48620,2,0,L|513:363,1,40,8|0,0:1|0:0,0:0:0:0:
224,384,48807,1,0,1:0:0:0:
387,27,48995,6,0,P|385:105|330:160,1,160,4|2,0:3|0:1,0:0:0:0:
64,192,49370,2,0,P|120:246|199:246,1,160,8|2,0:1|0:1,0:0:0:0:
472,245,49745,2,0,P|404:282|329:262,1,160,0|2,1:0|0:1,0:0:0:0:
225,148,50120,2,0,P|185:80|204:5,1,160,8|2,0:1|0:1,0:0:0:0:
64,192,50495,6,0,L|79:351,1,160,4|2,0:3|0:1,0:0:0:0:
312,101,50870,2,0,L|328:261,1,160,8|2,0:1|0:1,0:0:0:0:
61,25,51245,5,0,1:0:0:0:
151,141,51432,1,2,0:1:0:0:
85,99,51620,1,8,0:1:0:0:
229,131,51807,1,8,0:1:0:0:
411,51,51995,6,0,B|362:46|340:20|340:20|325:55|279:68,1,160,4|0,0:3|1:0,0:0:0:0:
288,256,52370,1,8,0:1:0:0:
397,364,52557,2,0,P|400:284|354:127,1,240,4|0,0:3|0:0,0:0:0:0:
411,51,52932,2,0,P|466:56|430:142,1,160,0|8,1:0|0:1,0:0:0:0:
288,256,53307,5,8,0:1:0:0:
283,259,53401,1,0,0:0:0:0:
278,262,53495,2,0,P|284:222|288:182,1,80,4|0,1:3|1:0,0:0:0:0:
150,135,53682,2,0,P|189:128|229:124,1,80,4|0,1:3|1:0,0:0:0:0:
451,50,53870,2,0,P|411:45|371:39,1,80,4|0,1:3|1:0,0:0:0:0:
279,0,54057,2,0,P|285:39|289:79,1,80,4|0,1:3|1:0,0:0:0:0:
476,167,54245,6,0,P|420:216|401:288,1,140.000001335144,4|0,1:3|1:0,0:0:0:0:
310,185,54432,1,4,1:3:0:0:
305,182,54526,1,0,1:0:0:0:
300,178,54620,2,0,P|295:252|332:316,1,140.000001335144,4|0,1:3|1:0,0:0:0:0:
183,310,54807,2,0,P|232:366|304:385,1,140.000001335144,4|0,1:3|1:0,0:0:0:0:
128,192,54995,5,4,1:3:0:0:
124,129,55089,1,0,0:0:0:0:
30,162,55183,1,0,1:0:0:0:
68,211,55277,1,0,0:0:0:0:
65,110,55370,6,0,P|40:48|-35:-22,1,160,2|2,1:3|0:0,0:0:0:0:
12,281,56307,1,2,0:0:0:0:
128,192,56495,6,0,P|219:227|266:313,1,200,6|2,1:2|0:0,0:0:0:0:
344,120,56776,2,0,P|383:209|356:303,1,200,2|0,0:0|0:0,0:0:0:0:
318,378,57057,2,0,B|321:383|321:383|310:377,1,20,2|2,0:0|0:0,0:0:0:0:
282,304,57245,6,0,P|250:211|166:160,1,200,2|2,1:2|0:0,0:0:0:0:
371,309,57526,2,0,P|414:220|391:125,1,200,2|0,0:0|0:0,0:0:0:0:
319,91,57807,1,2,0:0:0:0:
23,135,57995,6,0,L|319:91,1,300,0|2,1:0|0:0,0:0:0:0:
472,74,58370,6,0,L|458:167,1,73.599997529297,8|0,0:0|0:0,0:0:0:0:
391,125,58557,2,0,L|399:65,1,60.0000022888184,2|0,0:0|0:0,0:0:0:0:
23,135,58745,6,0,B|9:50|104:-41|54:-4|312:-15|63:-23|72:43|86:62|86:62|126:58|162:67|162:67|131:89|131:122|131:122|111:124|111:124|131:122|131:122|126:185|185:236|274:205|275:158|275:158|240:175|240:175|249:144|223:107|223:107|274:104|274:104|276:71|240:44|240:44|302:37|320:91,1,1040.00002975464,2|8,1:2|0:0,0:0:0:0:
398,65,59307,1,2,0:0:0:0:
469,307,59495,6,0,P|412:256|335:270,1,160,2|0,1:2|0:0,0:0:0:0:
321,252,59870,6,0,P|298:333|180:323,1,200,10|0,0:0|0:0,0:0:0:0:
173,347,60245,6,0,P|166:244|72:285,1,240.000009155274,2|0,1:2|0:0,0:0:0:0:
88,360,60526,1,0,0:0:0:0:
92,374,60620,1,8,0:0:0:0:
15,335,60807,1,2,1:2:0:0:
32,64,60995,6,0,B|60:92|112:87|112:87|260:69|260:69|303:64|335:95,1,319.199986849366,6|2,1:3|1:2,0:0:0:0:
336,95,61370,2,0,P|302:135|296:187,1,106.399995616455,10|0,0:0|0:0,0:0:0:0:
421,262,61557,2,0,P|388:222|385:170,1,106.399995616455,2|0,1:2|0:0,0:0:0:0:
447,340,61745,6,0,B|296:267|131:307|83:414|223:394|368:330|313:205,1,480,2|0,1:2|0:0,0:0:0:0:
238,235,62120,6,0,L|249:241,2,8,8|0|0,0:0|0:0|0:0,0:0:0:0:
16,280,62495,5,6,1:2:0:0:
48,359,62682,2,0,P|61:294|125:158,1,179.2000021875,2|8,0:0|0:0,0:0:0:0:
56,95,63057,6,0,P|39:81|51:99,1,60.0000022888184,2|0,0:0|0:0,0:0:0:0:
143,56,63245,6,0,P|132:33|136:57,1,70.000000667572,2|0,1:2|0:0,0:0:0:0:
256,51,63432,6,0,P|256:22|248:49,1,80,2|0,0:0|0:0,0:0:0:0:
370,103,63620,6,0,P|383:74|362:97,1,90.0000034332277,10|0,0:0|0:0,0:0:0:0:
448,224,63807,6,0,P|475:201|442:215,1,100,2|0,0:0|0:0,0:0:0:0:
255,383,63995,6,0,P|210:321|228:245,1,160,2|2,1:2|0:0,0:0:0:0:
337,366,64370,2,0,P|355:290|309:227,1,160,10|2,0:0|0:0,0:0:0:0:
251,165,64651,5,2,0:0:0:0:
251,165,64745,2,0,P|283:142|322:143,1,80,0|0,1:0|0:0,0:0:0:0:
512,132,64932,2,0,B|395:121|395:121|383:84|332:67,2,195.199991958008,2|10|2,0:0|0:0|1:2,0:0:0:0:
143,56,65495,6,0,B|144:114|209:127|209:127|252:77|216:30,1,212.799991232911,2|2,1:2|0:0,0:0:0:0:
322,143,65870,1,8,0:0:0:0:
56,301,66057,2,0,B|56:194|159:146|242:182|242:182|199:214|198:264,1,360.000013732911,2|0,0:0|0:0,0:0:0:0:
142,324,66432,2,0,B|99:335|86:372|86:372|-20:383,1,184.000003509522,2|8,0:0|0:0,0:0:0:0:
305,269,66807,5,2,1:2:0:0:
305,269,66901,1,0,0:0:0:0:
305,269,66995,2,0,P|314:310|323:356,1,80,4|0,1:2|0:0,0:0:0:0:
434,228,67182,2,0,P|393:215|349:200,1,80,4|0,1:3|0:0,0:0:0:0:
405,360,67370,2,0,P|436:331|471:300,1,80,8|0,0:0|0:0,0:0:0:0:
447,219,67557,6,0,P|406:206|362:191,1,80,0|0,1:0|0:0,0:0:0:0:
294,280,67745,2,0,P|303:321|312:367,1,80,2|0,0:0|0:0,0:0:0:0:
423,365,67932,2,0,P|454:336|489:305,1,80,10|2,0:0|0:0,0:0:0:0:
375,96,68120,5,10,0:0:0:0:
368,98,68213,1,10,0:0:0:0:
361,100,68307,1,10,0:0:0:0:
354,102,68401,1,10,0:0:0:0:
287,148,68495,6,0,B|175:139|237:70|116:60,1,200,6|2,1:2|0:0,0:0:0:0:
204,287,68776,2,0,B|198:298|106:231|191:195|86:135,1,200,2|0,0:0|0:0,0:0:0:0:
36,73,69057,2,0,L|46:41,1,20,2|0,0:0|0:0,0:0:0:0:
304,95,69245,6,0,B|192:105|241:26|121:38,1,200,2|2,1:2|0:0,0:0:0:0:
160,318,69526,2,0,B|73:246|163:225|70:148,1,200,2|0,0:0|0:0,0:0:0:0:
0,49,69807,1,2,0:0:0:0:
32,230,69995,6,0,L|431:204,1,400,2|10,1:2|0:0,0:0:0:0:
507,156,70557,1,2,0:0:0:0:
32,230,70745,6,0,B|7:160|7:160|131:151|131:151|119:222|119:222|108:225|108:225|120:225|120:225|101:316|195:323|260:296|231:217|231:217|217:219|217:219|231:217|231:217|285:168|282:107|282:107|285:169|342:212|342:212|334:213|334:213|341:213|341:213|346:313|456:309|470:233|431:203,1,1040.00002975464,2|8,1:2|0:0,0:0:0:0:
507,156,71307,1,2,0:0:0:0:
457,83,71495,6,0,P|400:134|323:120,1,160,2|0,1:2|0:0,0:0:0:0:
309,138,71870,6,0,P|286:57|168:67,1,200,10|0,0:0|0:0,0:0:0:0:
161,43,72245,6,0,P|154:146|60:105,1,240.000009155274,2|0,1:2|0:0,0:0:0:0:
76,30,72526,1,0,0:0:0:0:
80,16,72620,1,10,0:2:0:0:
3,55,72807,1,0,0:0:0:0:
32,320,72995,6,0,B|64:285|64:285|286:324|286:324|320:293,1,319.199986849366,2|2,1:2|0:0,0:0:0:0:
320,293,73370,2,0,L|308:186,1,106.399995616455,10|0,0:0|0:0,0:0:0:0:
416,256,73557,2,0,L|403:363,1,106.399995616455,2|0,0:0|0:0,0:0:0:0:
222,139,73745,6,0,B|324:153|275:112|390:129,1,159.599993424683,2|0,1:2|0:0,0:0:0:0:
450,91,73932,6,0,L|501:74,1,53.1999978082276,0|0,1:0|0:0,0:0:0:0:
445,170,74120,2,0,L|496:187,1,53.1999978082276,8|0,0:0|0:0,0:0:0:0:
378,127,74307,5,2,0:0:0:0:
86,39,74495,5,2,1:2:0:0:
8,19,74682,1,2,0:0:0:0:
30,97,74870,1,10,0:0:0:0:
108,117,75057,2,0,L|126:111,1,16,2|0,0:0|1:0,0:0:0:0:
405,93,75432,5,2,0:0:0:0:
390,115,75619,1,10,0:0:0:0:
378,91,75807,1,2,1:2:0:0:
426,280,75995,6,0,L|111:224,1,319.199986849366,0|0,1:2|0:0,0:0:0:0:
111,224,76370,6,0,B|127:114|366:151|271:248|158:362|410:402|426:280,1,480.000018310548,10|2,0:0|0:0,0:0:0:0:
206,368,76745,1,2,1:2:0:0:
206,368,76932,6,0,L|201:336,1,32,2|8,0:0|0:0,0:0:0:0:
187,249,77307,5,2,1:2:0:0:
350,243,77495,1,2,1:2:0:0:
196,235,77682,1,2,0:0:0:0:
359,229,77870,1,10,0:2:0:0:
156,32,78245,5,2,1:2:0:0:
141,40,78432,2,0,L|134:95,1,48,2|0,0:0|0:0,0:0:0:0:
167,225,78807,6,0,B|144:296|71:261|117:236|241:236,1,200,2|0,1:3|0:0,0:0:0:0:
312,277,78995,2,0,B|383:299|348:372|323:326|323:202,1,200,2|0,1:3|0:0,0:0:0:0:
364,131,79182,2,0,B|386:59|459:94|413:119|289:119,1,200,2|0,1:3|0:0,0:0:0:0:
218,79,79370,2,0,B|146:56|181:-16|206:29|206:153,1,200,2|0,1:3|0:0,0:0:0:0:
45,57,79557,5,2,1:3:0:0:
45,57,79651,1,0,0:0:0:0:
45,57,79745,5,8,0:0:0:0:
50,85,79838,1,0,1:0:0:0:
83,115,79932,1,8,0:0:0:0:
142,108,80026,1,0,1:0:0:0:
195,54,80120,1,8,0:0:0:0:
283,63,80213,1,0,1:0:0:0:
352,142,80307,1,8,0:0:0:0:
316,257,80401,1,0,1:0:0:0:
392,282,80495,6,0,L|1:331,1,383.99998828125,0|2,1:0|0:0,0:0:0:0:
256,192,82088,12,2,83307,0:0:0:0:
106,42,83495,5,6,1:2:0:0:
154,107,83682,1,0,0:0:0:0:
329,367,83870,5,10,0:0:0:0:
121,181,84057,5,2,0:0:0:0:
393,143,84245,5,0,1:0:0:0:
40,189,84432,5,2,0:0:0:0:
6,263,84620,1,10,0:0:0:0:
361,255,84807,6,0,B|292:240|292:240|265:256|272:290,1,120.000004577637,2|0,1:2|1:0,0:0:0:0:
53,329,85182,5,2,1:2:0:0:
172,351,85370,1,10,0:0:0:0:
271,282,85557,1,2,1:2:0:0:
53,329,85745,6,0,P|53:299|66:272,1,60.0000022888184,10|0,0:0|0:0,0:0:0:0:
271,282,85932,2,0,P|241:281|214:268,1,60.0000022888184,2|0,1:2|0:0,0:0:0:0:
172,351,86120,2,0,P|151:329|141:301,1,60.0000022888184,10|0,0:0|0:0,0:0:0:0:
292,163,86307,2,0,P|270:183|242:193,1,60.0000022888184,2|0,1:2|0:0,0:0:0:0:
11,165,86495,6,0,L|486:321,1,499.200016757813,12|0,0:0|0:0,0:0:0:0:
11,165,87057,6,0,B|274:113|193:389|494:319,1,531.200007700195,12|0,0:0|0:0,0:0:0:0:
11,165,87620,6,0,B|-9:132|-9:87|14:53|14:53|38:20|81:4|121:15|121:15|161:25|191:60|194:101|194:101|198:142|176:182|139:200|139:200|129:187|129:187|140:200|140:200|103:227|92:278|115:317|115:317|138:356|188:371|229:352|229:352|270:333|290:285|274:243|274:243|253:248|253:248|275:242|275:242|262:205|279:164|316:148|316:148|352:131|395:145|414:179|414:179|434:214|425:257|392:280|392:280|383:269|383:269|392:282|392:282|374:299|370:327|383:349|383:349|396:371|423:382|448:374|448:374|472:366|489:342|486:323,1,1536,12|0,0:0|0:0,0:0:0:0:
95,110,88182,5,6,1:2:0:0:
256,192,88229,12,0,92495,0:0:0:0:
