osu file format v14

[General]
AudioFilename: audio.mp3
AudioLeadIn: 0
PreviewTime: 56026
Countdown: 0
SampleSet: Soft
StackLeniency: 0.7
Mode: 0
LetterboxInBreaks: 0
WidescreenStoryboard: 0

[Editor]
DistanceSpacing: 1.1
BeatDivisor: 4
GridSize: 32
TimelineZoom: 1.7

[Metadata]
Title:Alteration
TitleUnicode:Alteration
Artist:ZAQ
ArtistUnicode:ZAQ
Creator:Adinda
Version:Normal
Source:ささみさん@がんばらない
Tags:anime japanese opening op Sasami-san@Ganbaranai Sasami-san@Unmotivated Sasami-san at Ganbaranai cut version jpop pop j-pop
BeatmapID:2561960
BeatmapSetID:1231802

[Difficulty]
HPDrainRate:4
CircleSize:3.6
OverallDifficulty:4
ApproachRate:4.5
SliderMultiplier:1.1
SliderTickRate:1

[Events]
//Background and Video events
0,0,"a.jpg",0,0
//Break Periods
//Storyboard Layer 0 (Background)
//Storyboard Layer 1 (Fail)
//Storyboard Layer 2 (Pass)
//Storyboard Layer 3 (Foreground)
//Storyboard Layer 4 (Overlay)
//Storyboard Sound Samples

[TimingPoints]
3995,375,4,2,1,65,1,0
3995,-111.111111111111,4,2,1,65,0,0
9995,-111.111111111111,4,2,1,75,0,0
18995,-105.263157894737,4,2,1,85,0,0
30995,-111.111111111111,4,2,1,65,0,0
42995,-111.111111111111,4,2,1,75,0,0
48995,-111.111111111111,4,2,1,80,0,0
54995,-111.111111111111,4,2,1,70,0,0
56495,-105.263157894737,4,2,1,95,0,1
68120,-105.263157894737,4,2,1,95,0,0
68495,-105.263157894737,4,2,1,95,0,1
80495,-111.111111111111,4,2,1,85,0,0
82745,-111.111111111111,4,2,1,75,0,0
83495,-111.111111111111,4,2,1,85,0,0
89495,-111.111111111111,4,2,1,65,0,0
90995,-111.111111111111,4,2,1,45,0,0
92495,-111.111111111111,4,2,1,25,0,0
93620,-111.111111111111,4,2,1,10,0,0

[Colours]
Combo1 : 255,106,89
Combo2 : 255,255,170

[HitObjects]
138,76,3995,6,0,P|153:123|157:157,2,74.2499977340699,6|2|2,1:0|0:0|0:0,0:0:0:0:
178,39,4745,2,0,P|197:19|247:12,1,74.2499977340699,2|2,0:0|0:0,0:0:0:0:
316,44,5307,1,2,1:0:0:0:
316,44,5495,2,0,P|343:68|379:72,1,74.2499977340699,2|2,1:0|0:0,0:0:0:0:
459,90,6057,1,2,0:0:0:0:
459,90,6245,2,0,P|480:123|452:241,1,148.49999546814,2|2,0:0|1:0,0:0:0:0:
471,280,6995,6,0,P|427:277|366:274,1,98.9999969787599,6|10,1:0|0:1,0:0:0:0:
271,315,7745,2,0,P|227:318|166:321,1,98.9999969787599,2|8,0:0|0:1,0:0:0:0:
136,280,8307,1,2,1:0:0:0:
136,280,8495,2,0,P|134:240|137:195,1,74.2499977340699,2|2,1:0|0:0,0:0:0:0:
195,154,9057,1,2,0:0:0:0:
195,154,9245,2,0,P|231:127|229:77,1,98.9999969787599,2|10,0:0|0:1,0:0:0:0:
147,5,9995,6,0,L|45:15,1,98.9999969787599,6|0,1:0|1:0,0:0:0:0:
20,115,10745,2,0,P|23:160|28:230,1,98.9999969787599,2|0,1:0|1:0,0:0:0:0:
112,280,11495,2,0,P|117:225|121:180,1,98.9999969787599,2|0,1:0|1:0,0:0:0:0:
224,147,12245,2,0,L|326:157,1,98.9999969787599,2|8,1:0|1:0,0:0:0:0:
373,176,12807,1,0,1:0:0:0:
373,176,12995,6,0,P|399:221|372:317,1,148.49999546814,6|2,1:0|0:0,0:0:0:0:
225,293,14120,2,0,P|185:293|159:293,1,49.4999984893799,2|2,0:0|0:0,0:0:0:0:
134,329,14495,2,0,P|68:331|19:329,1,98.9999969787599,2|0,1:0|1:0,0:0:0:0:
19,224,15245,2,0,P|68:225|117:223,1,98.9999969787599,2|2,1:0|1:0,0:0:0:0:
211,168,15995,6,0,B|403:162|293:216|512:202,1,296.99999093628,2|0,1:0|1:0,0:0:0:0:
473,98,17495,1,2,1:0:0:0:
373,53,17870,1,2,1:0:0:0:
264,38,18245,1,2,1:0:0:0:
155,43,18620,1,10,0:1:0:0:
98,148,18995,6,0,P|111:182|121:255,1,104.499997209549,6|10,1:0|0:0,0:0:0:0:
42,332,19745,2,0,P|29:298|19:225,1,104.499997209549,2|10,1:0|0:0,0:0:0:0:
12,116,20495,1,2,1:0:0:0:
103,44,20870,1,8,0:0:0:0:
103,44,21057,2,0,P|163:13|204:33,1,104.499997209549,2|0,0:0|0:0,0:0:0:0:
224,73,21620,1,10,0:0:0:0:
330,28,21995,6,0,P|339:81|341:137,1,104.499997209549,2|10,1:0|0:0,0:0:0:0:
269,221,22745,2,0,P|260:274|258:330,1,104.499997209549,2|10,1:0|0:0,0:0:0:0:
359,378,23495,1,2,1:0:0:0:
435,291,23870,1,10,0:0:0:0:
379,190,24245,1,2,1:0:0:0:
450,99,24620,1,10,0:0:0:0:
354,34,24995,6,0,P|310:33|257:80,1,104.499997209549,2|10,1:0|0:0,0:0:0:0:
228,113,25557,2,0,P|176:111|137:79,1,104.499997209549,2|2,1:0|1:0,0:0:0:0:
136,21,26120,1,10,0:0:0:0:
47,94,26495,1,2,1:0:0:0:
112,188,26870,1,10,1:2:0:0:
33,271,27245,1,2,1:0:0:0:
111,354,27620,1,10,1:2:0:0:
200,281,27995,6,0,P|255:270|305:274,1,104.499997209549,6|2,1:0|0:0,0:0:0:0:
309,216,28557,2,0,P|364:205|414:209,1,104.499997209549,6|8,1:0|0:0,0:0:0:0:
340,117,29307,1,2,1:0:0:0:
340,117,29495,2,0,L|333:64,1,52.2499986047745,2|0,1:0|1:0,0:0:0:0:
387,47,29870,2,0,P|433:58|466:111,1,104.499997209549,14|2,0:0|0:0,0:0:0:0:
411,208,30620,1,2,0:0:0:0:
465,302,30995,6,0,P|399:300|359:303,1,98.9999969787599,6|2,1:0|1:0,0:0:0:0:
259,278,31745,2,0,P|261:212|258:172,1,98.9999969787599,2|2,1:0|1:0,0:0:0:0:
301,145,32307,2,0,P|319:84|245:51,1,148.49999546814,2|2,0:0|1:0,0:0:0:0:
152,8,33245,1,2,1:0:0:0:
119,111,33620,1,2,1:0:0:0:
199,184,33995,6,0,P|204:241|199:292,2,98.9999969787599,0|2|2,1:0|1:0|1:0,1:0:0:0:
301,145,35120,1,2,1:0:0:0:
391,206,35495,2,0,P|414:258|414:309,1,98.9999969787599,2|2,1:0|1:0,0:0:0:0:
426,352,36057,2,0,L|319:337,1,98.9999969787599,2|2,0:0|0:0,0:0:0:0:
252,260,36807,1,2,0:0:0:0:
139,309,37182,5,2,0:0:0:0:
139,309,37370,2,0,P|103:333|34:308,1,98.9999969787599,2|2,1:0|1:0,1:0:0:0:
27,274,37932,1,2,0:0:0:0:
102,195,38307,2,0,P|101:144|98:88,1,98.9999969787599,2|2,0:0|0:0,0:0:0:0:
199,53,39057,2,0,P|238:38|298:28,1,98.9999969787599,2|2,0:0|0:0,0:0:0:0:
340,58,39620,1,2,1:0:0:0:
340,58,39807,6,0,P|358:97|365:162,1,98.9999969787599,2|2,0:0|0:0,0:0:0:0:
403,190,40370,1,2,1:0:0:0:
320,261,40745,1,2,1:0:0:0:
231,194,41120,1,2,1:0:0:0:
231,194,41307,2,0,P|232:149|196:48,1,148.49999546814,2|10,1:0|0:0,0:0:0:0:
144,45,42057,2,0,P|123:108|125:157,1,98.9999969787599,2|10,1:0|0:0,0:0:0:0:
119,194,42620,1,10,0:0:0:0:
173,288,42995,6,0,P|212:282|276:297,1,98.9999969787599,4|10,1:0|0:0,0:0:0:0:
311,193,43745,1,2,1:0:0:0:
311,193,43932,2,0,P|303:119|305:79,1,98.9999969787599,2|2,1:0|1:0,0:0:0:0:
403,51,44682,2,0,L|464:36,1,49.4999984893799,2|10,0:0|0:0,0:0:0:0:
502,58,45057,2,0,P|509:92|501:226,1,148.49999546814,2|8,1:0|0:0,0:0:0:0:
492,258,45807,1,2,1:0:0:0:
492,258,45995,6,0,P|468:236|398:226,1,98.9999969787599,2|10,1:0|0:0,0:0:0:0:
296,224,46745,2,0,P|272:246|202:256,1,98.9999969787599,2|8,1:0|0:0,0:0:0:0:
170,155,47495,1,2,1:0:0:0:
136,51,47870,2,0,P|102:39|76:43,1,49.4999984893799,10|0,0:0|1:0,0:0:0:0:
36,29,48245,2,0,P|33:64|34:133,1,98.9999969787599,2|8,0:0|0:0,0:0:0:0:
25,181,48807,1,10,0:0:0:0:
25,181,48995,5,6,1:0:0:0:
124,227,49370,1,10,0:0:0:0:
201,150,49745,1,2,1:0:0:0:
288,209,50120,1,10,0:0:0:0:
365,131,50495,2,0,P|402:123|464:115,1,98.9999969787599,2|10,1:0|0:0,0:0:0:0:
428,12,51245,2,0,P|378:17|330:27,1,98.9999969787599,2|10,1:0|0:0,0:0:0:0:
221,29,51995,5,6,1:0:0:0:
212,137,52370,1,10,0:0:0:0:
212,137,52557,2,0,P|227:180|228:248,2,98.9999969787599,2|2|2,1:0|1:0|1:0,0:0:0:0:
103,143,53682,2,0,P|109:172|110:198,1,49.4999984893799,2|2,1:0|1:0,0:0:0:0:
84,239,54057,2,0,P|69:286|144:349,1,148.49999546814,2|0,1:0|0:0,0:0:0:0:
241,345,54995,6,0,P|287:335|342:334,2,98.9999969787599,2|2|2,1:0|0:0|0:0,0:0:0:0:
211,239,56120,1,2,0:0:0:0:
236,126,56495,6,0,P|270:112|316:110,1,78.3749979071618,6|2,1:0|0:0,0:0:0:0:
384,64,57057,1,2,0:0:0:0:
384,64,57245,2,0,P|420:78|459:80,1,78.3749979071618,2|2,1:0|0:0,0:0:0:0:
439,164,57807,1,2,0:0:0:0:
439,164,57995,2,0,P|446:202|452:262,1,78.3749979071618,2|2,1:0|0:0,0:0:0:0:
379,289,58557,1,2,0:0:0:0:
379,289,58745,2,0,P|345:267|220:265,1,156.749995814324,2|2,1:0|0:0,0:0:0:0:
174,252,59495,6,0,P|150:214|153:145,1,104.499997209549,2|10,1:0|0:2,0:0:0:0:
215,61,60245,2,0,P|223:115|230:176,1,104.499997209549,2|8,1:0|0:2,0:0:0:0:
285,173,60807,1,2,1:0:0:0:
285,173,60995,2,0,P|317:167|382:161,1,78.3749979071618,2|2,1:0|1:0,0:0:0:0:
447,174,61557,1,2,1:0:0:0:
447,174,61745,2,0,P|458:117|426:73,1,104.499997209549,2|8,1:0|0:0,0:0:0:0:
318,68,62495,5,6,1:0:0:0:
318,68,62682,2,0,P|266:61|204:61,1,104.499997209549,2|2,0:0|0:0,0:0:0:0:
162,34,63245,2,0,P|115:50|61:60,1,104.499997209549,2|10,1:0|0:0,0:0:0:0:
57,174,63995,2,0,P|104:154|163:140,1,104.499997209549,2|10,1:0|0:0,0:0:0:0:
209,160,64557,1,2,0:0:0:0:
320,183,64932,2,0,P|345:232|349:290,1,104.499997209549,2|2,0:0|0:0,0:0:0:0:
345,337,65495,6,0,P|301:320|234:323,1,104.499997209549,6|10,1:0|0:0,0:0:0:0:
189,337,66057,2,0,P|145:354|78:351,1,104.499997209549,2|2,0:0|0:0,0:0:0:0:
56,242,66807,2,0,L|53:135,1,104.499997209549,2|10,1:0|0:0,0:0:0:0:
92,95,67370,2,0,P|92:59|89:37,1,52.2499986047745,10|2,0:0|1:0,0:0:0:0:
132,4,67745,1,2,0:0:0:0:
223,73,68120,2,0,P|259:69|292:69,1,52.2499986047745,10|10,0:0|0:0,0:0:0:0:
325,40,68495,6,0,P|352:66|361:123,1,78.3749979071618,6|2,1:0|0:0,0:0:0:0:
290,150,69057,1,2,0:0:0:0:
290,150,69245,2,0,P|263:176|254:233,1,78.3749979071618,2|2,1:0|0:0,0:0:0:0:
285,293,69807,1,2,0:0:0:0:
285,293,69995,2,0,P|351:298|408:309,1,104.499997209549,2|10,1:0|0:0,0:0:0:0:
430,344,70557,1,2,0:0:0:0:
430,344,70745,2,0,P|447:292|438:187,1,156.749995814324,2|2,1:0|0:0,0:0:0:0:
463,150,71495,6,0,P|462:110|448:42,1,104.499997209549,2|10,1:0|0:0,0:0:0:0:
337,20,72245,2,0,P|338:60|352:128,1,104.499997209549,2|10,1:0|0:0,0:0:0:0:
304,228,72995,2,0,L|214:216,2,78.3749979071618,2|2|2,1:0|0:0|0:0,0:0:0:0:
361,216,73745,2,0,P|375:169|347:120,1,104.499997209549,2|8,1:0|0:0,0:0:0:0:
298,96,74307,1,2,0:0:0:0:
298,96,74495,6,0,P|249:83|189:79,1,104.499997209549,6|10,1:0|0:0,0:0:0:0:
139,63,75057,1,2,0:0:0:0:
89,166,75432,1,2,0:0:0:0:
89,166,75620,2,0,P|120:158|146:156,1,52.2499986047745,10|2,0:0|0:0,0:0:0:0:
191,181,75995,1,2,1:0:0:0:
305,172,76370,2,0,P|312:205|315:231,1,52.2499986047745,10|2,0:0|0:0,0:0:0:0:
341,271,76745,1,2,1:0:0:0:
341,271,76932,2,0,P|364:241|431:230,1,104.499997209549,2|2,0:0|0:0,0:0:0:0:
462,274,77495,6,0,P|464:321|457:382,1,104.499997209549,2|10,1:0|0:0,0:0:0:0:
343,361,78245,1,2,1:0:0:0:
343,361,78432,2,0,P|309:351|284:346,1,52.2499986047745,2|8,0:0|0:0,0:0:0:0:
249,309,78807,2,0,B|161:304|205:278|96:275,1,156.749995814324,10|8,1:2|1:2,0:0:0:0:
54,236,79557,1,2,1:0:0:0:
129,149,79932,2,0,P|166:142|185:142,1,52.2499986047745,10|10,0:0|0:0,0:0:0:0:
234,161,80307,1,10,0:0:0:0:
234,161,80495,1,4,1:0:0:0:
256,192,80588,12,0,82745,0:0:0:0:
61,26,83495,6,0,P|73:72|65:127,1,98.9999969787599,4|10,1:0|0:0,0:0:0:0:
35,166,84057,1,2,0:0:0:0:
100,252,84432,2,0,P|133:244|157:246,1,49.4999984893799,2|10,0:0|0:0,0:0:0:0:
197,268,84807,2,0,P|234:260|302:259,1,98.9999969787599,2|2,0:0|1:0,0:0:0:0:
333,297,85370,1,10,0:2:0:0:
379,198,85745,1,10,0:2:0:0:
306,117,86120,1,10,0:2:0:0:
358,21,86495,6,0,P|400:12|457:15,1,98.9999969787599,4|2,1:0|0:0,0:0:0:0:
498,48,87057,2,0,P|507:90|504:147,1,98.9999969787599,4|2,1:0|0:0,0:0:0:0:
476,191,87620,2,0,P|434:200|377:197,1,98.9999969787599,4|2,1:0|0:0,0:0:0:0:
330,223,88182,1,4,1:0:0:0:
256,192,88276,12,0,93995,0:1:0:0:
