osu file format v14

[General]
AudioFilename: audio.mp3
AudioLeadIn: 0
PreviewTime: 56026
Countdown: 0
SampleSet: Soft
StackLeniency: 0.7
Mode: 0
LetterboxInBreaks: 0
WidescreenStoryboard: 0

[Editor]
DistanceSpacing: 0.3
BeatDivisor: 4
GridSize: 32
TimelineZoom: 1.7

[Metadata]
Title:Alteration
TitleUnicode:Alteration
Artist:ZAQ
ArtistUnicode:ZAQ
Creator:Adinda
Version:Insane
Source:ささみさん@がんばらない
Tags:anime japanese opening op Sasami-san@Ganbaranai Sasami-san@Unmotivated Sasami-san at Ganbaranai cut version jpop pop j-pop
BeatmapID:2560912
BeatmapSetID:1231802

[Difficulty]
HPDrainRate:5
CircleSize:4
OverallDifficulty:8
ApproachRate:9
SliderMultiplier:1.8
SliderTickRate:1

[Events]
//Background and Video events
0,0,"a.jpg",0,0
//Break Periods
//Storyboard Layer 0 (Background)
//Storyboard Layer 1 (Fail)
//Storyboard Layer 2 (Pass)
//Storyboard Layer 3 (Foreground)
//Storyboard Layer 4 (Overlay)
//Storyboard Sound Samples

[TimingPoints]
3995,375,4,2,1,65,1,0
3995,-153.846153846153,4,2,1,65,0,0
9995,-117.647058823529,4,2,1,75,0,0
14307,-117.647058823529,4,2,1,65,0,0
14495,-117.647058823529,4,2,1,55,0,0
15245,-117.647058823529,4,2,1,60,0,0
15620,-117.647058823529,4,2,1,65,0,0
15995,-117.647058823529,4,2,1,70,0,0
17495,-100,4,2,1,65,0,0
17870,-100,4,2,1,70,0,0
18245,-100,4,2,1,75,0,0
18620,-111.111111111111,4,2,1,80,0,0
18995,-90.9090909090909,4,2,1,85,0,0
30620,-133.333333333333,4,2,1,75,0,0
30995,-153.846153846153,4,2,1,65,0,0
42995,-117.647058823529,4,2,1,75,0,0
48995,-100,4,2,1,80,0,0
54995,-100,4,2,1,70,0,0
56120,-181.818181818181,4,2,1,60,0,0
56495,-83.3333333333333,4,2,1,95,0,1
59776,-83.3333333333333,4,2,1,5,0,1
59870,-83.3333333333333,4,2,1,95,0,1
60151,-83.3333333333333,4,2,1,5,0,1
60245,-83.3333333333333,4,2,1,95,0,1
68307,-133.333333333333,4,2,1,95,0,0
68495,-83.3333333333333,4,2,1,95,0,1
71776,-83.3333333333333,4,2,1,5,0,1
71870,-83.3333333333333,4,2,1,95,0,1
72151,-83.3333333333333,4,2,1,5,0,1
72245,-83.3333333333333,4,2,1,95,0,1
73182,-83.3333333333333,4,2,1,5,0,1
73276,-83.3333333333333,4,2,1,95,0,1
73463,-83.3333333333333,4,2,1,5,0,1
73557,-83.3333333333333,4,2,1,95,0,1
76276,-83.3333333333333,4,2,1,5,0,1
76370,-83.3333333333333,4,2,1,95,0,1
80495,-66.6666666666667,4,2,1,85,0,0
83120,-66.6666666666667,4,2,1,75,0,0
83495,-90.9090909090909,4,2,1,85,0,0
86495,-83.3333333333333,4,2,1,85,0,0
87620,-76.9230769230769,4,2,1,85,0,0
89495,-71.4285714285714,4,2,1,65,0,0
90995,-71.4285714285714,4,2,1,45,0,0
92495,-71.4285714285714,4,2,1,25,0,0
93620,-71.4285714285714,4,2,1,10,0,0

[Colours]
Combo1 : 255,106,89
Combo2 : 255,255,170

[HitObjects]
256,192,1182,12,2,3620,0:0:0:0:
0,106,3995,6,0,P|15:148|16:178,1,58.4999973220826,6|2,1:0|0:0,0:0:0:0:
45,171,4276,2,0,P|29:131|78:96,1,87.749995983124,2|2,0:0|0:0,0:0:0:0:
69,99,4651,1,2,0:0:0:0:
83,102,4745,2,0,L|151:93,1,58.4999973220826,2|2,0:0|0:0,0:0:0:0:
163,112,5026,2,0,B|175:144|175:144|177:175|177:175|192:207,1,87.749995983124,2|2,0:0|1:0,0:0:0:0:
86,266,5495,6,0,P|128:268|181:295,2,87.749995983124,2|2|2,1:0|0:0|0:0,0:0:0:0:
169,286,6245,2,0,B|302:270|217:314|357:289,1,175.499991966248,2|2,0:0|1:0,0:0:0:0:
266,334,6995,6,0,B|293:277|293:277|328:267|349:300,1,116.999994644165,6|10,1:0|0:1,0:0:0:0:
467,341,7745,2,0,B|475:313|475:313|481:268|441:226,1,116.999994644165,2|8,0:0|0:1,0:0:0:0:
359,104,8307,5,2,1:0:0:0:
422,156,8495,2,0,P|455:141|512:132,2,87.749995983124,2|2|2,1:0|0:0|0:0,0:0:0:0:
369,222,9245,1,2,0:0:0:0:
357,231,9620,2,0,L|368:293,1,58.4999973220826,10|2,0:1|0:0,0:0:0:0:
281,269,9995,6,0,P|273:229|261:190,1,76.5000014591217,6|0,1:0|3:0,0:0:0:0:
210,291,10370,2,0,P|202:251|190:212,1,76.5000014591217,0|0,1:0|3:0,0:0:0:0:
136,316,10745,2,0,P|128:276|116:237,1,76.5000014591217,2|0,1:0|3:0,0:0:0:0:
65,338,11120,2,0,P|57:298|45:259,1,76.5000014591217,0|0,1:0|3:0,0:0:0:0:
64,107,11495,6,0,L|145:88,1,76.5000014591217,2|0,1:0|3:0,0:0:0:0:
121,15,11870,2,0,L|138:89,1,76.5000014591217,0|0,1:0|3:0,0:0:0:0:
212,72,12245,2,0,L|137:89,1,76.5000014591217,2|0,1:0|3:0,0:0:0:0:
155,163,12620,2,0,L|137:88,1,76.5000014591217,8|0,1:0|1:0,0:0:0:0:
137,88,12995,5,6,1:0:0:0:
256,192,13088,12,2,14307,0:0:0:0:
288,35,14495,5,2,1:0:0:0:
288,42,14588,1,0,1:0:0:0:
289,50,14682,1,0,1:0:0:0:
290,57,14776,1,0,1:0:0:0:
290,65,14870,1,0,1:0:0:0:
291,73,14963,1,0,1:0:0:0:
292,80,15057,1,0,1:0:0:0:
293,88,15151,1,0,1:0:0:0:
293,95,15245,6,0,L|333:104,3,38.2500007295609,2|0|0|0,1:0|1:0|1:0|1:0,0:0:0:0:
296,175,15620,2,0,L|317:209,3,38.2500007295609,2|0|0|0,1:0|1:0|1:0|1:0,0:0:0:0:
265,171,15995,5,2,1:0:0:0:
265,269,16182,1,0,1:0:0:0:
148,162,16370,5,0,1:0:0:0:
173,256,16557,1,0,1:0:0:0:
42,186,16745,5,0,1:0:0:0:
90,270,16932,1,0,1:0:0:0:
148,162,17120,5,0,1:0:0:0:
148,162,17307,1,0,1:0:0:0:
97,79,17495,5,2,1:0:0:0:
97,79,17588,1,0,1:0:0:0:
97,79,17682,2,0,P|85:50|94:31,1,45,0|0,1:0|1:0,0:0:0:0:
237,129,17870,5,2,1:0:0:0:
237,129,17963,1,0,1:0:0:0:
237,129,18057,2,0,P|268:133|280:150,1,45,0|0,1:0|1:0,0:0:0:0:
107,237,18245,5,2,1:0:0:0:
107,237,18338,1,0,1:0:0:0:
107,237,18432,2,0,P|87:261|66:263,1,45,2|0,1:0|1:0,0:0:0:0:
115,362,18620,6,0,L|208:357,1,80.9999975280763,10|0,0:1|0:0,0:0:0:0:
427,297,18995,6,0,B|460:309|460:309|498:337|465:381,1,99.0000030212403,6|0,1:0|0:0,0:0:0:0:
390,262,19370,2,0,B|421:247|421:247|468:240|476:294,1,99.0000030212403,10|0,0:0|0:0,0:0:0:0:
355,227,19745,2,0,B|366:194|366:194|394:156|438:189,1,99.0000030212403,2|0,1:0|0:0,0:0:0:0:
324,192,20120,2,0,B|309:160|309:160|302:113|356:105,1,99.0000030212403,10|0,0:0|0:0,0:0:0:0:
409,4,20495,5,2,1:0:0:0:
457,65,20682,1,2,0:0:0:0:
338,110,20870,1,8,0:0:0:0:
476,234,21057,2,0,B|461:304|461:304|423:334|374:285,1,148.50000453186,2|8,0:0|0:0,0:0:0:0:
365,314,21432,1,0,1:0:0:0:
182,251,21620,1,10,0:0:0:0:
125,328,21807,5,0,1:0:0:0:
181,272,21995,2,0,B|225:268|225:268|235:272|235:272|284:267,1,99.0000030212403,2|0,1:0|0:0,0:0:0:0:
114,175,22370,2,0,B|70:171|70:171|60:175|60:175|11:170,1,99.0000030212403,10|0,0:0|0:0,0:0:0:0:
182,251,22745,2,0,B|226:247|226:247|236:251|236:251|285:246,1,99.0000030212403,2|0,1:0|0:0,0:0:0:0:
115,154,23120,2,0,B|71:150|71:150|61:154|61:154|12:149,1,99.0000030212403,10|0,0:0|0:0,0:0:0:0:
236,96,23495,5,2,1:0:0:0:
279,246,23682,1,2,0:0:0:0:
430,208,23870,1,10,0:0:0:0:
387,58,24057,1,2,0:0:0:0:
333,160,24245,5,2,1:0:0:0:
349,156,24338,1,8,0:0:0:0:
332,150,24432,1,0,1:0:0:0:
430,208,24620,2,0,P|459:161|501:142,1,99.0000030212403,10|2,0:0|1:0,0:0:0:0:
236,96,24995,6,0,P|207:49|61:54,1,198.000006042481,2|10,1:0|0:0,0:0:0:0:
117,155,25557,2,0,B|108:208|108:208|49:268|49:268|38:341,1,198.000006042481,2|2,1:0|1:0,0:0:0:0:
245,353,26120,2,0,B|281:337|281:337|322:337|337:373,1,99.0000030212403,10|0,0:0|1:0,0:0:0:0:
126,256,26495,5,2,1:0:0:0:
245,353,26682,1,2,1:0:0:0:
202,177,26870,5,10,1:2:0:0:
268,349,27057,1,2,1:0:0:0:
322,203,27245,5,2,1:0:0:0:
322,203,27432,1,2,1:0:0:0:
408,231,27620,1,10,1:2:0:0:
408,231,27713,1,0,1:0:0:0:
408,231,27807,2,0,L|468:222,1,49.5000015106202,2|0,1:0|1:0,0:0:0:0:
387,129,27995,6,0,P|419:172|318:194,1,198.000006042481,6|2,1:0|0:0,0:0:0:0:
266,24,28557,2,0,P|272:76|303:115,1,99.0000030212403,6|0,1:0|0:0,0:0:0:0:
230,250,28932,1,10,0:0:0:0:
163,95,29120,2,0,P|157:147|126:186,1,99.0000030212403,2|0,0:0|1:0,0:0:0:0:
230,250,29495,5,2,1:0:0:0:
230,250,29682,1,0,1:0:0:0:
31,188,29870,2,0,B|73:184|73:184|89:188|89:188|136:182,1,99.0000030212403,12|0,0:0|0:0,0:0:0:0:
343,147,30245,2,0,B|301:143|301:143|285:147|285:147|238:141,1,99.0000030212403,2|0,0:0|0:0,0:0:0:0:
312,29,30620,2,0,L|357:19,3,33.7500012874604,2|2|2|2,0:0|0:0|0:0|0:0,0:0:0:0:
274,14,30995,6,0,P|255:39|229:49,1,58.4999973220826,6|0,1:0|0:0,0:0:0:0:
300,113,31370,2,0,P|319:138|345:148,1,58.4999973220826,2|0,1:0|0:0,0:0:0:0:
273,207,31745,2,0,P|254:232|228:242,1,58.4999973220826,2|0,1:0|0:0,0:0:0:0:
261,338,32120,1,2,1:0:0:0:
261,338,32307,6,0,L|381:331,1,116.999994644165,2|2,0:0|0:0,0:0:0:0:
383,337,32776,1,2,0:0:0:0:
390,341,32870,2,0,P|421:356|445:385,1,58.4999973220826,2|2,1:0|0:0,0:0:0:0:
430,268,33245,2,0,P|460:282|484:311,1,58.4999973220826,2|0,1:0|0:0,0:0:0:0:
467,189,33620,1,2,1:0:0:0:
467,189,33807,6,0,B|408:179|443:164|354:149,1,116.999994644165,2|2,0:0|0:0,0:0:0:0:
262,113,34370,2,0,L|266:180,1,58.4999973220826,2|0,1:0|0:0,0:0:0:0:
180,84,34745,2,0,L|184:151,1,58.4999973220826,2|0,1:0|0:0,0:0:0:0:
180,84,35120,1,2,1:0:0:0:
180,84,35307,1,2,0:0:0:0:
91,101,35495,6,0,P|54:91|74:26,1,116.999994644165,2|2,1:0|1:0,0:0:0:0:
180,84,36057,2,0,P|203:131|156:157,1,116.999994644165,2|2,0:0|0:0,0:0:0:0:
91,101,36620,1,2,1:0:0:0:
91,101,36807,1,2,0:0:0:0:
321,40,37182,5,2,0:0:0:0:
321,40,37370,2,0,P|354:31|377:17,1,58.4999973220826,2|0,1:0|0:0,0:0:0:0:
417,86,37745,1,2,1:0:0:0:
417,86,37932,2,0,P|450:95|473:109,1,58.4999973220826,2|0,0:0|1:0,0:0:0:0:
413,182,38307,6,0,P|439:223|412:295,1,116.999994644165,2|2,0:0|0:0,0:0:0:0:
334,242,38870,1,2,1:0:0:0:
334,242,39057,2,0,P|308:201|314:123,1,116.999994644165,2|2,0:0|0:0,0:0:0:0:
334,242,39620,1,2,1:0:0:0:
334,242,39807,6,0,P|337:299|309:349,1,116.999994644165,2|2,0:0|0:0,0:0:0:0:
192,300,40370,2,0,L|258:288,1,58.4999973220826,2|0,1:0|0:0,0:0:0:0:
223,210,40745,2,0,L|158:225,1,58.4999973220826,2|0,1:0|0:0,0:0:0:0:
152,130,41120,1,2,1:0:0:0:
152,130,41307,1,2,1:0:0:0:
28,287,41682,6,0,L|38:344,1,58.4999973220826,0|10,0:0|0:0,0:0:0:0:
163,364,42057,2,0,B|208:361|208:361|231:366|231:366|285:363,1,116.999994644165,2|10,1:0|0:0,0:0:0:0:
394,290,42620,2,0,P|412:323|405:353,1,58.4999973220826,10|0,0:0|0:0,0:0:0:0:
304,251,42995,6,0,P|300:213|318:180,1,76.5000014591217,4|2,1:0|0:0,0:0:0:0:
230,124,43370,2,0,B|194:118|169:128|169:128|140:74|194:46,1,153.000002918243,10|2,0:0|1:0,0:0:0:0:
303,95,43932,2,0,B|334:112|361:112|361:112|370:172|310:180,2,153.000002918243,2|2|2,1:0|1:0|0:0,0:0:0:0:
265,19,44870,5,10,0:0:0:0:
428,76,45057,2,0,B|463:89|463:89|498:120|490:199,1,153.000002918243,2|0,1:0|1:0,0:0:0:0:
400,305,45620,2,0,P|445:295|488:291,1,76.5000014591217,8|2,0:0|1:0,0:0:0:0:
302,282,45995,6,0,P|312:327|316:370,1,76.5000014591217,2|0,1:0|0:0,0:0:0:0:
184,227,46370,2,0,P|174:272|170:315,1,76.5000014591217,10|0,0:0|0:0,0:0:0:0:
170,151,46745,1,2,1:0:0:0:
170,151,46932,1,0,1:0:0:0:
184,227,47120,2,0,P|174:182|170:139,1,76.5000014591217,8|2,0:0|0:0,0:0:0:0:
66,9,47495,6,0,P|61:46|52:84,1,76.5000014591217,2|2,1:0|0:0,0:0:0:0:
51,84,47870,1,10,0:0:0:0:
109,245,48057,2,0,L|191:225,1,76.5000014591217,0|2,1:0|0:0,0:0:0:0:
284,82,48432,5,8,0:0:0:0:
254,158,48620,1,8,0:0:0:0:
183,92,48807,1,10,0:0:0:0:
361,149,48995,6,0,B|395:167|395:167|415:191|401:222,1,90,6|0,1:0|3:0,0:0:0:0:
254,158,49370,2,0,B|220:176|220:176|200:200|214:231,1,90,10|0,0:0|3:0,0:0:0:0:
403,215,49745,2,0,P|448:206|498:206,1,90,2|0,1:0|3:0,0:0:0:0:
211,224,50120,2,0,P|166:215|116:215,1,90,10|8,0:0|3:0,0:0:0:0:
243,351,50495,6,0,B|299:346|299:346|342:358|342:358|423:349,2,180,2|10|2,1:0|0:0|1:0,0:0:0:0:
211,224,51432,1,2,3:0:0:0:
211,224,51620,2,0,P|201:175|205:133,1,90,10|10,0:0|3:0,0:0:0:0:
241,28,51995,5,6,1:0:0:0:
241,28,52182,1,2,1:0:0:0:
371,70,52370,1,10,0:0:0:0:
329,157,52557,2,0,P|339:206|335:248,1,90,2|0,1:0|1:0,0:0:0:0:
371,70,52932,2,0,B|411:63|411:63|420:64|420:64|462:55,1,90,2|8,1:0|0:0,0:0:0:0:
241,28,53307,2,0,B|201:21|201:21|192:22|192:22|150:13,1,90,2|0,1:0|1:0,0:0:0:0:
113,32,53588,1,0,1:0:0:0:
113,32,53682,6,0,L|125:78,1,45,2|0,1:0|1:0,0:0:0:0:
86,150,53870,2,0,L|98:196,1,45,2|0,1:0|1:0,0:0:0:0:
62,270,54057,2,0,L|74:316,1,45,2|0,1:0|1:0,0:0:0:0:
147,358,54245,5,0,1:0:0:0:
162,348,54338,1,0,1:0:0:0:
178,340,54432,1,0,1:0:0:0:
195,334,54526,1,0,1:0:0:0:
212,329,54620,1,0,1:0:0:0:
230,326,54713,1,0,1:0:0:0:
248,324,54807,1,0,1:0:0:0:
266,324,54901,1,0,1:0:0:0:
281,328,54995,6,0,P|292:286|285:229,1,90,2|0,1:0|0:0,0:0:0:0:
366,210,55370,2,0,P|344:172|298:137,1,90,2|0,0:0|0:0,0:0:0:0:
353,68,55745,2,0,P|318:56|261:63,1,90,2|0,0:0|0:0,0:0:0:0:
142,201,56120,6,0,P|165:200|155:219,1,49.5000015106202,2|2,0:0|0:0,0:0:0:0:
23,128,56495,6,0,P|77:96|125:95,1,107.999996704102,6|2,1:0|0:0,0:0:0:0:
150,97,56776,2,0,B|200:137|178:210|178:210|127:197,1,161.999995056152,2|2,0:0|0:0,0:0:0:0:
117,208,57151,1,2,0:0:0:0:
117,208,57245,1,2,1:0:0:0:
258,104,57432,1,2,0:0:0:0:
266,114,57526,2,0,B|316:108|316:108|350:121|350:121|439:110,1,161.999995056152,2|2,0:0|0:0,0:0:0:0:
291,203,57995,6,0,P|348:212|380:306,2,161.999995056152,2|2|2,1:0|0:0|0:0,0:0:0:0:
154,322,58745,2,0,B|123:349|123:349|258:319|258:319|215:361,1,215.999993408203,2|8,1:0|0:2,0:0:0:0:
207,243,59307,1,2,0:0:0:0:
366,286,59495,6,0,B|401:261|401:261|422:216|380:140,1,161.999995056152,2|0,1:0|0:0,0:0:0:0:
396,152,59870,2,0,B|434:220|413:265|413:265|378:290,1,161.999995056152,10|0,0:2|0:0,0:0:0:0:
422,356,60245,2,0,B|467:326|467:326|498:326|514:362,1,107.999996704102,2|0,1:0|0:0,0:0:0:0:
396,152,60620,2,0,B|351:122|351:122|320:122|304:158,1,107.999996704102,8|2,0:2|1:0,0:0:0:0:
501,145,60995,5,2,1:0:0:0:
249,46,61276,1,2,1:0:0:0:
259,55,61370,2,0,B|276:70|276:70|310:156,1,107.999996704102,8|2,0:2|1:0,0:0:0:0:
190,278,61745,2,0,B|128:286|112:220|112:220|79:169|9:189,1,215.999993408203,2|8,1:0|0:0,0:0:0:0:
18,186,62307,1,2,0:0:0:0:
190,278,62495,6,0,B|214:248|214:248|259:235|277:287,1,107.999996704102,6|2,1:0|0:0,0:0:0:0:
453,146,62870,2,0,L|462:201,1,53.9999983520508,10|2,0:0|0:0,0:0:0:0:
376,118,63057,2,0,L|367:173,1,53.9999983520508,2|2,0:0|0:0,0:0:0:0:
437,59,63245,2,0,B|449:13|403:0|403:0|368:17,1,107.999996704102,2|2,1:0|0:0,0:0:0:0:
361,30,63526,1,2,0:0:0:0:
346,47,63620,2,0,B|318:60|318:60|272:47|284:1,1,107.999996704102,10|2,0:0|0:0,0:0:0:0:
43,129,63995,5,2,1:0:0:0:
110,57,64182,1,2,0:0:0:0:
208,179,64370,1,10,0:0:0:0:
154,250,64557,1,2,0:0:0:0:
166,256,64651,2,0,B|206:346|206:346|192:384|145:367,1,161.999995056152,2|2,0:0|0:0,0:0:0:0:
326,320,65120,2,0,P|386:304|431:282,1,107.999996704102,8|2,0:0|0:0,0:0:0:0:
336,115,65495,5,6,1:0:0:0:
445,151,65682,1,2,0:0:0:0:
423,35,65870,1,10,0:0:0:0:
336,115,66057,2,0,B|357:172|357:172|350:200|325:211,1,107.999996704102,2|0,0:0|1:0,0:0:0:0:
183,44,66432,2,0,B|228:38|228:38|240:42|240:42|303:33,1,107.999996704102,2|8,0:0|0:0,0:0:0:0:
157,156,66807,5,2,1:0:0:0:
197,229,66995,2,0,P|238:261|236:322,1,107.999996704102,0|10,1:0|0:0,0:0:0:0:
157,156,67370,1,10,0:0:0:0:
280,165,67557,1,2,1:0:0:0:
82,232,67745,2,0,B|64:210|64:210|48:125,1,107.999996704102,2|0,0:0|1:0,0:0:0:0:
248,5,68120,5,10,0:0:0:0:
248,5,68213,1,8,0:0:0:0:
248,5,68307,2,0,P|259:22|248:33,1,33.7500012874604,10|8,0:0|0:0,0:0:0:0:
248,5,68495,6,0,L|361:-2,1,107.999996704102,6|2,1:0|0:0,0:0:0:0:
371,17,68776,2,0,B|425:45|425:45|461:94|433:147,1,161.999995056153,2|2,0:0|0:0,0:0:0:0:
472,320,69245,2,0,L|359:313,1,107.999996704102,2|2,1:0|0:0,0:0:0:0:
337,284,69526,2,0,B|392:276|392:276|433:297|433:297|497:286,1,161.999995056153,2|2,0:0|0:0,0:0:0:0:
237,197,69995,6,0,B|232:242|232:242|181:307|181:307|134:208,1,215.999993408203,2|10,1:0|0:0,0:0:0:0:
56,183,70557,1,2,0:0:0:0:
61,361,70745,2,0,B|64:335|76:313|76:313|62:288|34:273|34:273|-4:224|61:180,1,215.999993408203,2|8,1:0|0:0,0:0:0:0:
54,68,71307,1,2,0:0:0:0:
274,105,71495,6,0,B|301:47|368:53|368:53|380:76|356:111,1,161.999995056153,2|0,1:0|0:0,0:0:0:0:
362,112,71870,2,0,B|377:90|365:67|365:67|298:61|271:119,1,161.999995056153,10|0,0:0|0:0,0:0:0:0:
317,189,72245,2,0,B|339:242|339:242|335:276|305:280,1,107.999996704102,2|0,1:0|0:0,0:0:0:0:
272,118,72620,2,0,B|289:63|289:63|314:39|339:56,1,107.999996704102,10|0,0:0|0:0,0:0:0:0:
232,208,72995,6,0,P|182:184|114:183,1,107.999996704102,2|0,1:0|0:0,0:0:0:0:
228,230,73276,2,0,P|179:206|126:202,1,107.999996704102,2|0,0:0|0:0,0:0:0:0:
124,221,73557,1,2,0:0:0:0:
192,133,73745,1,2,1:0:0:0:
163,340,73932,5,8,0:0:0:0:
22,186,74120,2,0,P|3:135|32:78,1,107.999996704102,8|2,0:0|0:0,0:0:0:0:
353,28,74495,5,6,1:0:0:0:
370,120,74682,1,2,0:0:0:0:
390,212,74870,1,10,0:0:0:0:
428,61,75057,2,0,B|477:46|477:46|552:126|488:209,1,215.999993408203,2|2,0:0|0:0,0:0:0:0:
428,61,75620,1,10,0:0:0:0:
428,61,75807,1,2,0:0:0:0:
299,170,75995,6,0,B|255:155|255:155|222:106|222:106|160:72,1,161.999995056153,2|0,1:0|0:0,0:0:0:0:
148,73,76370,2,0,B|165:106|165:106|176:186,1,107.999996704102,10|2,0:0|0:0,0:0:0:0:
174,176,76745,1,2,1:0:0:0:
287,356,76932,2,0,B|304:323|304:323|315:243,1,107.999996704102,2|8,0:0|0:0,0:0:0:0:
174,176,77307,1,2,0:0:0:0:
287,356,77495,6,0,B|309:310|354:326|354:326|370:357,1,107.999996704102,2|2,1:0|0:0,0:0:0:0:
174,176,77870,2,0,B|152:130|107:146|107:146|91:177,1,107.999996704102,10|0,0:0|0:0,0:0:0:0:
123,251,78245,1,2,1:0:0:0:
218,56,78432,2,0,P|266:91|249:126,1,107.999996704102,2|8,0:0|0:0,0:0:0:0:
404,215,78807,1,10,1:2:0:0:
439,96,78995,5,8,1:2:0:0:
512,285,79182,1,8,1:2:0:0:
425,108,79370,1,8,1:2:0:0:
330,285,79557,1,2,1:0:0:0:
249,125,79745,2,0,L|308:116,3,53.9999983520508,10|10|10|10,0:0|0:0|0:0|0:0,0:0:0:0:
190,197,80120,5,10,0:0:0:0:
194,249,80213,1,10,0:0:0:0:
161,290,80307,1,10,0:0:0:0:
109,298,80401,1,10,0:0:0:0:
66,268,80495,1,6,1:0:0:0:
256,192,80588,12,0,83120,0:0:0:0:
88,105,83495,5,4,1:0:0:0:
164,152,83682,2,0,P|179:220|184:262,1,99.0000030212403,2|10,0:0|0:0,0:0:0:0:
94,357,84057,2,0,P|79:289|74:247,1,99.0000030212403,2|0,0:0|1:0,0:0:0:0:
164,152,84432,1,2,0:0:0:0:
318,262,84620,5,10,0:0:0:0:
318,262,84807,2,0,B|267:244|267:244|227:182|227:182|157:148,1,198.000006042481,2|2,0:0|1:0,0:0:0:0:
57,143,85370,5,10,0:2:0:0:
116,49,85557,1,2,1:0:0:0:
238,57,85745,5,10,0:2:0:0:
163,151,85932,1,10,0:2:0:0:
57,143,86120,1,10,0:2:0:0:
163,151,86307,1,10,0:2:0:0:
96,324,86495,6,0,B|49:288|49:288|0:213|59:142,1,215.999993408203,4|2,1:0|0:0,0:0:0:0:
265,154,87057,2,0,B|335:241|335:241|349:295|302:336,1,215.999993408203,4|2,1:0|0:0,0:0:0:0:
163,151,87620,6,0,B|235:141|235:141|304:171|304:171|413:156,1,233.999989288331,4|2,1:0|0:0,0:0:0:0:
494,185,88182,1,4,1:0:0:0:
256,192,88276,12,0,93995,0:1:0:0:
