osu file format v14

[General]
AudioFilename: audio.mp3
AudioLeadIn: 0
PreviewTime: 56026
Countdown: 0
SampleSet: Soft
StackLeniency: 0.7
Mode: 0
LetterboxInBreaks: 0
WidescreenStoryboard: 0

[Editor]
DistanceSpacing: 1.2
BeatDivisor: 4
GridSize: 32
TimelineZoom: 1.7

[Metadata]
Title:Alteration
TitleUnicode:Alteration
Artist:ZAQ
ArtistUnicode:ZAQ
Creator:Adinda
Version:Hard
Source:ささみさん@がんばらない
Tags:anime japanese opening op Sasami-san@Ganbaranai Sasami-san@Unmotivated Sasami-san at Ganbaranai cut version jpop pop j-pop
BeatmapID:2561534
BeatmapSetID:1231802

[Difficulty]
HPDrainRate:4.5
CircleSize:3.8
OverallDifficulty:6.5
ApproachRate:7.5
SliderMultiplier:1.5
SliderTickRate:1

[Events]
//Background and Video events
0,0,"a.jpg",0,0
//Break Periods
//Storyboard Layer 0 (Background)
//Storyboard Layer 1 (Fail)
//Storyboard Layer 2 (Pass)
//Storyboard Layer 3 (Foreground)
//Storyboard Layer 4 (Overlay)
//Storyboard Sound Samples

[TimingPoints]
3995,375,4,2,1,65,1,0
3995,-111.111111111111,4,2,1,65,0,0
9995,-111.111111111111,4,2,1,75,0,0
14120,-111.111111111111,4,2,1,65,0,0
14495,-111.111111111111,4,2,1,55,0,0
15245,-111.111111111111,4,2,1,60,0,0
15620,-111.111111111111,4,2,1,65,0,0
15995,-111.111111111111,4,2,1,70,0,0
17495,-111.111111111111,4,2,1,65,0,0
17870,-111.111111111111,4,2,1,70,0,0
18245,-111.111111111111,4,2,1,75,0,0
18620,-111.111111111111,4,2,1,80,0,0
18995,-100,4,2,1,85,0,0
30620,-100,4,2,1,75,0,0
30995,-111.111111111111,4,2,1,65,0,0
42995,-111.111111111111,4,2,1,75,0,0
48995,-111.111111111111,4,2,1,80,0,0
54995,-111.111111111111,4,2,1,70,0,0
56120,-111.111111111111,4,2,1,60,0,0
56495,-90.9090909090909,4,2,1,95,0,1
60151,-90.9090909090909,4,2,1,5,0,1
60245,-90.9090909090909,4,2,1,95,0,1
68120,-90.9090909090909,4,2,1,95,0,0
68495,-90.9090909090909,4,2,1,95,0,1
72151,-90.9090909090909,4,2,1,5,0,1
72245,-90.9090909090909,4,2,1,95,0,1
73182,-90.9090909090909,4,2,1,5,0,1
73276,-90.9090909090909,4,2,1,95,0,1
73463,-90.9090909090909,4,2,1,5,0,1
73557,-90.9090909090909,4,2,1,95,0,1
76276,-90.9090909090909,4,2,1,5,0,1
76370,-90.9090909090909,4,2,1,95,0,1
80495,-90.9090909090909,4,2,1,85,0,0
83120,-90.9090909090909,4,2,1,75,0,0
83495,-100,4,2,1,85,0,0
89495,-100,4,2,1,65,0,0
90995,-100,4,2,1,45,0,0
92495,-100,4,2,1,25,0,0
93620,-100,4,2,1,10,0,0

[Colours]
Combo1 : 255,106,89
Combo2 : 255,255,170

[HitObjects]
256,192,1182,12,2,3620,0:0:0:0:
28,116,3995,6,0,P|69:106|138:102,1,101.249996910095,6|2,1:0|0:0,0:0:0:0:
174,216,4557,1,2,0:0:0:0:
174,216,4651,1,2,0:0:0:0:
174,216,4745,2,0,P|179:257|221:309,1,101.249996910095,2|2,0:0|0:0,0:0:0:0:
328,344,5307,5,2,1:0:0:0:
388,291,5495,2,0,L|374:186,2,101.249996910095,2|2|2,1:0|0:0|0:0,0:0:0:0:
463,320,6245,2,0,P|490:291|475:136,1,202.499993820191,2|2,0:0|1:0,0:0:0:0:
442,67,6995,6,0,B|360:57|389:86|291:66,1,134.999995880127,6|10,1:0|0:1,0:0:0:0:
147,48,7745,2,0,B|65:58|94:29|-4:49,1,134.999995880127,2|8,0:0|0:1,0:0:0:0:
15,127,8308,5,2,1:0:0:0:
92,149,8495,2,0,P|138:154|184:181,2,101.249996910095,2|2|2,1:0|0:0|0:0,0:0:0:0:
39,210,9245,1,2,0:0:0:0:
191,265,9620,2,0,L|264:257,1,67.4999979400635,10|2,0:1|0:0,0:0:0:0:
311,196,9995,6,0,P|314:158|323:126,1,67.4999979400635,6|0,1:0|3:0,0:0:0:0:
400,109,10370,2,0,P|403:71|412:39,1,67.4999979400635,0|0,1:0|3:0,0:0:0:0:
485,73,10745,2,0,P|505:118|510:208,1,134.999995880127,2|0,1:0|1:0,0:0:0:0:
510,283,11307,1,0,3:0:0:0:
498,363,11495,6,0,L|423:352,1,67.4999979400635,2|0,1:0|3:0,0:0:0:0:
421,272,11870,2,0,L|346:283,1,67.4999979400635,0|0,1:0|3:0,0:0:0:0:
331,359,12245,2,0,L|256:348,1,67.4999979400635,2|0,1:0|3:0,0:0:0:0:
254,268,12620,2,0,L|179:279,1,67.4999979400635,8|0,1:0|1:0,0:0:0:0:
107,293,12995,5,6,1:0:0:0:
256,192,13088,12,2,14120,0:0:0:0:
352,35,14495,6,0,P|365:75|380:251,1,202.499993820191,2|0,1:0|0:0,0:0:0:0:
307,288,15245,2,0,L|234:271,1,67.4999979400635,2|0,1:0|0:0,0:0:0:0:
196,205,15620,2,0,L|269:188,1,67.4999979400635,2|0,1:0|0:0,0:0:0:0:
271,109,15995,5,2,1:0:0:0:
271,109,16182,1,0,1:0:0:0:
196,76,16370,1,0,1:0:0:0:
196,76,16557,1,0,1:0:0:0:
133,128,16745,1,0,1:0:0:0:
133,128,16932,1,0,1:0:0:0:
101,53,17120,2,0,P|61:40|26:39,1,67.4999979400635,0|0,1:0|1:0,0:0:0:0:
9,115,17495,5,2,1:0:0:0:
9,115,17588,1,0,1:0:0:0:
9,115,17682,2,0,P|13:152|13:186,1,67.4999979400635,0|2,1:0|1:0,0:0:0:0:
54,252,18057,1,0,1:0:0:0:
54,252,18151,1,0,1:0:0:0:
54,252,18245,2,0,L|98:246,3,33.7499989700318,2|0|2|0,1:0|1:0|1:0|1:0,0:0:0:0:
122,267,18620,2,0,L|191:253,1,67.4999979400635,10|0,0:1|0:0,0:0:0:0:
258,196,18995,6,0,P|254:154|255:113,1,75,6|0,1:0|0:0,0:0:0:0:
333,77,19370,2,0,P|337:119|336:160,1,75,10|0,0:0|0:0,0:0:0:0:
377,232,19745,2,0,L|452:217,1,75,2|0,1:0|0:0,0:0:0:0:
480,302,20120,2,0,L|406:316,1,75,10|0,0:0|0:0,0:0:0:0:
318,298,20495,5,2,1:0:0:0:
318,298,20682,1,2,0:0:0:0:
228,285,20870,1,10,0:0:0:0:
228,285,21057,1,2,0:0:0:0:
287,216,21245,2,0,L|345:204,2,37.5,0|8|0,1:0|0:0|1:0,0:0:0:0:
198,196,21620,2,0,P|189:153|187:119,1,75,10|0,0:0|1:0,0:0:0:0:
275,102,21995,6,0,L|363:88,1,75,2|0,1:0|0:0,0:0:0:0:
305,11,22370,2,0,L|230:22,1,75,10|0,0:0|0:0,0:0:0:0:
141,10,22745,2,0,P|125:44|126:81,1,75,2|0,1:0|0:0,0:0:0:0:
39,106,23120,2,0,P|23:140|24:177,1,75,10|0,0:0|0:0,0:0:0:0:
71,253,23495,5,2,1:0:0:0:
71,253,23682,1,2,0:0:0:0:
161,248,23870,1,10,0:0:0:0:
161,248,24057,1,2,0:0:0:0:
251,248,24245,2,0,L|306:231,2,37.5,2|8|0,1:0|0:0|1:0,0:0:0:0:
285,331,24620,1,10,0:0:0:0:
372,310,24807,1,2,1:0:0:0:
461,323,24995,6,0,P|485:284|438:193,1,150,2|10,1:0|0:0,0:0:0:0:
458,107,25557,2,0,B|415:106|415:106|372:116|372:116|297:113,1,150,2|2,1:0|1:0,0:0:0:0:
219,103,26120,2,0,P|234:144|242:189,1,75,10|0,0:0|1:0,0:0:0:0:
318,218,26495,5,2,1:0:0:0:
318,218,26682,1,2,1:0:0:0:
301,306,26870,1,10,1:2:0:0:
301,306,27057,1,2,1:0:0:0:
212,288,27245,1,2,1:0:0:0:
212,288,27432,1,2,1:0:0:0:
224,198,27620,1,10,1:2:0:0:
224,198,27807,1,2,1:0:0:0:
140,232,27995,6,0,P|95:214|88:116,1,150,6|2,1:0|0:0,0:0:0:0:
67,33,28557,2,0,P|128:18|160:17,1,75,6|0,1:0|0:0,0:0:0:0:
226,41,28932,1,10,0:0:0:0:
313,63,29120,2,0,P|350:58|386:50,1,75,2|0,0:0|1:0,0:0:0:0:
472,62,29495,6,0,L|490:150,1,75,2|0,1:0|1:0,0:0:0:0:
425,201,29870,2,0,B|454:233|454:233|466:280|434:344,1,150,14|2,0:0|0:0,0:0:0:0:
288,235,30620,2,0,L|283:195,3,37.5,2|2|2|2,0:0|0:0|0:0|0:0,0:0:0:0:
265,161,30995,6,0,P|260:123|251:86,1,67.4999979400635,6|0,1:0|0:0,0:0:0:0:
190,43,31370,2,0,P|152:48|115:57,1,67.4999979400635,2|0,1:0|0:0,0:0:0:0:
88,127,31745,2,0,P|93:165|102:202,1,67.4999979400635,2|0,1:0|0:0,0:0:0:0:
173,226,32120,1,2,1:0:0:0:
173,226,32307,6,0,P|204:258|212:362,1,134.999995880127,2|2,0:0|0:0,0:0:0:0:
256,359,32776,1,2,0:0:0:0:
256,359,32870,2,0,P|299:348|329:346,1,67.4999979400635,2|2,1:0|0:0,0:0:0:0:
361,275,33245,2,0,P|327:271|295:262,1,67.4999979400635,2|0,1:0|0:0,0:0:0:0:
259,189,33620,1,2,1:0:0:0:
259,189,33807,1,2,0:0:0:0:
320,39,34182,5,2,0:0:0:0:
320,39,34370,2,0,P|353:35|385:26,1,67.4999979400635,2|0,1:0|0:0,0:0:0:0:
449,76,34745,2,0,L|469:146,1,67.4999979400635,2|0,1:0|0:0,0:0:0:0:
473,221,35120,2,0,L|493:291,1,67.4999979400635,2|2,1:0|0:0,0:0:0:0:
431,340,35495,6,0,B|395:333|395:333|359:306|359:306|296:288,1,134.999995880127,2|2,1:0|1:0,0:0:0:0:
347,220,36057,2,0,B|311:213|311:213|275:186|275:186|212:168,1,134.999995880127,2|2,0:0|0:0,0:0:0:0:
194,95,36620,1,2,1:0:0:0:
194,95,36807,1,2,0:0:0:0:
44,33,37182,5,2,0:0:0:0:
44,33,37370,2,0,P|84:23|122:20,1,67.4999979400635,2|0,1:0|0:0,0:0:0:0:
103,101,37745,1,2,1:0:0:0:
103,101,37933,2,0,P|63:111|25:114,1,67.4999979400635,2|0,0:0|1:0,0:0:0:0:
28,193,38307,6,0,P|77:185|143:242,1,134.999995880127,2|2,0:0|0:0,0:0:0:0:
185,302,38870,1,2,1:0:0:0:
185,302,39057,2,0,P|237:290|321:289,1,134.999995880127,2|2,0:0|0:0,0:0:0:0:
308,207,39620,1,2,1:0:0:0:
308,207,39807,6,0,B|290:166|290:166|283:129|316:71,1,134.999995880127,2|2,0:0|0:0,0:0:0:0:
392,73,40370,2,0,P|431:64|465:60,2,67.4999979400635,2|0|2,1:0|0:0|1:0,0:0:0:0:
423,147,40932,2,0,P|435:179|434:215,1,67.4999979400635,0|2,0:0|1:0,0:0:0:0:
496,264,41307,1,2,1:0:0:0:
374,371,41682,6,0,L|294:361,1,67.4999979400635,0|10,0:0|0:0,0:0:0:0:
256,299,42057,2,0,B|254:255|254:255|222:220|222:220|222:166,1,134.999995880127,2|10,1:0|0:0,0:0:0:0:
303,179,42620,2,0,P|352:168|376:167,1,67.4999979400635,10|0,0:0|0:0,0:0:0:0:
399,91,42995,6,0,P|365:87|332:79,1,67.4999979400635,4|2,1:0|0:0,0:0:0:0:
270,27,43370,2,0,P|235:68|154:82,1,134.999995880127,10|2,0:0|1:0,0:0:0:0:
170,162,43932,2,0,B|205:204|205:204|220:236|216:289,2,134.999995880127,2|2|2,1:0|1:0|0:0,0:0:0:0:
96,196,44870,5,10,0:0:0:0:
17,177,45057,2,0,P|8:129|41:39,1,134.999995880127,2|0,1:0|1:0,0:0:0:0:
112,30,45620,2,0,L|192:12,1,67.4999979400635,8|2,0:0|1:0,0:0:0:0:
236,71,45995,6,0,P|273:83|300:110,1,67.4999979400635,2|0,1:0|0:0,0:0:0:0:
280,181,46370,2,0,P|297:215|297:253,1,67.4999979400635,10|0,0:0|0:0,0:0:0:0:
374,273,46745,2,0,B|422:268|422:268|459:277|459:277|509:270,1,134.999995880127,2|8,1:0|0:0,0:0:0:0:
501,350,47307,1,2,0:0:0:0:
421,367,47495,6,0,P|379:358|333:357,1,67.4999979400635,2|2,1:0|0:0,0:0:0:0:
289,307,47870,2,0,P|247:316|201:317,1,67.4999979400635,10|0,0:0|1:0,0:0:0:0:
141,323,48245,2,0,P|114:276|116:193,1,134.999995880127,2|8,0:0|0:0,0:0:0:0:
161,130,48807,1,10,0:0:0:0:
241,137,48995,6,0,P|290:130|321:128,1,67.4999979400635,6|0,1:0|3:0,0:0:0:0:
385,103,49370,2,0,P|378:54|376:23,1,67.4999979400635,10|0,0:0|3:0,0:0:0:0:
298,12,49745,2,0,P|264:15|231:20,1,67.4999979400635,2|0,1:0|3:0,0:0:0:0:
153,44,50120,2,0,P|119:47|86:52,1,67.4999979400635,10|8,0:0|3:0,0:0:0:0:
78,133,50495,6,0,P|97:161|102:265,2,134.999995880127,2|10|2,1:0|0:0|1:0,0:0:0:0:
29,197,51432,1,2,3:0:0:0:
29,197,51620,2,0,P|23:244|23:270,1,67.4999979400635,10|10,0:0|3:0,0:0:0:0:
104,259,51995,6,0,L|183:248,1,67.4999979400635,6|2,1:0|1:0,0:0:0:0:
210,178,52370,1,10,0:0:0:0:
210,178,52557,2,0,L|289:167,1,67.4999979400635,2|0,1:0|1:0,0:0:0:0:
321,101,52932,2,0,P|361:128|375:217,1,134.999995880127,2|2,1:0|1:0,0:0:0:0:
446,252,53495,5,0,1:0:0:0:
480,179,53682,1,2,1:0:0:0:
480,179,53776,1,0,1:0:0:0:
480,179,53870,2,0,P|483:140|475:108,1,67.4999979400635,2|2,1:0|1:0,0:0:0:0:
448,36,54245,2,0,L|414:35,3,33.7499989700318,0|0|0|0,1:0|1:0|1:0|1:0,0:0:0:0:
383,8,54620,2,0,L|350:15,3,33.7499989700318,0|0|0|0,1:0|1:0|1:0|1:0,0:0:0:0:
310,22,54995,6,0,P|298:55|204:77,2,134.999995880127,2|2|2,1:0|0:0|0:0,0:0:0:0:
379,168,56120,2,0,P|389:204|393:238,1,67.4999979400635,2|2,0:0|0:0,0:0:0:0:
306,283,56495,6,0,P|296:247|291:195,1,82.5000025177003,6|2,1:0|0:0,0:0:0:0:
268,158,56776,1,2,0:0:0:0:
132,98,57057,1,2,0:0:0:0:
132,98,57151,1,2,0:0:0:0:
132,98,57245,2,0,P|78:112|49:132,1,82.5000025177003,2|2,1:0|0:0,0:0:0:0:
65,175,57526,2,0,P|55:235|59:317,1,123.75000377655,2|2,0:0|0:0,0:0:0:0:
143,344,57995,6,0,L|281:336,2,123.75000377655,2|2|2,1:0|0:0|0:0,0:0:0:0:
56,297,58745,2,0,B|72:202|16:244|37:122,1,165.000005035401,2|8,1:0|0:2,0:0:0:0:
58,41,59307,1,2,0:0:0:0:
147,83,59495,6,0,P|169:124|179:175,1,82.5000025177003,2|0,1:0|0:0,0:0:0:0:
217,249,59870,2,0,P|247:216|334:223,1,123.75000377655,10|0,0:2|0:0,0:0:0:0:
371,213,60245,2,0,L|459:204,1,82.5000025177003,2|0,1:0|0:0,0:0:0:0:
481,109,60620,1,8,0:2:0:0:
395,59,60807,1,2,1:0:0:0:
295,56,60995,6,0,B|250:70|250:70|222:100|234:149,1,123.75000377655,2|2,1:0|1:0,0:0:0:0:
271,171,61370,1,8,0:2:0:0:
217,249,61557,1,2,1:0:0:0:
145,180,61745,2,0,B|99:135|99:135|52:74|133:38,1,165.000005035401,2|8,1:0|0:0,0:0:0:0:
206,23,62307,1,2,0:0:0:0:
295,56,62495,6,0,L|398:38,1,82.5000025177003,6|2,1:0|0:0,0:0:0:0:
377,141,62870,2,0,L|421:143,3,41.2500012588501,10|2|2|2,0:0|0:0|0:0|0:0,0:0:0:0:
446,183,63245,2,0,P|463:222|468:269,1,82.5000025177003,2|2,1:0|0:0,0:0:0:0:
441,302,63526,1,2,0:0:0:0:
441,302,63620,2,0,L|352:284,1,82.5000025177003,10|2,0:0|0:0,0:0:0:0:
279,228,63995,6,0,L|190:246,1,82.5000025177003,2|2,1:0|0:0,0:0:0:0:
235,152,64370,2,0,L|146:134,1,82.5000025177003,10|2,0:0|0:0,0:0:0:0:
150,86,64651,1,2,0:0:0:0:
19,15,64932,2,0,P|-1:74|8:189,1,165.000005035401,2|2,0:0|0:0,0:0:0:0:
78,240,65495,5,6,1:0:0:0:
175,256,65682,1,2,0:0:0:0:
255,315,65870,1,10,0:0:0:0:
255,315,66057,2,0,B|304:313|304:313|359:333|359:333|428:330,1,165.000005035401,2|2,0:0|0:0,0:0:0:0:
423,231,66620,1,8,0:0:0:0:
327,206,66807,6,0,P|305:171|306:123,1,82.5000025177003,2|0,1:0|1:0,0:0:0:0:
351,43,67182,1,10,0:0:0:0:
351,43,67370,2,0,L|445:31,1,82.5000025177003,10|2,0:0|1:0,0:0:0:0:
385,120,67745,2,0,L|303:130,1,82.5000025177003,2|0,0:0|1:0,0:0:0:0:
211,93,68120,1,10,0:0:0:0:
211,93,68213,1,8,0:0:0:0:
211,93,68307,1,10,0:0:0:0:
238,188,68495,6,0,P|263:218|267:269,1,82.5000025177003,6|2,1:0|0:0,0:0:0:0:
316,274,68776,1,2,0:0:0:0:
464,280,69057,1,2,0:0:0:0:
388,348,69245,2,0,P|330:356|268:360,1,82.5000025177003,2|2,1:0|0:0,0:0:0:0:
256,358,69526,2,0,B|186:349|227:315|130:306,1,123.75000377655,2|2,0:0|0:0,0:0:0:0:
68,369,69995,6,0,P|49:328|50:204,1,165.000005035401,2|10,1:0|0:0,0:0:0:0:
5,120,70557,1,2,0:0:0:0:
86,71,70745,2,0,L|269:53,1,165.000005035401,2|8,1:0|0:0,0:0:0:0:
344,83,71307,1,2,0:0:0:0:
267,145,71495,6,0,P|229:162|198:195,1,82.5000025177003,2|0,1:0|0:0,0:0:0:0:
199,290,71870,2,0,L|333:276,1,123.75000377655,10|0,0:0|0:0,0:0:0:0:
368,260,72245,2,0,P|381:293|394:348,1,82.5000025177003,2|0,1:0|0:0,0:0:0:0:
476,285,72620,2,0,P|485:244|500:206,1,82.5000025177003,10|0,0:0|0:0,0:0:0:0:
421,146,72995,6,0,L|336:138,1,82.5000025177003,2|0,1:0|0:0,0:0:0:0:
333,88,73276,2,0,L|248:80,1,82.5000025177003,2|0,0:0|0:0,0:0:0:0:
213,47,73557,1,2,0:0:0:0:
116,22,73745,2,0,P|52:52|61:146,1,165.000005035401,2|8,1:0|0:0,0:0:0:0:
12,227,74307,1,2,0:0:0:0:
111,224,74495,6,0,P|124:270|129:310,2,82.5000025177003,6|2|10,1:0|0:0|0:0,0:0:0:0:
182,158,75057,2,0,B|169:103|169:103|131:87|131:87|114:16,1,165.000005035401,2|2,0:0|0:0,0:0:0:0:
214,26,75620,2,0,P|260:22|305:22,1,82.5000025177003,10|2,0:0|0:0,0:0:0:0:
292,120,75995,6,0,P|332:158|363:268,1,165.000005035401,2|10,1:0|0:0,0:0:0:0:
280,315,76557,2,0,P|271:258|271:228,1,82.5000025177003,2|2,0:0|1:0,0:0:0:0:
363,260,76932,2,0,P|444:259|449:346,1,165.000005035401,2|2,0:0|0:0,0:0:0:0:
367,366,77495,5,2,1:0:0:0:
367,366,77682,1,2,0:0:0:0:
280,315,77870,2,0,P|200:305|105:303,1,165.000005035401,10|2,0:0|1:0,0:0:0:0:
156,212,78432,2,0,P|167:160|160:123,1,82.5000025177003,2|8,0:0|0:0,0:0:0:0:
94,59,78807,1,10,1:2:0:0:
1,95,78995,6,0,P|-2:135|7:175,1,82.5000025177003,8|8,1:2|1:2,0:0:0:0:
23,278,79370,2,0,P|19:318|29:358,1,82.5000025177003,8|2,1:2|1:0,0:0:0:0:
128,348,79745,2,0,L|172:342,3,41.2500012588501,10|10|10|10,0:0|0:0|0:0|0:0,0:0:0:0:
207,311,80120,2,0,L|251:305,3,41.2500012588501,10|10|10|10,0:0|0:0|0:0|0:0,0:0:0:0:
295,318,80495,1,6,1:0:0:0:
256,192,80588,12,0,83120,0:0:0:0:
269,21,83495,6,0,P|292:68|302:175,1,150,4|10,1:0|0:0,0:0:0:0:
323,251,84057,2,0,B|279:246|279:246|229:215|229:215|174:207,1,150,2|2,0:0|0:0,0:0:0:0:
104,163,84620,1,10,0:0:0:0:
136,77,84807,2,0,P|193:33|285:23,1,150,2|2,0:0|1:0,0:0:0:0:
356,41,85370,5,10,0:2:0:0:
356,41,85557,1,2,1:0:0:0:
378,128,85745,1,10,0:2:0:0:
378,128,85932,1,10,0:2:0:0:
289,110,86120,1,10,0:2:0:0:
289,110,86307,1,10,0:2:0:0:
311,195,86495,6,0,P|352:231|363:324,1,150,4|2,1:0|0:0,0:0:0:0:
274,337,87057,2,0,B|239:306|239:306|219:272|221:196,1,150,4|2,1:0|0:0,0:0:0:0:
174,126,87620,6,0,B|126:123|96:148|96:148|53:149|35:108,1,150,4|2,1:0|0:0,0:0:0:0:
23,29,88182,1,4,1:0:0:0:
256,192,88276,12,0,93995,0:0:0:0:
