osu file format v14

[General]
AudioFilename: audio.mp3
AudioLeadIn: 0
PreviewTime: 56026
Countdown: 0
SampleSet: Soft
StackLeniency: 0.7
Mode: 0
LetterboxInBreaks: 0
WidescreenStoryboard: 0

[Editor]
DistanceSpacing: 0.95
BeatDivisor: 4
GridSize: 32
TimelineZoom: 1.7

[Metadata]
Title:Alteration
TitleUnicode:Alteration
Artist:ZAQ
ArtistUnicode:ZAQ
Creator:Adinda
Version:Expert
Source:ささみさん@がんばらない
Tags:anime japanese opening op Sasami-san@Ganbaranai Sasami-san@Unmotivated Sasami-san at Ganbaranai cut version jpop pop j-pop
BeatmapID:2560692
BeatmapSetID:1231802

[Difficulty]
HPDrainRate:5.5
CircleSize:4.2
OverallDifficulty:8.5
ApproachRate:9.3
SliderMultiplier:1.9
SliderTickRate:1

[Events]
//Background and Video events
0,0,"a.jpg",0,0
//Break Periods
//Storyboard Layer 0 (Background)
//Storyboard Layer 1 (Fail)
//Storyboard Layer 2 (Pass)
//Storyboard Layer 3 (Foreground)
//Storyboard Layer 4 (Overlay)
//Storyboard Sound Samples

[TimingPoints]
3995,375,4,2,1,65,1,0
3995,-153.846153846153,4,2,1,65,0,0
9995,-117.647058823529,4,2,1,75,0,0
14307,-117.647058823529,4,2,1,65,0,0
14495,-117.647058823529,4,2,1,55,0,0
15245,-117.647058823529,4,2,1,60,0,0
15620,-117.647058823529,4,2,1,65,0,0
15995,-117.647058823529,4,2,1,70,0,0
16745,-111.111111111111,4,2,1,70,0,0
17495,-100,4,2,1,65,0,0
17870,-100,4,2,1,70,0,0
18245,-100,4,2,1,75,0,0
18620,-111.111111111111,4,2,1,80,0,0
18995,-83.3333333333333,4,2,1,85,0,0
25276,-83.3333333333333,4,2,1,5,0,0
25370,-83.3333333333333,4,2,1,85,0,0
30620,-133.333333333333,4,2,1,75,0,0
30995,-153.846153846153,4,2,1,65,0,0
42995,-117.647058823529,4,2,1,75,0,0
48995,-100,4,2,1,80,0,0
54995,-100,4,2,1,70,0,0
56120,-181.818181818181,4,2,1,60,0,0
56495,-66.6666666666667,4,2,1,95,0,1
56963,-66.6666666666667,4,2,1,5,0,1
57057,-66.6666666666667,4,2,1,95,0,1
57713,-66.6666666666667,4,2,1,5,0,1
57807,-66.6666666666667,4,2,1,95,0,1
59776,-66.6666666666667,4,2,1,5,0,1
59870,-66.6666666666667,4,2,1,95,0,1
60151,-66.6666666666667,4,2,1,5,0,1
60245,-66.6666666666667,4,2,1,95,0,1
60526,-66.6666666666667,4,2,1,5,0,1
60620,-66.6666666666667,4,2,1,95,0,1
64838,-66.6666666666667,4,2,1,5,0,1
64932,-66.6666666666667,4,2,1,95,0,1
68307,-133.333333333333,4,2,1,95,0,0
68495,-66.6666666666667,4,2,1,95,0,1
68963,-66.6666666666667,4,2,1,5,0,1
69057,-133.333333333333,4,2,1,95,0,1
69151,-133.333333333333,4,2,1,5,0,1
69245,-66.6666666666667,4,2,1,95,0,1
69713,-66.6666666666667,4,2,1,5,0,1
69807,-66.6666666666667,4,2,1,95,0,1
71776,-66.6666666666667,4,2,1,5,0,1
71870,-66.6666666666667,4,2,1,95,0,1
72151,-66.6666666666667,4,2,1,5,0,1
72245,-66.6666666666667,4,2,1,95,0,1
72526,-66.6666666666667,4,2,1,5,0,1
72620,-66.6666666666667,4,2,1,95,0,1
72901,-66.6666666666667,4,2,1,5,0,1
72995,-66.6666666666667,4,2,1,95,0,1
73182,-66.6666666666667,4,2,1,5,0,1
73276,-66.6666666666667,4,2,1,95,0,1
73463,-66.6666666666667,4,2,1,5,0,1
73557,-100,4,2,1,95,0,1
73651,-100,4,2,1,5,0,1
73745,-100,4,2,1,95,0,1
74870,-66.6666666666667,4,2,1,95,0,1
80495,-66.6666666666667,4,2,1,85,0,0
83120,-66.6666666666667,4,2,1,75,0,0
83495,-83.3333333333333,4,2,1,85,0,0
86495,-76.9230769230769,4,2,1,85,0,0
87620,-71.4285714285714,4,2,1,85,0,0
89495,-71.4285714285714,4,2,1,65,0,0
90995,-71.4285714285714,4,2,1,45,0,0
92495,-71.4285714285714,4,2,1,25,0,0
93620,-71.4285714285714,4,2,1,10,0,0

[Colours]
Combo1 : 255,106,89
Combo2 : 255,255,170

[HitObjects]
256,192,1182,12,2,3620,0:0:0:0:
151,185,3995,6,0,P|145:153|143:123,1,61.7499971733095,6|2,1:0|0:0,0:0:0:0:
180,90,4276,2,0,B|217:89|217:89|235:101|235:101|271:99,1,92.6249957599642,2|2,0:0|0:0,0:0:0:0:
351,127,4651,1,2,0:0:0:0:
349,138,4745,2,0,L|417:133,1,61.7499971733095,2|2,0:0|0:0,0:0:0:0:
447,166,5026,2,0,B|440:208|450:229|450:229|437:257,1,92.6249957599642,2|2,0:0|1:0,0:0:0:0:
320,329,5495,6,0,P|365:331|409:350,2,92.6249957599642,2|2|2,1:0|0:0|0:0,0:0:0:0:
108,376,6245,2,0,B|139:318|101:277|101:277|86:232|128:194,1,185.249991519928,2|2,0:0|1:0,0:0:0:0:
178,141,6995,6,0,P|130:158|53:157,1,123.499994346619,6|10,1:0|0:1,0:0:0:0:
170,28,7745,2,0,P|231:26|289:45,1,123.499994346619,2|8,0:0|0:1,0:0:0:0:
289,45,8307,5,2,1:0:0:0:
201,70,8495,2,0,P|242:54|293:44,2,92.6249957599642,2|2|2,1:0|0:0|0:0,0:0:0:0:
126,172,9245,2,0,B|213:176|161:201|252:205,1,123.499994346619,2|10,0:0|0:1,0:0:0:0:
315,167,9807,1,2,0:0:0:0:
455,292,9995,6,0,P|459:337|469:371,1,80.750001540184,6|0,1:0|3:0,0:0:0:0:
421,224,10370,2,0,P|409:267|407:303,1,80.750001540184,0|0,1:0|3:0,0:0:0:0:
419,149,10745,2,0,P|393:186|378:218,1,80.750001540184,2|0,1:0|3:0,0:0:0:0:
443,79,11120,2,0,P|406:104|381:130,1,80.750001540184,0|0,1:0|3:0,0:0:0:0:
65,66,11495,6,0,L|160:50,1,80.750001540184,2|0,1:0|3:0,0:0:0:0:
29,154,11870,2,0,L|112:106,1,80.750001540184,0|0,1:0|3:0,0:0:0:0:
23,248,12245,2,0,L|85:174,1,80.750001540184,2|0,1:0|3:0,0:0:0:0:
49,337,12620,2,0,L|82:246,1,80.750001540184,8|0,1:0|1:0,0:0:0:0:
173,339,12995,5,6,1:0:0:0:
256,192,13088,12,2,14307,0:0:0:0:
463,175,14495,5,2,1:0:0:0:
462,172,14588,1,0,1:0:0:0:
461,168,14682,1,0,1:0:0:0:
460,164,14776,1,0,1:0:0:0:
459,160,14870,1,0,1:0:0:0:
459,156,14963,1,0,1:0:0:0:
458,152,15057,1,0,1:0:0:0:
457,148,15151,1,0,1:0:0:0:
453,141,15245,5,2,1:0:0:0:
416,158,15338,1,0,1:0:0:0:
376,156,15432,1,0,1:0:0:0:
341,137,15526,1,0,1:0:0:0:
321,102,15620,5,2,1:0:0:0:
313,153,15713,1,0,1:0:0:0:
305,205,15807,1,0,1:0:0:0:
297,257,15901,1,0,1:0:0:0:
286,304,15995,6,0,L|240:299,1,40.375000770092,2|0,1:0|1:0,1:0:0:0:
347,384,16182,2,0,L|392:379,1,40.375000770092,0|0,1:0|1:0,1:0:0:0:
316,218,16370,6,0,L|270:213,1,40.375000770092,0|0,1:0|1:0,1:0:0:0:
376,297,16557,2,0,L|421:292,1,40.375000770092,0|0,1:0|1:0,1:0:0:0:
343,107,16745,6,0,L|285:100,1,42.7499986953736,0|0,1:0|1:0,1:0:0:0:
432,188,16932,2,0,L|483:182,1,42.7499986953736,0|0,1:0|1:0,1:0:0:0:
376,4,17120,6,0,L|318:-3,1,42.7499986953736,0|0,1:0|1:0,1:0:0:0:
465,85,17307,2,0,L|516:79,1,42.7499986953736,0|0,1:0|1:0,1:0:0:0:
316,218,17495,5,2,1:0:0:0:
306,219,17588,1,0,1:0:0:0:
297,223,17682,1,0,1:0:0:0:
290,229,17776,1,0,1:0:0:0:
286,237,17870,5,2,1:0:0:0:
282,213,17963,1,0,1:0:0:0:
278,190,18057,1,0,1:0:0:0:
275,166,18151,1,0,1:0:0:0:
271,143,18245,5,2,1:0:0:0:
268,199,18338,1,0,1:0:0:0:
265,256,18432,1,2,1:0:0:0:
262,313,18526,1,0,1:0:0:0:
260,370,18620,6,0,B|287:368|287:368|323:360|294:298,1,85.4999973907472,10|0,0:1|0:0,0:0:0:0:
369,171,18995,6,0,B|406:167|406:167|410:170|410:170|491:163,1,113.999996520996,6|0,1:0|0:0,0:0:0:0:
288,60,19370,5,10,0:0:0:0:
273,142,19557,1,0,0:0:0:0:
175,63,19745,5,2,1:0:0:0:
191,145,19932,1,0,0:0:0:0:
66,107,20120,5,10,0:0:0:0:
112,175,20307,1,0,0:0:0:0:
191,145,20495,5,2,1:0:0:0:
112,175,20682,1,2,0:0:0:0:
146,258,20870,1,8,0:0:0:0:
229,232,21057,2,0,B|293:228|293:228|317:245|317:245|422:237,1,170.999994781494,2|8,0:0|0:0,0:0:0:0:
426,221,21432,1,0,1:0:0:0:
390,97,21620,5,10,0:0:0:0:
474,145,21807,1,0,1:0:0:0:
339,176,21995,6,0,B|303:193|303:193|260:182|272:128,1,113.999996520996,2|0,1:0|0:0,0:0:0:0:
390,97,22370,1,10,0:0:0:0:
390,97,22557,1,0,0:0:0:0:
192,111,22745,2,0,B|164:82|164:82|165:32|216:32,1,113.999996520996,2|0,1:0|0:0,0:0:0:0:
339,176,23120,2,0,L|335:296,1,113.999996520996,10|0,0:0|0:0,0:0:0:0:
132,343,23495,5,2,1:0:0:0:
90,154,23682,1,2,0:0:0:0:
335,289,23870,1,10,0:0:0:0:
293,100,24057,1,2,0:0:0:0:
202,272,24245,5,2,1:0:0:0:
203,247,24338,1,8,0:0:0:0:
192,269,24432,1,0,1:0:0:0:
335,289,24620,1,10,0:0:0:0:
272,204,24807,1,2,1:0:0:0:
255,359,24995,6,0,B|351:342|351:342|394:346|412:378,1,170.999994781494,2|0,1:0|0:0,0:0:0:0:
441,376,25370,1,10,0:0:0:0:
482,227,25557,2,0,B|432:233|406:196|406:196|332:157|259:212,1,227.999993041992,2|2,1:0|1:0,0:0:0:0:
392,159,26120,2,0,P|409:116|402:42,1,113.999996520996,10|0,0:0|1:0,0:0:0:0:
15,108,26495,5,2,1:0:0:0:
177,214,26682,1,2,1:0:0:0:
95,49,26870,5,10,1:2:0:0:
105,282,27057,1,2,1:0:0:0:
193,92,27245,5,2,1:0:0:0:
14,221,27432,1,2,1:0:0:0:
267,317,27620,1,10,1:2:0:0:
267,317,27713,1,0,1:0:0:0:
267,317,27807,2,0,L|329:311,1,56.9999982604981,2|0,1:0|1:0,1:0:0:0:
460,376,27995,6,0,B|438:317|438:317|451:254|451:254|415:145,1,227.999993041992,6|2,1:0|0:0,0:0:0:0:
193,92,28557,2,0,P|199:150|166:203,1,113.999996520996,6|0,1:0|0:0,0:0:0:0:
92,56,28932,1,10,0:0:0:0:
14,221,29120,2,0,L|3:97,1,113.999996520996,2|0,0:0|1:0,0:0:0:0:
193,92,29495,5,2,1:0:0:0:
193,92,29682,1,0,1:0:0:0:
331,277,29870,2,0,L|342:153,1,113.999996520996,12|0,0:0|0:0,0:0:0:0:
352,69,30245,2,0,B|399:66|399:66|414:79|414:79|464:77,1,113.999996520996,2|0,0:0|0:0,0:0:0:0:
331,277,30620,2,0,L|290:269,3,35.625001358986,2|2|2|2,0:0|0:0|0:0|0:0,0:0:0:0:
397,314,30995,6,0,P|415:280|387:248,1,61.7499971733095,6|0,1:0|0:0,0:0:0:0:
274,314,31370,2,0,P|294:346|336:338,1,61.7499971733095,2|0,1:0|0:0,0:0:0:0:
332,206,31745,2,0,P|293:207|279:247,1,61.7499971733095,2|0,1:0|0:0,0:0:0:0:
280,223,32120,1,2,1:0:0:0:
192,198,32307,6,0,L|189:73,1,123.499994346619,2|2,0:0|0:0,0:0:0:0:
194,71,32776,1,2,0:0:0:0:
198,66,32870,2,0,L|203:-20,1,61.7499971733095,2|2,1:0|0:0,0:0:0:0:
293,95,33245,2,0,L|320:13,1,61.7499971733095,2|0,1:0|0:0,0:0:0:0:
312,36,33620,1,2,1:0:0:0:
366,160,33807,6,0,L|441:46,1,123.499994346619,2|2,0:0|0:0,0:0:0:0:
427,161,34370,2,0,L|363:159,1,61.7499971733095,2|0,1:0|0:0,0:0:0:0:
365,261,34745,2,0,L|426:259,1,61.7499971733095,2|0,1:0|0:0,0:0:0:0:
485,214,35120,1,2,1:0:0:0:
485,214,35307,1,2,0:0:0:0:
334,212,35495,6,0,B|290:212|290:212|251:227|251:227|199:226,1,123.499994346619,2|2,1:0|1:0,0:0:0:0:
42,194,36057,2,0,P|93:197|144:258,1,123.499994346619,2|2,0:0|0:0,0:0:0:0:
140,247,36620,1,2,1:0:0:0:
229,323,36807,6,0,L|165:318,1,61.7499971733095,2|0,0:0|1:0,0:0:0:0:
280,249,37182,1,2,0:0:0:0:
280,249,37370,2,0,L|344:244,1,61.7499971733095,2|0,1:0|0:0,0:0:0:0:
315,158,37745,1,2,1:0:0:0:
315,158,37932,2,0,L|374:141,1,61.7499971733095,2|0,0:0|1:0,0:0:0:0:
332,63,38307,6,0,L|448:-7,1,123.499994346619,2|2,0:0|0:0,0:0:0:0:
332,63,38870,1,2,1:0:0:0:
332,63,39057,2,0,L|194:62,1,123.499994346619,2|2,0:0|0:0,0:0:0:0:
208,62,39620,1,2,1:0:0:0:
122,113,39807,6,0,P|114:176|60:215,1,123.499994346619,2|2,0:0|0:0,0:0:0:0:
14,292,40370,2,0,P|46:298|81:311,1,61.7499971733095,2|0,1:0|0:0,0:0:0:0:
129,196,40745,2,0,P|99:206|69:211,1,61.7499971733095,2|0,1:0|0:0,0:0:0:0:
94,328,41120,5,2,1:0:0:0:
163,282,41307,2,0,B|246:284|194:318|282:318,1,123.499994346619,2|0,1:0|0:0,0:0:0:0:
277,317,41870,1,10,0:0:0:0:
465,360,42057,2,0,P|417:371|333:360,1,123.499994346619,2|10,1:0|0:0,0:0:0:0:
277,317,42620,2,0,P|276:282|281:252,1,61.7499971733095,10|0,0:0|0:0,0:0:0:0:
420,131,42995,1,4,1:0:0:0:
512,242,43182,5,2,0:0:0:0:
490,161,43370,2,0,B|447:158|426:187|426:187|380:195|348:148,1,161.500003080368,10|2,0:0|1:0,0:0:0:0:
260,81,43932,2,0,P|300:76|349:59,1,80.750001540184,2|8,1:0|0:0,0:0:0:0:
239,179,44307,2,0,B|129:182|202:240|57:233,1,161.500003080368,2|2,0:0|0:0,0:0:0:0:
37,297,44870,5,10,0:0:0:0:
243,257,45057,2,0,B|353:260|280:318|425:311,1,161.500003080368,2|0,1:0|1:0,1:0:0:0:
375,232,45620,1,8,0:0:0:0:
292,338,45807,5,2,1:0:0:0:
243,257,45995,2,0,P|232:218|238:178,1,80.750001540184,2|0,1:0|0:0,0:0:0:0:
380,153,46370,2,0,P|386:192|375:231,1,80.750001540184,10|0,0:0|0:0,0:0:0:0:
303,84,46745,1,2,1:0:0:0:
303,84,46932,1,0,1:0:0:0:
397,55,47120,2,0,L|486:48,1,80.750001540184,8|2,0:0|0:0,0:0:0:0:
303,84,47495,6,0,L|214:77,1,80.750001540184,2|2,1:0|0:0,0:0:0:0:
222,77,47870,1,10,0:0:0:0:
90,183,48057,2,0,P|79:139|82:99,1,80.750001540184,0|2,1:0|0:0,0:0:0:0:
251,256,48432,5,8,0:0:0:0:
81,104,48620,1,8,0:0:0:0:
124,284,48807,1,10,0:0:0:0:
222,77,48995,6,0,L|326:68,1,95,6|0,1:0|3:0,0:0:0:0:
479,184,49370,2,0,B|452:192|452:192|406:187|414:134,1,95,10|0,0:0|3:0,0:0:0:0:
251,256,49745,2,0,B|278:264|278:264|324:259|316:206,1,95,2|0,1:0|3:0,0:0:0:0:
483,348,50120,2,0,B|456:356|456:356|410:351|418:298,1,95,10|8,0:0|3:0,0:0:0:0:
251,256,50495,6,0,B|285:260|312:272|312:272|341:206|272:146,2,190,2|10|2,1:0|0:0|1:0,0:0:0:0:
294,141,51432,1,2,3:0:0:0:
251,256,51620,2,0,P|201:274|152:275,1,95,10|10,0:0|3:0,0:0:0:0:
294,141,51995,5,6,1:0:0:0:
294,141,52182,1,2,1:0:0:0:
218,97,52370,1,10,0:0:0:0:
428,95,52557,2,0,B|419:128|425:151|425:151|416:193,1,95,2|0,1:0|1:0,1:0:0:0:
262,349,52932,2,0,B|253:311|253:311|259:288|250:255,1,95,2|8,1:0|0:0,1:0:0:0:
218,97,53307,1,2,1:0:0:0:
275,217,53495,5,0,1:0:0:0:
263,262,53588,1,0,1:0:0:0:
233,298,53682,1,2,1:0:0:0:
189,316,53776,1,0,1:0:0:0:
142,314,53870,1,2,1:0:0:0:
102,290,53963,1,0,1:0:0:0:
75,251,54057,1,2,1:0:0:0:
70,204,54151,1,0,1:0:0:0:
84,162,54245,5,0,1:0:0:0:
140,155,54338,1,0,1:0:0:0:
197,160,54432,1,0,1:0:0:0:
243,191,54526,1,0,1:0:0:0:
286,228,54620,1,0,1:0:0:0:
342,237,54713,1,0,1:0:0:0:
398,233,54807,1,0,1:0:0:0:
451,210,54901,1,0,1:0:0:0:
485,164,54995,6,0,L|495:258,1,95,2|0,1:0|0:0,0:0:0:0:
342,237,55370,2,0,L|334:331,1,95,2|0,0:0|0:0,0:0:0:0:
197,160,55745,2,0,L|207:254,1,95,2|0,0:0|0:0,0:0:0:0:
328,384,56120,6,0,L|335:324,1,52.2500015945435,2|2,0:0|0:0,0:0:0:0:
454,120,56495,6,0,B|420:139|420:139|351:149|354:77,1,142.500005435944,6|2,1:0|0:0,0:0:0:0:
274,171,56776,2,0,B|308:190|308:190|377:200|374:128,1,142.500005435944,2|0,0:0|0:0,0:0:0:0:
224,63,57057,5,2,0:0:0:0:
158,103,57151,1,2,0:0:0:0:
170,182,57245,2,0,B|190:242|139:269|139:269|96:237,1,142.500005435944,2|2,1:0|0:0,0:0:0:0:
0,118,57526,2,0,B|-20:178|31:205|31:205|74:173,1,142.500005435944,2|0,0:0|0:0,0:0:0:0:
76,155,57807,1,2,0:0:0:0:
143,312,57995,6,0,B|264:290|264:290|321:293|309:355,2,213.750008153916,2|2|2,1:0|0:0|0:0,0:0:0:0:
423,376,58745,2,0,B|493:202|334:291|419:88,1,285.000010871888,2|8,1:0|0:2,0:0:0:0:
498,178,59307,1,2,0:0:0:0:
244,167,59495,6,0,B|204:192|158:176|158:176|110:131|43:158,1,213.750008153916,2|0,1:0|0:0,0:0:0:0:
244,149,59870,2,0,B|204:125|158:141|158:141|110:186|43:158,1,213.750008153916,10|0,0:2|0:0,0:0:0:0:
257,152,60245,2,0,L|43:157,1,213.750008153916,2|0,1:0|0:0,0:0:0:0:
0,189,60620,1,8,0:2:0:0:
143,49,60807,5,2,1:0:0:0:
215,302,60995,2,0,B|182:311|156:340|156:340|111:260|170:202,1,213.750008153916,2|2,1:0|1:0,0:0:0:0:
257,152,61370,1,8,0:2:0:0:
313,252,61557,5,2,1:0:0:0:
190,364,61745,2,0,B|113:347|113:347|105:227|-14:184,1,285.000010871888,2|8,1:0|0:0,0:0:0:0:
189,365,62307,1,2,0:0:0:0:
389,195,62495,6,0,B|402:248|349:277|349:277|306:247,1,142.500005435944,6|2,1:0|0:0,0:0:0:0:
403,53,62870,1,10,0:0:0:0:
391,65,62963,1,2,0:0:0:0:
408,94,63057,1,2,0:0:0:0:
382,134,63151,1,2,0:0:0:0:
389,195,63245,1,2,1:0:0:0:
485,302,63432,5,2,0:0:0:0:
474,281,63526,1,2,0:0:0:0:
474,306,63620,1,10,0:0:0:0:
403,56,63807,1,2,0:0:0:0:
290,290,63995,5,2,1:0:0:0:
345,352,64182,1,2,0:0:0:0:
272,151,64370,1,10,0:0:0:0:
205,350,64557,5,2,0:0:0:0:
194,357,64651,2,0,B|159:344|159:344|102:368|46:349,1,142.500005435944,2|0,0:0|0:0,0:0:0:0:
67,306,64932,2,0,B|48:269|48:269|30:212|90:173,2,142.500005435944,2|8|2,0:0|0:0|1:0,0:0:0:0:
386,151,65495,5,6,1:0:0:0:
194,357,65682,1,2,0:0:0:0:
209,158,65870,1,10,0:0:0:0:
371,350,66057,2,0,B|329:340|329:340|319:312|319:312|246:289,1,142.500005435944,2|0,0:0|1:0,0:0:0:0:
321,59,66432,2,0,B|363:49|363:49|373:21|373:21|446:-2,1,142.500005435944,2|8,0:0|0:0,0:0:0:0:
371,350,66807,5,2,1:0:0:0:
313,231,66995,1,0,1:0:0:0:
427,225,67182,5,10,0:0:0:0:
260,353,67370,1,10,0:0:0:0:
321,59,67557,1,2,1:0:0:0:
502,305,67745,2,0,B|457:310|457:310|406:274|431:215,1,142.500005435944,2|0,0:0|1:0,0:0:0:0:
321,59,68120,5,10,0:0:0:0:
308,129,68213,1,8,0:0:0:0:
297,62,68307,2,0,P|289:37|296:20,1,35.625001358986,10|8,0:0|0:0,0:0:0:0:
427,225,68495,6,0,B|446:286|391:309|391:309|338:276,1,142.500005435944,6|2,1:0|0:0,0:0:0:0:
236,177,68776,2,0,B|217:238|272:261|272:261|325:228,1,142.500005435944,2|0,0:0|0:0,0:0:0:0:
360,190,69057,2,0,L|363:131,1,35.625001358986,2|0,0:0|0:0,0:0:0:0:
152,58,69245,6,0,B|98:48|83:74|83:74|46:88|10:68,1,142.500005435944,2|2,1:0|0:0,0:0:0:0:
101,163,69526,2,0,B|155:153|170:179|170:179|207:193|243:173,1,142.500005435944,2|0,0:0|0:0,0:0:0:0:
249,150,69807,1,2,0:0:0:0:
11,174,69995,6,0,B|-36:292|41:366|41:366|76:328|58:280,1,285.000010871888,2|10,1:0|0:0,0:0:0:0:
17,71,70557,1,2,0:0:0:0:
210,20,70745,2,0,B|297:8|337:69|337:69|415:98|487:38,1,285.000010871888,2|8,1:0|0:0,0:0:0:0:
328,18,71307,1,2,0:0:0:0:
368,295,71495,6,0,B|420:241|377:192|377:192|366:128|408:89,1,213.750008153916,2|0,1:0|0:0,0:0:0:0:
426,293,71870,2,0,B|374:239|417:190|417:190|432:139|397:98,1,213.750008153916,10|0,0:0|0:0,0:0:0:0:
398,312,72245,2,0,B|397:84,1,213.750008153916,2|0,1:0|0:0,0:0:0:0:
328,18,72620,2,0,B|327:97|327:97|264:172|197:80,1,213.750008153916,10|0,0:0|0:0,0:0:0:0:
23,38,72995,6,0,B|75:34|75:34|135:64|107:131,1,142.500005435944,2|0,1:0|0:0,0:0:0:0:
91,205,73276,2,0,B|39:209|39:209|-21:179|7:112,1,142.500005435944,2|0,0:0|0:0,0:0:0:0:
23,38,73557,2,0,L|88:26,1,47.5,2|0,0:0|0:0,0:0:0:0:
130,113,73745,1,2,1:0:0:0:
18,305,73932,5,8,0:0:0:0:
107,11,74120,1,8,0:0:0:0:
216,300,74307,5,2,0:0:0:0:
216,300,74401,1,2,0:0:0:0:
216,300,74495,1,6,1:0:0:0:
155,249,74682,1,2,0:0:0:0:
309,272,74870,1,10,0:0:0:0:
204,375,75057,2,0,B|163:368|163:368|145:332|145:332|64:302,1,142.500005435944,2|0,0:0|1:0,0:0:0:0:
309,272,75432,5,2,0:0:0:0:
232,151,75620,1,10,0:0:0:0:
204,375,75807,1,2,0:0:0:0:
421,315,75995,6,0,B|467:267|467:267|490:130|349:102,1,285.000010871888,2|10,1:0|0:0,0:0:0:0:
309,272,76557,1,2,0:0:0:0:
323,268,76651,1,2,0:0:0:0:
310,264,76745,1,2,1:0:0:0:
421,315,76932,2,0,B|470:275|432:222|432:222|377:246,1,142.500005435944,2|8,0:0|0:0,0:0:0:0:
283,349,77307,1,2,0:0:0:0:
361,104,77495,6,0,B|399:97|421:118|421:118|472:119|483:60,1,142.500005435944,2|2,1:0|0:0,0:0:0:0:
219,156,77870,2,0,B|212:118|233:96|233:96|234:45|175:34,1,142.500005435944,10|0,0:0|0:0,0:0:0:0:
93,209,78245,1,2,1:0:0:0:
283,349,78432,2,0,B|314:349|334:361|334:361|365:324|321:267,1,142.500005435944,2|8,0:0|0:0,0:0:0:0:
93,209,78807,5,10,1:2:0:0:
218,156,78995,1,8,1:2:0:0:
68,297,79182,1,8,1:2:0:0:
45,78,79370,6,0,P|28:41|54:9,1,71.2500027179719,10|2,1:2|0:0,0:0:0:0:
222,94,79557,2,0,P|235:125|218:155,1,71.2500027179719,2|2,1:0|0:0,0:0:0:0:
158,12,79745,5,10,0:0:0:0:
229,7,79838,1,10,0:0:0:0:
300,3,79932,1,10,0:0:0:0:
371,3,80026,1,10,0:0:0:0:
437,28,80120,1,10,0:0:0:0:
471,89,80213,1,10,0:0:0:0:
483,159,80307,1,10,0:0:0:0:
470,229,80401,1,10,0:0:0:0:
434,290,80495,1,6,1:0:0:0:
256,192,80588,12,0,83120,0:0:0:0:
431,40,83495,5,4,1:0:0:0:
293,173,83682,1,2,0:0:0:0:
271,57,83870,1,10,0:0:0:0:
444,165,84057,2,0,P|467:233|455:291,1,113.999996520996,2|0,0:0|1:0,0:0:0:0:
293,173,84432,5,2,0:0:0:0:
443,291,84620,1,10,0:0:0:0:
231,346,84807,2,0,B|192:341|192:341|178:324|178:324|120:313,1,113.999996520996,2|0,0:0|1:0,0:0:0:0:
43,80,85182,5,2,1:0:0:0:
127,315,85370,1,10,0:2:0:0:
233,76,85557,5,2,1:0:0:0:
138,321,85745,1,10,0:2:0:0:
223,73,85932,5,10,0:2:0:0:
324,318,86120,1,10,0:2:0:0:
404,66,86307,1,10,0:2:0:0:
501,325,86495,6,0,B|444:313|444:313|373:224|451:143,1,246.999988693238,4|2,1:0|0:0,0:0:0:0:
269,210,87057,2,0,B|202:216|171:163|171:163|92:139|45:195,1,246.999988693238,4|2,1:0|0:0,0:0:0:0:
324,315,87620,6,0,B|384:249|326:147|326:147|252:231,1,265.999991882324,4|2,1:0|0:0,0:0:0:0:
197,382,88182,1,4,1:0:0:0:
256,192,88276,12,0,93995,0:1:0:0:
