osu file format v14

[General]
AudioFilename: audio.mp3
AudioLeadIn: 0
PreviewTime: 13186
Countdown: 1
SampleSet: Soft
StackLeniency: 0.7
Mode: 0
LetterboxInBreaks: 0
WidescreenStoryboard: 1

[Editor]
Bookmarks: 2375,14063,42115,63933,70167,76401
DistanceSpacing: 1
BeatDivisor: 4
GridSize: 4
TimelineZoom: 1

[Metadata]
Title:Allt e Mitt
TitleUnicode:Allt e Mitt
Artist:Z.e
ArtistUnicode:Z.e
Creator:Firetruck
Version:Normal
Source:
Tags:swedish sweden hip hop rap orten cut version short
BeatmapID:1760891
BeatmapSetID:841397

[Difficulty]
HPDrainRate:4
CircleSize:3.5
OverallDifficulty:4
ApproachRate:5
SliderMultiplier:1.3
SliderTickRate:1

[Events]
//Background and Video events
0,0,"pogchamp.jpg",0,0
//Break Periods
2,38998,40136
2,63933,68967
//Storyboard Layer 0 (Background)
//Storyboard Layer 1 (Fail)
//Storyboard Layer 2 (Pass)
//Storyboard Layer 3 (Foreground)
//Storyboard Layer 4 (Overlay)
//Storyboard Sound Samples

[TimingPoints]
1596,389.61038961039,4,2,0,40,1,0
13284,-100,4,2,1,40,0,0
14063,-100,4,2,1,40,0,1
25751,-100,4,2,1,40,0,0
26531,-100,4,2,1,40,0,1
38998,-100,4,2,1,40,0,0
63933,-100,4,2,1,40,0,0
76401,-100,4,2,1,40,0,1
88089,-100,4,2,1,40,0,0
88868,-100,4,2,1,40,0,1
99777,-100,4,2,1,40,0,0

[Colours]
Combo1 : 128,64,64
Combo2 : 149,74,74
Combo3 : 192,192,192
Combo4 : 128,128,0
Combo5 : 128,128,64

[HitObjects]
115,139,13284,6,0,L|123:63,2,65,0|0|0,2:0|2:0|2:0,0:0:0:0:
98,294,14063,6,0,B|152:299|152:299|183:293|183:293|240:295,1,130,4|0,0:0|0:0,0:0:0:0:
356,283,14842,2,0,L|356:362,2,65,8|0|2,0:0|0:0|0:0,0:0:0:0:
388,226,15427,1,0,0:0:0:0:
388,226,15621,2,0,B|397:178|397:178|389:80,1,130,0|0,0:0|0:0,0:0:0:0:
286,176,16401,2,0,L|202:172,1,65,8|0,0:0|0:0,0:0:0:0:
172,129,16790,2,0,L|88:125,1,65,0|0,0:0|0:0,0:0:0:0:
56,84,17180,6,0,B|69:145|69:145|52:215,1,130,2|4,0:0|0:0,0:0:0:0:
109,328,17959,2,0,B|144:330|144:330|188:324,1,65,8|4,0:0|0:0,0:0:0:0:
231,294,18349,2,0,B|266:292|266:292|310:298,1,65,2|0,0:0|0:0,0:0:0:0:
347,335,18738,2,0,L|352:200,1,130,0|0,0:0|0:0,0:0:0:0:
446,115,19518,1,8,0:0:0:0:
354,23,19907,1,0,0:0:0:0:
252,104,20297,6,0,B|201:100|201:100|173:107|173:107|105:100,1,130,4|0,0:0|0:0,0:0:0:0:
27,189,21076,2,0,B|78:193|78:193|106:186|106:186|174:193,1,130,8|2,0:0|0:0,0:0:0:0:
196,242,21660,1,0,0:0:0:0:
196,242,21855,2,0,B|251:256|251:256|324:228,1,130,0|0,0:0|0:0,0:0:0:0:
364,186,22440,1,0,0:0:0:0:
364,186,22634,2,0,B|419:172|419:172|492:200,1,130,8|0,0:0|0:0,0:0:0:0:
440,320,23414,6,0,L|279:316,1,130,4|0,0:0|0:0,0:0:0:0:
184,352,24193,2,0,L|183:286,1,65,8|0,0:0|0:0,0:0:0:0:
156,227,24583,2,0,L|155:161,1,65,4|0,0:0|0:0,0:0:0:0:
126,103,24972,2,0,B|178:111|178:111|270:100,1,130,0|0,0:0|0:0,0:0:0:0:
382,77,25751,2,0,L|386:7,2,65,8|0|0,0:0|0:0|0:0,0:0:0:0:
407,206,26531,6,0,B|360:203|360:203|329:192|329:192|264:188,1,130,4|0,0:0|0:0,0:0:0:0:
202,93,27310,2,0,L|130:92,2,65,8|0|2,0:0|0:0|0:0,0:0:0:0:
257,58,27894,1,0,0:0:0:0:
257,58,28089,2,0,B|304:53|304:53|392:59,1,130,0|0,0:0|0:0,0:0:0:0:
487,140,28868,2,0,B|492:176|492:176|484:221,1,65,8|0,0:0|0:0,0:0:0:0:
447,256,29258,2,0,B|442:292|442:292|450:337,1,65,0|0,0:0|0:0,0:0:0:0:
497,360,29647,6,0,L|346:356,1,130,0|4,0:0|0:0,0:0:0:0:
237,344,30427,2,0,L|239:272,1,65,8|4,0:0|0:0,0:0:0:0:
218,217,30816,2,0,L|220:145,1,65,2|0,0:0|0:0,0:0:0:0:
180,99,31206,2,0,B|237:107|237:107|338:93,1,130,0|0,0:0|0:0,0:0:0:0:
421,32,31985,1,8,0:0:0:0:
454,157,32375,1,0,0:0:0:0:
381,264,32764,6,0,L|241:259,1,130,4|0,0:0|0:0,0:0:0:0:
338,162,33544,2,0,L|208:157,1,130,8|2,0:0|0:0,0:0:0:0:
160,202,34128,1,0,0:0:0:0:
160,202,34323,2,0,B|171:148|171:148|151:68,1,130,0|0,0:0|0:0,0:0:0:0:
107,28,34907,1,0,0:0:0:0:
107,28,35102,2,0,B|161:39|161:39|241:19,1,130,8|0,0:0|0:0,0:0:0:0:
296,36,35686,1,0,0:0:0:0:
296,36,35881,6,0,B|281:106|281:106|294:171,1,130,4|0,0:0|0:0,0:0:0:0:
357,276,36660,2,0,B|321:279|321:279|269:272,1,65,8|0,0:0|0:0,0:0:0:0:
235,243,37050,2,0,B|199:240|199:240|147:247,1,65,4|0,0:0|0:0,0:0:0:0:
126,292,37440,2,0,L|126:148,1,130,0|0,0:0|0:0,0:0:0:0:
85,38,38219,1,8,0:0:0:0:
101,77,41336,6,0,L|106:4,2,65,8|0|0,0:0|0:0|0:0,0:0:0:0:
78,138,41920,1,0,0:0:0:0:
78,138,42115,6,0,B|148:130|148:130|220:146,1,130,2|4,0:0|0:0,0:0:0:0:
309,63,42894,1,8,0:0:0:0:
384,169,43284,1,2,0:0:0:0:
285,253,43673,2,0,L|283:329,2,65,0|8|0,0:0|0:0|0:0,0:0:0:0:
285,187,44258,1,0,0:0:0:0:
285,187,44453,2,0,B|236:181|236:181|207:187|207:187|144:180,1,130,8|0,0:0|0:0,0:0:0:0:
241,82,45232,6,0,B|287:67|287:67|393:74,1,130,4|0,0:0|0:0,0:0:0:0:
441,180,46011,2,0,L|522:180,2,65,8|0|2,0:0|0:0|0:0,0:0:0:0:
392,223,46596,1,0,0:0:0:0:
392,223,46790,2,0,B|342:233|342:233|261:212,1,130,0|0,0:0|0:0,0:0:0:0:
165,128,47570,1,8,0:0:0:0:
66,211,47959,1,0,0:0:0:0:
162,298,48349,6,0,L|157:376,2,65,4|0|0,0:0|0:0|0:0,0:0:0:0:
171,233,48933,1,0,0:0:0:0:
171,233,49128,2,0,B|232:242|232:242|311:234,1,130,8|4,0:0|0:0,0:0:0:0:
364,227,49712,1,0,0:0:0:0:
364,227,49907,2,0,L|432:237,2,65,0|8|0,0:0|0:0|0:0,0:0:0:0:
319,104,50686,1,0,0:0:0:0:
191,127,51076,1,0,0:0:0:0:
79,60,51466,6,0,B|93:129|93:129|70:203,1,130,2|0,0:0|0:0,0:0:0:0:
117,308,52245,1,0,0:0:0:0:
241,343,52634,2,0,L|323:340,1,65,2|0,0:0|0:0,0:0:0:0:
352,295,53024,2,0,L|434:292,2,65,0|8|0,0:0|0:0|0:0,0:0:0:0:
272,192,53803,2,0,B|235:189|235:189|189:192,1,65,8|0,0:0|0:0,0:0:0:0:
153,228,54193,2,0,B|116:231|116:231|70:228,2,65,0|0|2,0:0|0:0|0:0,0:0:0:0:
246,318,54972,6,0,L|336:320,1,65,4|0,0:0|0:0,0:0:0:0:
360,276,55362,2,0,L|450:278,1,65,8|4,0:0|0:0,0:0:0:0:
489,273,55751,1,0,0:0:0:0:
434,154,56141,2,0,B|397:151|397:151|351:153,1,65,0|8,0:0|0:0,0:0:0:0:
311,182,56531,2,0,B|274:185|274:185|228:183,1,65
182,171,56920,1,8,0:0:0:0:
101,68,57310,1,0,0:0:0:0:
36,178,57699,6,0,B|39:232|39:232|33:260|33:260|36:310,1,130,4|0,0:0|0:0,0:0:0:0:
88,345,58284,1,0,0:0:0:0:
88,345,58479,2,0,L|152:336,2,65,8|0|2,0:0|0:0|0:0,0:0:0:0:
141,226,59258,2,0,B|180:220|180:220|228:222,1,65,0|8,0:0|0:0,0:0:0:0:
263,250,59647,2,0,B|302:256|302:256|350:254,1,65,0|0,0:0|0:0,0:0:0:0:
391,240,60037,1,8,0:0:0:0:
399,110,60427,2,0,L|328:92,1,65,0|0,0:0|0:0,0:0:0:0:
275,68,60816,6,0,B|243:75|243:75|128:62,1,130,4|0,0:0|0:0,0:0:0:0:
85,40,61401,1,0,0:0:0:0:
85,40,61596,2,0,L|81:118,2,65,8|0|4,0:0|0:0|0:0,0:0:0:0:
154,149,62375,2,0,L|147:225,1,65,0|0,0:0|0:0,0:0:0:0:
169,274,62764,2,0,L|162:350,2,65,0|0|0,0:0|0:0|0:0,0:0:0:0:
279,204,63544,1,0,0:0:0:0:
279,204,70167,6,0,B|329:206|329:206|363:197|363:197|426:200,1,130,2|0,0:0|0:0,0:0:0:0:
309,113,70946,2,0,B|259:111|259:111|225:120|225:120|162:117,1,130,0|2,0:0|0:0,0:0:0:0:
69,49,71725,1,0,0:0:0:0:
39,175,72115,2,0,L|36:258,1,65,0|0,0:0|0:0,0:0:0:0:
80,288,72505,2,0,L|77:371,2,65,0|0|0,0:0|0:0|0:0,0:0:0:0:
189,218,73284,6,0,L|192:135,1,65,2|0,0:0|0:0,0:0:0:0:
148,105,73673,2,0,L|151:22,2,65,0|0|0,0:0|0:0|0:0,0:0:0:0:
253,28,74453,2,0,L|250:92,1,65,2|0,0:0|0:0,0:0:0:0:
294,141,74843,2,0,L|291:205,2,65,0|0|2,0:0|0:0|0:0,0:0:0:0:
396,61,75621,2,0,L|476:63,2,65,0|0|0,0:0|0:0|0:0,0:0:0:0:
314,163,76401,6,0,B|260:158|260:158|229:164|229:164|172:162,1,130,4|0,0:0|0:0,0:0:0:0:
81,83,77180,2,0,L|81:4,2,65,8|0|2,0:0|0:0|0:0,0:0:0:0:
52,141,77765,1,0,0:0:0:0:
52,141,77959,2,0,B|43:189|43:189|51:287,1,130,0|0,0:0|0:0,0:0:0:0:
179,263,78739,2,0,L|263:267,1,65,8|0,0:0|0:0,0:0:0:0:
297,303,79128,2,0,L|381:307,1,65,0|0,0:0|0:0,0:0:0:0:
422,329,79518,6,0,B|409:268|409:268|426:198,1,130,2|4,0:0|0:0,0:0:0:0:
400,74,80297,2,0,B|365:72|365:72|321:78,1,65,8|4,0:0|0:0,0:0:0:0:
275,102,80687,2,0,B|240:104|240:104|196:98,1,65,2|0,0:0|0:0,0:0:0:0:
163,54,81076,2,0,L|158:189,1,130,0|0,0:0|0:0,0:0:0:0:
65,276,81856,1,8,0:0:0:0:
160,364,82245,1,0,0:0:0:0:
261,283,82635,6,0,B|312:287|312:287|340:280|340:280|408:287,1,130,4|0,0:0|0:0,0:0:0:0:
483,194,83414,2,0,B|432:190|432:190|404:197|404:197|336:190,1,130,8|2,0:0|0:0,0:0:0:0:
311,142,83998,1,0,0:0:0:0:
311,142,84193,2,0,B|256:128|256:128|183:156,1,130,0|0,0:0|0:0,0:0:0:0:
140,199,84778,1,0,0:0:0:0:
140,199,84972,2,0,B|85:213|85:213|12:185,1,130,8|0,0:0|0:0,0:0:0:0:
22,121,85557,1,0,0:0:0:0:
22,121,85752,6,0,B|71:85|71:85|150:69,1,130,4|0,0:0|0:0,0:0:0:0:
266,46,86531,2,0,L|267:112,1,65,8|0,0:0|0:0,0:0:0:0:
317,152,86921,2,0,L|318:218,1,65,4|0,0:0|0:0,0:0:0:0:
354,270,87310,2,0,B|302:262|302:262|210:273,1,130,0|0,0:0|0:0,0:0:0:0:
101,311,88089,2,0,L|97:381,2,65,8|0|0,0:0|0:0|0:0,0:0:0:0:
99,180,88869,6,0,B|146:183|146:183|176:193|176:193|242:198,1,130,4|0,0:0|0:0,0:0:0:0:
315,291,89648,2,0,L|387:292,2,65,8|0|2,0:0|0:0|0:0,0:0:0:0:
258,323,90232,1,0,0:0:0:0:
258,323,90427,2,0,B|211:328|211:328|123:322,1,130,0|0,0:0|0:0,0:0:0:0:
26,241,91206,2,0,B|21:205|21:205|29:160,1,65,8|0,0:0|0:0,0:0:0:0:
65,124,91596,2,0,B|70:88|70:88|62:43,1,65,0|0,0:0|0:0,0:0:0:0:
15,17,91985,6,0,L|166:21,1,130,2|4,0:0|0:0,0:0:0:0:
274,39,92765,2,0,L|272:111,1,65,8|4,0:0|0:0,0:0:0:0:
296,164,93154,2,0,L|294:236,1,65,2|0,0:0|0:0,0:0:0:0:
332,282,93544,2,0,B|275:274|275:274|174:288,1,130,0|0,0:0|0:0,0:0:0:0:
91,352,94323,1,8,0:0:0:0:
58,227,94713,1,0,0:0:0:0:
131,120,95102,6,0,L|271:125,1,130,4|0,0:0|0:0,0:0:0:0:
174,222,95882,2,0,L|304:227,1,130,8|2,0:0|0:0,0:0:0:0:
352,182,96466,1,0,0:0:0:0:
352,182,96661,2,0,B|341:236|341:236|361:316,1,130,0|0,0:0|0:0,0:0:0:0:
405,356,97245,1,0,0:0:0:0:
405,356,97440,2,0,B|351:345|351:345|271:365,1,130,8|0,0:0|0:0,0:0:0:0:
160,312,98219,6,0,L|162:177,1,130,4|0,0:0|0:0,0:0:0:0:
127,57,98998,2,0,B|163:54|163:54|215:61,1,65,8|0,0:0|0:0,0:0:0:0:
246,95,99388,2,0,B|282:98|282:98|334:91,1,65,4|0,0:0|0:0,0:0:0:0:
363,55,99778,2,0,L|363:199,1,130,0|0,0:0|0:0,0:0:0:0:
