osu file format v14

[General]
AudioFilename: audio.mp3
AudioLeadIn: 0
PreviewTime: -1
Countdown: 0
SampleSet: Normal
StackLeniency: 0.7
Mode: 0
LetterboxInBreaks: 0
WidescreenStoryboard: 0

[Editor]
Bookmarks: 14005,16174,19788,21957,25571,27740,29186,31354,33523,34427,35872,37318,40210,47439,48704,50150,53041,53674,55933,56113,57559,59005,60270,63342,64788,66234
DistanceSpacing: 1.5
BeatDivisor: 4
GridSize: 32
TimelineZoom: 1

[Metadata]
Title:Mikasa Sukasa
TitleUnicode:Mikasa Sukasa
Artist:Yzomandias
ArtistUnicode:Yzomandias
Creator:Brahmaputra
Version:Insane
Source:
Tags:Milion+ Logic (YYY) Yzo empire
BeatmapID:1588020
BeatmapSetID:747714

[Difficulty]
HPDrainRate:5
CircleSize:4
OverallDifficulty:7.5
ApproachRate:9
SliderMultiplier:1.80000000596046
SliderTickRate:1

[Events]
//Background and Video events
0,0,"MG_4944-1280x853.jpg",0,0
//Break Periods
//Storyboard Layer 0 (Background)
//Storyboard Layer 1 (Fail)
//Storyboard Layer 2 (Pass)
//Storyboard Layer 3 (Foreground)
//Storyboard Sound Samples

[TimingPoints]
10391,361.44578313253,4,1,0,100,1,0
44999,-200,4,1,0,100,0,0
45360,-100,4,1,0,100,0,0
45722,-66.6666666666667,4,1,0,100,0,0
46083,-100,4,1,0,100,0,0

[Colours]
Combo1 : 128,128,0
Combo2 : 238,4,4
Combo3 : 28,12,171
Combo4 : 169,252,95

[HitObjects]
85,151,10390,5,4,3:3:0:0:
78,253,10571,1,0,0:0:0:0:
210,169,10752,1,0,0:0:0:0:
217,271,10933,1,4,3:3:0:0:
56,124,11113,1,8,3:3:0:0:
99,45,11294,1,0,0:0:0:0:
56,124,11475,2,0,P|115:132|164:114,1,90.0000002980232
299,46,11836,2,0,P|316:110|298:159,1,90.0000002980232
248,244,12198,5,4,3:3:0:0:
397,101,12378,1,0,0:0:0:0:
143,25,12559,2,0,P|133:81|149:136,1,90.000000298023
272,231,12921,5,4,3:3:0:0:
93,177,13101,1,4,3:3:0:0:
287,269,13282,1,12,3:3:0:0:
85,138,13463,1,12,3:3:0:0:
306,304,13644,1,0,0:0:0:0:
77,98,13824,1,0,0:0:0:0:
70,319,14005,6,0,P|132:329|183:308,1,90.000000298023
262,262,14366,5,4,3:3:0:0:
262,262,14457,1,0,0:0:0:0:
262,262,14547,1,0,0:0:0:0:
189,167,14728,5,0,0:0:0:0:
357,334,14909,1,0,0:0:0:0:
323,167,15089,5,0,0:0:0:0:
155,334,15270,1,4,3:3:0:0:
323,167,15451,2,0,P|383:177|437:152,1,90.000000298023
169,63,15812,2,0,P|158:108|167:152,1,90.000000298023
278,244,16174,5,4,3:3:0:0:
194,300,16354,1,0,0:0:0:0:
230,173,16535,5,0,0:0:0:0:
122,217,16715,1,4,3:3:0:0:
191,103,16897,5,8,2:2:0:0:
142,27,17077,1,0,0:0:0:0:
191,103,17258,2,0,P|130:117|70:92,1,90.000000298023
16,179,17619,2,0,B|0:226|15:283,1,90.000000298023
160,258,17981,5,4,3:3:0:0:
86,335,18162,1,0,0:0:0:0:
252,250,18342,5,8,2:2:0:0:
199,350,18523,1,0,0:0:0:0:
335,223,18704,5,4,3:3:0:0:
353,358,18884,1,4,3:3:0:0:
406,175,19065,5,12,3:3:0:0:
510,300,19246,1,12,3:3:0:0:
472,113,19427,5,0,0:0:0:0:
436,281,19607,1,0,0:0:0:0:
328,153,19788,2,0,P|268:166|212:144,1,90.000000298023
461,23,20150,2,0,L|475:138,1,90.000000298023
393,91,20511,2,0,L|398:198,1,90.000000298023
318,163,20872,2,0,L|292:289,1,90.000000298023
226,214,21234,2,0,L|177:327,1,90.000000298023
132,239,21595,2,0,L|70:329,1,90.000000298023
421,324,21957,6,0,P|363:331|310:321,1,90.000000298023
381,213,22318,5,0,0:0:0:0:
219,300,22499,1,4,3:3:0:0:
231,120,22680,1,8,2:2:0:0:
184,43,22860,1,0,0:0:0:0:
231,120,23041,2,0,P|152:127|116:109,1,90.000000298023
372,56,23403,6,0,P|384:115|372:159,1,90.000000298023
290,253,23764,5,4,3:3:0:0:
401,242,23945,1,0,0:0:0:0:
205,225,24125,5,8,2:2:0:0:
312,172,24306,1,0,0:0:0:0:
117,234,24487,5,4,3:3:0:0:
213,118,24668,1,4,3:3:0:0:
110,322,24848,5,12,3:3:0:0:
83,135,25029,1,12,3:3:0:0:
235,340,25210,5,0,0:0:0:0:
60,228,25390,1,0,0:0:0:0:
248,128,25571,2,0,P|260:185|248:229,1,90.000000298023
48,128,25933,2,0,P|108:115|149:130,1,90.000000298023
96,193,26294,2,0,L|141:292,1,90.000000298023
182,209,26656,2,0,L|248:284,1,90.000000298023
273,202,27017,2,0,L|377:231,1,90.000000298023
348,145,27378,2,0,L|447:135,1,90.000000298023
428,47,27740,6,0,P|383:39|338:45,1,90.000000298023
388,158,28101,5,0,0:0:0:0:
226,71,28282,1,4,3:3:0:0:
238,251,28463,1,8,2:2:0:0:
281,169,28644,1,0,0:0:0:0:
238,251,28824,2,0,P|299:258|357:237,1,90.000000298023
226,71,29186,2,0,P|246:133|235:176,1,90.000000298023
226,297,29547,5,4,3:3:0:0:
93,114,29728,1,0,0:0:0:0:
307,184,29909,1,8,2:2:0:0:
93,253,30089,1,0,0:0:0:0:
226,71,30270,1,4,3:3:0:0:
277,327,30451,5,4,3:3:0:0:
105,91,30631,1,12,3:3:0:0:
382,181,30812,1,12,3:3:0:0:
105,271,30993,1,0,0:0:0:0:
277,35,31174,1,0,0:0:0:0:
325,282,31354,2,0,B|347:282|347:282|372:290|372:290|396:284|396:284|442:284,1,90.000000298023
503,210,31716,2,0,B|481:210|481:210|456:202|456:202|432:208|432:208|386:208,1,90.000000298023
332,172,32077,6,0,L|277:77,1,90.000000298023
245,174,32439,2,0,L|161:112,1,90.000000298023
150,207,32800,2,0,L|56:191,1,90.000000298023
101,273,33162,2,0,L|14:322,1,90.000000298023
94,63,33523,6,0,P|90:117|99:162,1,90.000000298023
212,95,33884,1,0,0:0:0:0:
24,209,34065,1,4,3:3:0:0:
209,300,34246,1,8,2:2:0:0:
209,300,34427,2,0,P|269:310|316:292,2,90.000000298023
156,82,34969,6,0,P|168:133|161:178,1,90.000000298023
47,224,35330,5,4,3:3:0:0:
137,251,35511,1,0,0:0:0:0:
77,342,35692,2,0,P|141:347|189:333,1,90.000000298023
316,254,36053,5,4,3:3:0:0:
253,353,36234,1,4,3:3:0:0:
239,168,36415,5,12,3:3:0:0:
332,312,36595,1,12,3:3:0:0:
308,116,36776,5,0,0:0:0:0:
216,282,36957,1,0,0:0:0:0:
227,66,37137,5,8,2:2:0:0:
323,205,37318,2,0,P|372:216|442:193,2,90.000000298023
214,119,37860,2,0,B|187:119|187:119|166:112|166:112|140:119|140:119|96:119,1,90.000000298023
125,196,38222,2,0,B|138:196|138:196|164:189|164:189|185:196|185:196|212:196,1,90.000000298023
298,119,38583,2,0,B|325:119|325:119|346:112|346:112|372:119|372:119|385:119,1,90.000000298023
387,196,38945,2,0,B|373:196|373:196|347:189|347:189|326:196|326:196|299:196,1,90.000000298023
481,196,39306,5,4,3:3:0:0:
411,126,39487,1,0,0:0:0:0:
412,268,39667,1,0,0:0:0:0:
483,339,39848,1,4,3:3:0:0:
412,268,40029,1,0,0:0:0:0:
412,268,40210,1,0,0:0:0:0:
412,268,40390,6,0,B|394:281|394:281|354:262|306:279,1,90.000000298023
237,340,40752,2,0,P|169:349|125:318,1,90.000000298023
152,222,41113,2,0,P|220:213|264:244,1,90.000000298023
332,269,41475,5,8,2:2:0:0:
332,269,41656,2,0,P|338:338|322:373,1,90.000000298023
254,315,42017,1,0,0:0:0:0:
254,315,42198,1,0,0:0:0:0:
254,315,42378,1,0,0:0:0:0:
254,315,42559,2,0,P|161:319|139:302,1,90.000000298023
203,238,42921,1,0,0:0:0:0:
203,238,43101,1,0,0:0:0:0:
203,238,43282,1,0,0:0:0:0:
95,95,44186,5,12,3:3:0:0:
95,95,45089,6,0,L|161:95,1,45.0000001490115
95,165,45451,2,0,L|194:165,1,90.000000298023
95,235,45812,2,0,L|243:235,1,135.000005596876
241,59,46174,6,0,P|230:118|255:178,1,90.000000298023
128,77,46535,5,0,0:0:0:0:
302,115,46716,1,0,0:0:0:0:
133,227,46897,1,4,3:3:0:0:
206,117,47077,1,0,0:0:0:0:
133,227,47258,2,0,P|219:229|252:211,1,90.000000298023
300,104,47619,5,4,3:3:0:0:
161,107,47800,1,4,3:3:0:0:
302,173,47981,5,12,3:3:0:0:
175,235,48162,1,12,3:3:0:0:
356,227,48342,5,0,0:0:0:0:
322,369,48523,1,0,0:0:0:0:
356,227,48704,2,0,P|413:218|468:232,1,90.000000298023
265,73,49065,2,0,P|277:128|259:182,1,90.000000298023
61,126,49427,6,0,P|125:119|179:131,1,90.000000298023
39,250,49788,1,0,0:0:0:0:
128,49,49969,1,4,3:3:0:0:
208,242,50150,2,0,P|267:250|332:229,1,90.000000298023
395,199,50511,5,4,3:3:0:0:
309,331,50692,1,0,0:0:0:0:
260,139,50872,2,0,P|198:146|143:128,1,90.000000298023
288,22,51234,5,0,0:0:0:0:
220,217,51415,1,4,3:3:0:0:
435,163,51595,2,0,P|443:224|434:270,1,90.000000298023
349,342,51957,2,0,B|303:349|303:349|221:339,1,90.000000298023
177,228,52318,5,0,0:0:0:0:
179,354,52499,1,0,0:0:0:0:
291,188,52680,5,4,3:3:0:0:
215,286,52860,1,0,0:0:0:0:
158,130,53041,2,0,P|234:134|278:118,1,90.000000298023
415,62,53403,5,4,3:3:0:0:
458,205,53583,1,4,3:3:0:0:
375,358,53764,1,12,3:3:0:0:
163,375,53945,1,12,3:3:0:0:
163,375,54125,2,0,P|155:331|175:275,1,90.000000298023
356,215,54487,2,0,P|304:224|255:213,1,90.000000298023
267,115,54848,2,0,P|319:106|368:117,1,90.000000298023
453,183,55210,2,0,P|460:242|447:299,1,90.000000298023
420,352,55571,5,0,0:0:0:0:
420,352,55752,1,0,0:0:0:0:
418,62,56656,6,0,P|431:117|416:168,1,90.000000298023
278,160,57017,5,0,0:0:0:0:
311,270,57198,1,4,3:3:0:0:
374,123,57378,1,8,2:2:0:0:
219,282,57559,2,0,P|162:295|114:281,1,90.000000298023
188,86,57921,2,0,P|205:141|192:193,1,90.000000298023
59,225,58282,5,0,0:0:0:0:
109,317,58463,1,4,3:3:0:0:
146,138,58644,5,0,0:0:0:0:
117,244,58824,1,8,2:2:0:0:
41,96,59005,2,0,P|121:102|163:82,1,90.000000298023
266,44,59366,5,4,3:3:0:0:
226,171,59547,1,12,3:3:0:0:
362,129,59728,5,12,3:3:0:0:
299,203,59909,1,0,0:0:0:0:
413,223,60089,5,0,0:0:0:0:
366,249,60270,2,0,P|427:257|460:289,1,90.000000298023
384,335,60631,2,0,P|337:349|274:333,1,90.000000298023
256,192,60993,12,0,62077,0:0:0:0:
161,64,62439,5,4,3:3:0:0:
128,171,62619,1,0,0:0:0:0:
303,54,62800,5,0,0:0:0:0:
224,139,62981,1,8,2:2:0:0:
408,97,63162,2,0,L|301:151,1,90.000000298023
430,191,63523,2,0,B|438:241|438:241|425:309,1,90.000000298023
278,284,63884,5,0,0:0:0:0:
375,346,64065,1,0,0:0:0:0:
332,202,64246,5,4,3:3:0:0:
247,363,64427,1,0,0:0:0:0:
248,205,64607,6,0,P|185:215|134:208,1,90.000000298023
91,120,64969,5,4,3:3:0:0:
111,284,65150,1,4,3:3:0:0:
201,133,65330,5,12,3:3:0:0:
59,220,65511,1,12,3:3:0:0:
139,57,65692,5,0,0:0:0:0:
257,246,65872,1,0,0:0:0:0:
294,24,66053,5,8,2:2:0:0:
154,201,66234,2,0,P|83:211|44:195,1,90.000000298023
253,294,66595,2,0,P|324:304|363:288,1,90.000000298023
440,207,66957,1,0,0:0:0:0:
256,192,67137,12,0,68222,0:0:0:0:
