osu file format v14

[General]
AudioFilename: audio.mp3
AudioLeadIn: 0
PreviewTime: -1
Countdown: 0
SampleSet: Normal
StackLeniency: 0.6
Mode: 0
LetterboxInBreaks: 0
WidescreenStoryboard: 0

[Editor]
Bookmarks: 11656,16174,16897,18342,19427,20872,21957,23041,24487,25571,27740,29186,32981,33523,34427,35872,37318,37499,39306,40210,41656,42378,44999,47439,48704,49788,50872,51957,53041,53222,53674,55933,56113,57559,58824,59005,60270,63162,63342,64607,64788,66234,66957
DistanceSpacing: 1.1
BeatDivisor: 4
GridSize: 32
TimelineZoom: 1

[Metadata]
Title:Mikasa Sukasa
TitleUnicode:Mikasa Sukasa
Artist:Yzomandias
ArtistUnicode:Yzomandias
Creator:Brahmaputra
Version:Extra
Source:
Tags:Milion+ Logic (YYY) Yzo empire
BeatmapID:1575440
BeatmapSetID:747714

[Difficulty]
HPDrainRate:5
CircleSize:4
OverallDifficulty:8.5
ApproachRate:9.3
SliderMultiplier:2.49999990463257
SliderTickRate:1

[Events]
//Background and Video events
0,0,"MG_4862-1280x853.jpg",0,0
//Break Periods
//Storyboard Layer 0 (Background)
//Storyboard Layer 1 (Fail)
//Storyboard Layer 2 (Pass)
//Storyboard Layer 3 (Foreground)
//Storyboard Sound Samples

[TimingPoints]
10391,361.44578313253,4,1,0,100,1,0
43101,-133.333333333333,4,1,0,100,0,0
47348,-100,4,1,0,100,0,0

[Colours]
Combo1 : 255,0,128
Combo2 : 58,0,179
Combo3 : 107,255,9
Combo4 : 230,0,5

[HitObjects]
205,279,10390,5,4,3:3:0:0:
205,104,10571,1,0,0:0:0:0:
357,192,10752,1,0,0:0:0:0:
154,192,10933,1,4,3:3:0:0:
306,104,11113,1,8,2:2:0:0:
306,279,11295,1,0,0:0:0:0:
306,279,11475,2,0,B|343:268|371:294|371:294|394:277|429:282,1,124.999995231629
374,193,11836,5,0,0:0:0:0:
259,198,12017,1,0,0:0:0:0:
304,23,12198,6,0,B|328:44|328:44|328:153,1,124.999995231629
212,75,12559,1,8,2:2:0:0:
410,116,12740,1,0,0:0:0:0:
167,174,12921,1,4,3:3:0:0:
400,53,13101,1,4,3:3:0:0:
112,53,13282,5,12,3:3:0:0:
345,174,13462,1,12,3:3:0:0:
66,195,13644,1,0,0:0:0:0:
299,74,13824,1,0,0:0:0:0:
185,238,14005,6,0,P|136:261|89:253,2,62.4999976158143
326,237,14366,2,0,P|353:255|383:261,2,62.4999976158143
201,109,14728,5,0,0:0:0:0:
260,297,14909,1,0,0:0:0:0:
282,55,15089,1,0,0:0:0:0:
223,243,15270,1,4,3:3:0:0:
166,48,15451,1,8,2:2:0:0:
310,257,15631,1,0,0:0:0:0:
264,9,15812,1,4,3:3:0:0:
120,218,15992,1,0,0:0:0:0:
120,218,16174,6,0,B|143:234|143:234|155:268|155:268|191:264|191:264|233:288,1,124.999995231629
157,89,16535,5,0,0:0:0:0:
116,353,16716,1,4,3:3:0:0:
337,191,16897,1,8,2:2:0:0:
116,31,17077,1,4,3:3:0:0:
337,191,17258,2,0,B|386:188|407:162|407:162|437:156|465:169,1,124.999995231629
339,97,17619,2,0,P|287:113|201:83,1,124.999995231629
394,314,17981,5,4,3:3:0:0:
280,35,18162,1,0,0:0:0:0:
257,332,18342,5,8,2:2:0:0:
201,36,18523,1,0,0:0:0:0:
130,327,18704,5,4,3:3:0:0:
131,28,18884,1,4,3:3:0:0:
57,319,19065,5,12,3:3:0:0:
252,90,19246,1,12,3:3:0:0:
172,379,19427,5,0,0:0:0:0:
121,84,19607,1,0,0:0:0:0:
381,149,19788,6,0,P|420:132|465:142,2,62.4999976158143
131,149,20150,2,0,P|92:132|47:142,2,62.4999976158143
216,296,20511,5,0,0:0:0:0:
216,264,20692,1,0,0:0:0:0:
243,280,20872,1,0,0:0:0:0:
201,305,21053,1,0,3:3:0:0:
220,245,21234,1,0,2:2:0:0:
262,292,21415,1,0,0:0:0:0:
181,307,21595,1,0,0:0:0:0:
226,225,21776,1,0,0:0:0:0:
271,305,21957,2,0,B|307:317|307:317|337:306|337:306|365:313|365:313|410:301,1,124.999995231629
411,132,22318,5,0,0:0:0:0:
337,202,22499,1,4,3:3:0:0:
256,156,22680,5,8,2:2:0:0:
182,226,22861,1,4,3:3:0:0:
323,80,23041,2,0,B|287:92|287:92|257:81|257:81|225:92|225:92|184:76,1,124.999995231629
256,276,23403,2,0,P|265:197|235:135,1,124.999995231629
92,189,23764,5,4,3:3:0:0:
419,194,23945,1,0,0:0:0:0:
142,74,24125,1,8,2:2:0:0:
369,309,24306,1,0,0:0:0:0:
258,28,24487,1,4,3:3:0:0:
253,355,24668,1,4,3:3:0:0:
373,78,24848,1,12,3:3:0:0:
138,305,25029,1,12,3:3:0:0:
138,79,25210,5,0,0:0:0:0:
373,306,25390,1,0,0:0:0:0:
104,199,25571,6,0,P|57:204|3:184,2,62.4999976158143
408,199,25933,2,0,P|455:204|509:184,2,62.4999976158143
291,93,26294,5,0,0:0:0:0:
171,161,26475,1,0,0:0:0:0:
290,230,26656,1,0,0:0:0:0:
198,73,26836,1,4,3:3:0:0:
198,260,27017,1,8,2:2:0:0:
360,166,27198,1,0,0:0:0:0:
95,183,27378,1,4,3:3:0:0:
311,320,27559,1,0,0:0:0:0:
312,59,27740,2,0,P|250:75|182:59,1,124.999995231629
62,13,28101,5,0,2:2:0:0:
155,114,28282,1,4,3:3:0:0:
32,50,28463,1,8,2:2:0:0:
167,73,28644,1,0,2:2:0:0:
45,121,28824,2,0,B|73:167|14:203|69:268,1,124.999995231629
128,307,29186,2,0,P|243:309|272:291,1,124.999995231629
415,103,29547,5,4,3:3:0:0:
328,353,29728,1,0,0:0:0:0:
316,64,29909,5,8,2:2:0:0:
253,353,30089,1,0,0:0:0:0:
217,29,30270,5,4,3:3:0:0:
177,353,30451,1,4,3:3:0:0:
110,29,30631,5,12,3:3:0:0:
365,249,30812,1,12,3:3:0:0:
49,127,30993,5,0,0:0:0:0:
386,122,31174,1,0,0:0:0:0:
74,248,31354,2,0,P|-7:271|-42:267,2,62.4999976158143
305,248,31716,2,0,P|333:261|363:269,2,62.4999976158143
256,192,32077,12,0,33162,0:0:0:0:
395,90,33523,5,4,3:3:0:0:
202,355,33703,1,0,0:0:0:0:
427,192,33884,5,0,0:0:0:0:
116,293,34065,1,4,3:3:0:0:
395,293,34245,5,8,2:2:0:0:
116,90,34426,1,0,0:0:0:0:
293,309,34607,1,4,3:3:0:0:
302,263,34697,1,0,0:0:0:0:
299,217,34788,2,0,B|288:178|288:178|294:149|294:149|270:137|270:137|248:105,1,124.999995231629
151,266,35150,5,0,0:0:0:0:
442,161,35330,1,4,3:3:0:0:
125,137,35511,1,0,0:0:0:0:
352,313,35692,1,8,2:2:0:0:
329,65,35872,2,0,P|251:77|179:54,1,124.999995231629
354,171,36234,5,4,3:3:0:0:
257,10,36415,1,12,3:3:0:0:
166,174,36595,1,12,3:3:0:0:
314,97,36776,6,0,P|278:184|307:246,1,124.999995231629
385,342,37137,2,0,P|311:365|243:332,1,124.999995231629
170,308,37499,1,4,3:3:0:0:
160,262,37589,1,0,0:0:0:0:
163,216,37680,2,0,B|174:176|174:176|168:147|168:147|192:135|192:135|214:103,1,124.999995231629
41,213,38041,5,0,0:0:0:0:
296,216,38222,1,0,0:0:0:0:
107,49,38403,1,0,0:0:0:0:
154,312,38583,1,0,0:0:0:0:
281,88,38764,1,0,0:0:0:0:
114,211,38945,1,0,0:0:0:0:
331,291,39125,1,0,0:0:0:0:
331,291,39306,2,0,P|406:274|473:293,1,124.999995231629
377,66,39668,6,0,B|392:130|392:130|377:208,1,124.999995231629
188,139,40029,2,0,B|250:155|250:155|339:133,1,124.999995231629
252,84,40390,5,4,3:3:0:0:
252,84,40480,1,0,0:0:0:0:
252,84,40570,1,0,0:0:0:0:
212,296,40752,1,0,0:0:0:0:
365,113,40933,1,0,0:0:0:0:
106,206,41113,1,4,3:3:0:0:
447,257,41294,1,0,0:0:0:0:
98,52,41475,1,8,2:2:0:0:
361,355,41656,2,0,B|353:296|380:272|380:272|354:240|376:184,1,124.999995231629
512,194,42017,5,12,3:3:0:0:
158,356,42198,1,12,3:3:0:0:
278,4,42378,1,0,0:0:0:0:
278,4,42559,2,0,B|278:51|278:51|265:72|265:72|277:101|277:101|277:144,1,124.999995231629
50,77,42921,5,8,2:2:0:0:
50,77,43101,1,4,3:3:0:0:
50,77,43282,2,0,B|83:143|52:201|52:201|113:168|214:171|370:263|305:447|-94:366|132:155|248:170|295:194|295:194|362:208|391:160|391:160|426:216|386:284,1,890.625000000001
396,263,45089,5,12,3:3:0:0:
62,127,45451,5,12,3:3:0:0:
366,62,45812,5,12,2:2:0:0:
106,304,45993,1,0,0:0:0:0:
214,71,46174,1,4,3:3:0:0:
214,71,46264,1,0,0:0:0:0:
214,71,46354,1,0,0:0:0:0:
300,291,46535,5,0,0:0:0:0:
81,228,46716,1,0,0:0:0:0:
357,182,46897,1,4,3:3:0:0:
205,340,47077,1,0,0:0:0:0:
141,73,47258,1,8,2:2:0:0:
141,73,47439,2,0,B|183:73|205:91|205:91|226:72|277:72,1,124.999995231629
384,275,47800,5,12,3:3:0:0:
426,157,47981,1,12,3:3:0:0:
175,281,48162,5,12,3:3:0:0:
297,140,48342,1,0,0:0:0:0:
0,149,48523,5,0,0:0:0:0:
231,53,48704,1,8,2:2:0:0:
96,91,48884,2,0,B|128:137|77:169|109:226,1,124.999995231629
102,212,49156,1,0,0:0:0:0:
102,212,49246,1,0,0:0:0:0:
269,297,49427,5,0,0:0:0:0:
320,117,49607,1,0,0:0:0:0:
167,7,49788,1,0,0:0:0:0:
90,128,49969,2,0,P|153:146|234:120,1,124.999995231629
393,63,50330,2,0,B|351:130|432:111|353:233,1,124.999995231629
295,281,50692,5,0,0:0:0:0:
478,112,50872,1,4,3:3:0:0:
235,58,51053,2,0,B|235:97|235:97|226:121|226:121|234:146|234:146|234:209,1,124.999995231629
123,240,51415,5,4,3:3:0:0:
56,135,51595,2,0,P|93:75|172:70,1,124.999995231629
144,150,51957,1,4,3:3:0:0:
144,150,52047,1,0,0:0:0:0:
144,150,52137,1,0,0:0:0:0:
114,355,52318,5,0,0:0:0:0:
296,165,52499,1,0,0:0:0:0:
322,319,52680,5,4,3:3:0:0:
140,129,52861,1,0,0:0:0:0:
80,211,53041,2,0,P|145:227|221:196,1,124.999995231629
329,56,53403,5,4,3:3:0:0:
264,329,53583,1,4,3:3:0:0:
112,79,53764,5,12,3:3:0:0:
385,144,53944,1,12,3:3:0:0:
119,332,54125,2,0,P|109:261|139:199,1,124.999995231629
381,86,54487,6,0,P|315:107|234:79,1,124.999995231629
151,41,54848,1,4,3:3:0:0:
169,99,54938,1,0,0:0:0:0:
158,160,55028,1,0,0:0:0:0:
158,160,55210,2,0,B|123:204|94:137|24:189,1,124.999995231629
80,241,55571,1,0,0:0:0:0:
95,327,55752,1,0,0:0:0:0:
95,327,56656,5,4,3:3:0:0:
261,271,56836,1,0,0:0:0:0:
480,178,57017,5,0,0:0:0:0:
314,122,57197,1,4,3:3:0:0:
52,74,57378,5,8,2:2:0:0:
218,18,57558,1,0,0:0:0:0:
128,149,57740,1,4,3:3:0:0:
128,149,57830,1,0,0:0:0:0:
128,149,57921,2,0,B|119:185|119:185|135:210|135:210|117:241|117:241|124:304,1,124.999995231629
245,192,58282,5,0,0:0:0:0:
31,198,58463,1,4,3:3:0:0:
189,345,58644,1,0,0:0:0:0:
139,122,58824,1,8,2:2:0:0:
139,122,59005,2,0,P|144:194|98:254,1,124.999995231629
329,113,59366,5,4,3:3:0:0:
70,174,59547,1,12,3:3:0:0:
246,349,59728,1,12,3:3:0:0:
329,113,59909,2,0,P|257:129|191:111,1,124.999995231629
82,27,60270,2,0,B|61:76|105:93|79:151,1,124.999995231629
0,234,60631,1,4,3:3:0:0:
39,257,60721,1,0,0:0:0:0:
79,281,60811,1,0,0:0:0:0:
256,192,60993,12,0,62077,0:0:0:0:
223,128,62439,5,4,3:3:0:0:
389,244,62619,1,0,0:0:0:0:
166,19,62800,5,0,0:0:0:0:
0,135,62980,1,4,3:3:0:0:
163,201,63162,5,8,2:2:0:0:
329,317,63342,1,0,0:0:0:0:
278,188,63523,1,4,3:3:0:0:
278,188,63613,1,0,0:0:0:0:
278,188,63704,2,0,P|287:116|268:60,1,124.999995231629
479,74,64065,5,0,0:0:0:0:
203,123,64246,1,4,3:3:0:0:
476,246,64427,1,0,0:0:0:0:
476,246,64607,2,0,P|409:265|342:249,1,124.999995231629
374,54,64969,5,4,3:3:0:0:
420,356,65150,1,4,3:3:0:0:
138,54,65330,5,12,3:3:0:0:
92,356,65511,1,12,3:3:0:0:
374,54,65692,5,0,0:0:0:0:
72,100,65873,1,0,0:0:0:0:
374,330,66053,5,8,2:2:0:0:
72,284,66234,1,4,3:3:0:0:
302,95,66415,5,4,3:3:0:0:
312,139,66505,1,0,0:0:0:0:
312,186,66595,2,0,B|349:228|278:266|330:313,1,124.999995231629
392,357,66957,1,0,0:0:0:0:
256,192,67137,12,0,68222,0:0:0:0:
