osu file format v14

[General]
AudioFilename: audio.mp3
AudioLeadIn: 0
PreviewTime: 125645
Countdown: 0
SampleSet: Soft
StackLeniency: 0.4
Mode: 0
LetterboxInBreaks: 0
WidescreenStoryboard: 0

[Editor]
Bookmarks: 165175
DistanceSpacing: 0.4
BeatDivisor: 4
GridSize: 8
TimelineZoom: 2.799999

[Metadata]
Title:Yukinofunk
TitleUnicode:YUKINOFUNK
Artist:Yvklnx Mlyvzvwv
ArtistUnicode:Yvklnx Mlyvzvwv
Creator:Sylvarus
Version:Funky
Source:彼氏彼女の事情
Tags:YVK1N0 Miyazawa Yukino 宮沢雪野 Atsuko Enomoto 榎本温子 宮//シ//尺//雪//里//予 ゅL≠σ tsubasa Kare Kano Kareshi Kanojo no Jijou Plastic Love 竹内まりや Mariya Takeuchi 佐倉椿 Sakura Tsubaki 沢田亜弥 Sawada Aya 瀬奈りか Sena Rika Mashup Future Funk
BeatmapID:1982121
BeatmapSetID:949194

[Difficulty]
HPDrainRate:3
CircleSize:4
OverallDifficulty:8
ApproachRate:9.3
SliderMultiplier:2
SliderTickRate:1

[Events]
//Background and Video events
0,0,"noragami_yato_yukine_iki_hiyori_anime_children_winter_103033_1920x1080.jpg",0,0
//Break Periods
//Storyboard Layer 0 (Background)
//Storyboard Layer 1 (Fail)
//Storyboard Layer 2 (Pass)
//Storyboard Layer 3 (Foreground)
//Storyboard Sound Samples

[TimingPoints]
28234,352.941176470588,4,2,1,75,1,0
33528,-83.3333333333333,4,2,1,75,0,0
33881,-100,4,2,1,75,0,0
44822,-83.3333333333333,4,2,1,75,0,0
45175,-100,4,2,1,75,0,0
53646,-200,4,2,1,75,0,0
54704,-400,4,2,1,75,0,0
55057,-100,4,2,1,75,0,0
64940,-200,4,2,1,20,0,0
65204,-200,4,2,1,5,0,0
65293,-166.666666666667,4,2,1,30,0,0
65557,-166.666666666667,4,2,1,5,0,0
65646,-142.857142857143,4,2,1,40,0,0
65910,-142.857142857143,4,2,1,5,0,0
65999,-125,4,2,1,50,0,0
66351,-100,4,2,1,75,0,0
76234,-200,4,2,1,30,0,0
81175,-66.6666666666667,4,2,1,75,0,0
81881,-100,4,2,1,75,0,0
92469,-66.6666666666667,4,2,1,75,0,0
93175,-100,4,2,1,65,0,0
104469,-133.333333333333,4,2,1,60,0,0
115057,-133.333333333333,4,2,1,65,0,0
115233,-125,4,2,1,70,0,0
115410,-111.111111111111,4,2,1,75,0,0
115586,-100,4,2,1,55,0,0
116028,-100,4,2,2,55,0,0
117175,-100,4,2,1,45,0,0
117351,-100,4,2,2,45,0,0
118586,-100,4,2,1,35,0,0
118763,-100,4,2,2,35,0,0
119998,-100,4,2,1,45,0,0
120175,-100,4,2,2,45,0,0
121410,-100,4,2,1,45,0,0
121586,-100,4,2,2,45,0,0
122822,-100,4,2,1,45,0,0
122998,-100,4,2,2,45,0,0
124233,-100,4,2,1,50,0,0
124586,-100,4,2,2,60,0,0
124939,-100,4,2,1,65,0,0
125292,-100,4,2,1,70,0,0
125645,-83.3333333333333,4,2,1,75,0,1
142586,-100,4,2,1,60,0,0

[Colours]
Combo1 : 192,192,192
Combo2 : 43,217,190
Combo3 : 221,236,255
Combo4 : 255,102,179
Combo5 : 255,205,53
Combo6 : 62,158,255

[HitObjects]
398,182,28940,6,2,L|466:182,1,50
326,256,29293,38,2,L|384:290,1,50
226,284,29646,6,2,L|260:342,1,50
125,258,29999,54,2,L|125:326,1,50
34,120,30352,2,2,L|87:120,1,50
34,135,30528,2,2,L|87:135,1,50
34,150,30704,1,0,0:0:0:0:
34,165,30793,1,0,0:0:0:0:
34,180,30881,1,0,0:0:0:0:
34,195,30969,1,0,0:0:0:0:
34,210,31057,6,0,P|88:155|100:119,1,100,0|2,3:0|0:0,0:0:0:0:
177,33,31322,1,2,0:0:0:0:
164,40,31410,2,0,P|184:114|209:142,1,100,8|2,3:1|0:0,0:0:0:0:
242,252,31675,1,2,0:0:0:0:
246,237,31763,2,0,P|171:217|134:225,1,100,0|0,3:0|0:0,0:0:0:0:
90,287,32028,1,2,0:0:0:0:
90,287,32116,1,8,3:1:0:0:
263,340,32293,5,2,0:0:0:0:
262,356,32381,1,2,0:0:0:0:
329,282,32469,22,0,L|338:168,1,100,0|2,3:0|0:0,0:0:0:0:
353,72,32734,1,2,0:0:0:0:
351,86,32822,2,0,P|405:94|452:84,1,100,8|2,3:1|0:0,0:0:0:0:
435,174,33087,1,2,0:0:0:0:
435,189,33175,2,0,P|455:239|487:275,1,100,0|0,3:0|0:0,0:0:0:0:
329,282,33528,22,0,B|286:274|252:281|252:281|242:260|242:260|198:284|164:271,1,179.999994506836,8|0,3:1|0:0,0:0:0:0:
119,258,33881,6,0,L|125:189,1,50,0|0,3:0|0:0,0:0:0:0:
130,59,34057,1,2,0:0:0:0:
128,74,34146,2,0,P|87:91|67:92,1,50,2|8,0:0|3:1,0:0:0:0:
210,20,34322,2,0,P|239:20|282:44,1,50,2|0,0:0|0:0,0:0:0:0:
370,109,34499,1,2,0:0:0:0:
370,109,34586,2,0,P|411:126|479:117,1,100,0|2,3:0|0:0,0:0:0:0:
210,20,34939,2,0,L|222:163,1,100,8|0,3:1|0:0,0:0:0:0:
309,294,35293,6,0,P|245:282|195:291,1,100,0|2,3:0|0:0,0:0:0:0:
85,280,35557,1,2,0:0:0:0:
99,286,35646,2,0,P|141:236|158:188,1,100,8|0,3:1|0:0,0:0:0:0:
210,20,35999,2,0,L|222:163,1,100,0|2,3:0|0:0,0:0:0:0:
436,47,36351,1,8,3:1:0:0:
210,20,36528,1,2,0:0:0:0:
376,124,36704,22,0,L|372:180,1,50,0|0,3:0|0:0,0:0:0:0:
362,293,36881,1,2,0:0:0:0:
360,307,36969,2,0,P|359:335|361:361,1,50,2|8,0:0|3:1,0:0:0:0:
271,238,37146,2,0,P|272:266|270:292,1,50,2|0,0:0|0:0,0:0:0:0:
209,133,37322,1,2,0:0:0:0:
214,118,37411,2,0,P|218:58|205:9,1,100,0|0,3:0|0:0,0:0:0:0:
354,6,37675,1,2,0:0:0:0:
305,79,37763,2,0,P|296:106|298:148,1,50,8|0,3:1|0:0,0:0:0:0:
463,181,37939,22,0,B|466:152|466:152|474:185,1,50,2|0,0:0|0:0,0:0:0:0:
405,277,38116,5,0,3:0:0:0:
356,285,38204,1,0,0:0:0:0:
308,272,38292,1,0,0:0:0:0:
259,263,38380,1,0,0:0:0:0:
211,277,38468,1,8,3:1:0:0:
211,277,38557,2,0,P|174:293|127:295,1,50,2|0,0:0|0:0,0:0:0:0:
109,169,38734,1,2,0:0:0:0:
109,169,38822,2,0,P|141:193|166:233,1,50,0|0,3:0|0:0,0:0:0:0:
237,156,38999,5,2,0:0:0:0:
221,157,39087,1,2,0:0:0:0:
268,177,39175,2,0,L|325:172,3,50,8|0|0|0,3:1|0:0|0:0|0:0,0:0:0:0:
433,181,39528,22,0,P|432:123|458:58,1,100,0|2,3:0|0:0,0:0:0:0:
366,42,39793,1,2,0:0:0:0:
366,42,39881,2,0,P|304:39|258:19,1,100,8|2,3:1|0:0,0:0:0:0:
147,89,40146,1,2,0:0:0:0:
147,89,40234,2,0,P|85:92|39:112,1,100,0|2,3:0|0:0,0:0:0:0:
104,307,40587,2,0,L|114:190,1,100,8|0,3:1|0:0,0:0:0:0:
328,292,40940,22,0,L|268:287,1,50,0|0,3:0|0:0,0:0:0:0:
317,174,41116,2,0,L|291:119,1,50,2|0,0:0|0:0,0:0:0:0:
418,222,41293,2,0,P|468:186|486:147,1,100,8|2,3:1|0:0,0:0:0:0:
177,35,41646,6,0,L|178:89,1,50,0|0,3:0|0:0,0:0:0:0:
165,51,41822,6,0,L|166:105,1,50,0|0,3:0|0:0,0:0:0:0:
478,174,42352,22,0,P|424:229|412:265,1,100,0|2,3:0|0:0,0:0:0:0:
335,351,42617,1,2,0:0:0:0:
348,344,42705,2,0,P|328:270|303:242,1,100,8|2,3:1|0:0,0:0:0:0:
270,132,42970,1,2,0:0:0:0:
266,147,43058,2,0,P|341:167|378:159,1,100,0|0,3:0|0:0,0:0:0:0:
422,97,43323,1,2,0:0:0:0:
422,97,43411,1,8,3:1:0:0:
241,45,43586,21,2,0:0:0:0:
242,29,43676,1,2,0:0:0:0:
183,102,43764,6,0,L|174:216,1,100,0|2,3:0|0:0,0:0:0:0:
159,312,44029,1,2,0:0:0:0:
161,298,44117,2,0,P|107:290|60:300,1,100,8|2,3:1|0:0,0:0:0:0:
77,210,44382,1,2,0:0:0:0:
77,195,44470,2,0,P|57:145|25:109,1,100,0|0,3:0|0:0,0:0:0:0:
183,102,44823,6,0,B|226:110|260:103|260:103|270:124|270:124|314:100|348:113,1,179.999994506836,8|0,3:1|0:0,0:0:0:0:
393,126,45176,22,0,L|387:195,1,50,0|0,3:0|0:0,0:0:0:0:
382,325,45352,1,2,0:0:0:0:
384,310,45439,2,0,P|425:293|445:292,1,50,2|8,0:0|3:1,0:0:0:0:
302,364,45617,2,0,P|273:364|230:340,1,50,2|0,0:0|0:0,0:0:0:0:
142,275,45792,1,2,0:0:0:0:
142,275,45881,2,0,P|101:258|33:267,1,100,0|0,3:0|0:0,0:0:0:0:
302,364,46235,2,0,L|290:221,1,100,8|0,3:1|0:0,0:0:0:0:
203,90,46586,22,0,P|267:102|317:93,1,100,0|2,3:0|0:0,0:0:0:0:
427,104,46852,1,2,0:0:0:0:
413,98,46939,2,0,P|371:148|354:196,1,100,8|0,3:1|0:0,0:0:0:0:
302,364,47292,2,0,L|290:221,1,100,0|0,3:0|0:0,0:0:0:0:
76,337,47645,1,8,3:1:0:0:
302,364,47823,1,2,0:0:0:0:
136,260,47999,6,0,L|140:204,1,50,0|0,3:0|0:0,0:0:0:0:
150,91,48176,1,2,0:0:0:0:
152,77,48264,2,0,P|153:49|151:23,1,50,2|8,0:0|3:1,0:0:0:0:
241,146,48439,2,0,P|240:118|242:92,1,50,2|0,0:0|0:0,0:0:0:0:
304,247,48616,1,2,0:0:0:0:
298,266,48704,2,0,P|294:326|307:375,1,100,0|0,3:0|0:0,0:0:0:0:
158,378,48970,1,2,0:0:0:0:
207,305,49058,2,0,P|216:278|214:236,1,50,8|0,3:1|0:0,0:0:0:0:
49,203,49235,6,0,B|46:232|46:232|38:199,1,50,2|0,0:0|0:0,0:0:0:0:
107,107,49411,21,0,3:0:0:0:
156,99,49499,1,0,0:0:0:0:
204,112,49587,1,0,0:0:0:0:
253,121,49675,1,0,0:0:0:0:
301,107,49763,1,8,3:1:0:0:
301,107,49852,2,0,P|338:91|385:89,1,50,2|0,0:0|0:0,0:0:0:0:
400,203,50029,1,2,0:0:0:0:
400,203,50117,2,0,P|368:179|343:139,1,50,0|0,3:0|0:0,0:0:0:0:
289,224,50292,21,2,0:0:0:0:
305,223,50382,1,2,0:0:0:0:
265,207,50470,2,0,L|208:212,3,50,8|0|0|0,3:1|0:0|0:0|0:0,0:0:0:0:
79,203,50823,6,0,P|80:261|54:326,1,100,0|2,3:0|0:0,0:0:0:0:
146,342,51086,1,2,0:0:0:0:
146,342,51176,2,0,P|208:345|254:365,1,100,8|2,3:1|0:0,0:0:0:0:
365,295,51439,1,2,0:0:0:0:
365,295,51529,2,0,P|427:292|473:272,1,100,0|0,3:0|0:0,0:0:0:0:
408,77,51882,2,0,L|397:193,1,100,8|0,3:1|0:0,0:0:0:0:
183,91,52235,6,0,L|243:96,1,50,0|0,3:0|0:0,0:0:0:0:
195,210,52411,2,0,L|220:264,1,50
94,162,52586,2,0,P|44:198|26:237,1,100,8|0,3:1|0:0,0:0:0:0:
236,333,52939,54,0,L|182:334,1,50,0|0,3:0|0:0,0:0:0:0:
195,210,53116,2,0,L|173:164,1,50
248,326,53293,53,0,3:0:0:0:
316,298,53381,1,0,3:0:0:0:
362,240,53469,1,0,3:0:0:0:
374,167,53557,1,0,3:0:0:0:
347,97,53646,70,0,P|415:111|493:82,1,150
253,21,54351,2,0,L|253:98,1,75
254,136,54704,2,0,P|219:128|210:129,1,37.5
167,242,55057,6,0,L|71:268,1,100,0|0,3:0|0:0,0:0:0:0:
3,155,55410,2,0,L|99:180,1,100,8|0,3:1|0:0,0:0:0:0:
167,242,55763,2,0,L|71:268,1,100,0|0,3:0|0:0,0:0:0:0:
173,333,56028,1,0,0:0:0:0:
185,346,56116,2,0,P|256:352|283:345,1,100,8|0,3:1|0:0,0:0:0:0:
378,142,56469,21,0,3:0:0:0:
432,313,56646,2,2,L|449:376,1,50
428,59,56822,5,8,3:1:0:0:
374,230,56999,2,2,L|356:293,1,50
286,138,57175,5,0,3:0:0:0:
457,192,57352,2,2,L|520:209,1,50
208,125,57528,21,8,3:1:0:0:
379,71,57705,2,2,L|442:53,1,50
208,125,57881,22,0,P|129:128|97:120,1,100,0|0,3:0|0:0,0:0:0:0:
272,210,58146,1,2,0:0:0:0:
288,219,58234,2,0,P|209:216|177:224,1,100,8|0,3:1|0:0,0:0:0:0:
251,347,58587,1,0,3:0:0:0:
244,106,58763,1,0,0:0:0:0:
225,117,58851,1,0,0:0:0:0:
208,125,58940,6,0,P|129:128|97:120,1,100,8|0,3:1|0:0,0:0:0:0:
288,219,59293,6,0,L|368:116,1,100,0|2,3:0|0:0,0:0:0:0:
476,252,59557,1,2,0:0:0:0:
473,265,59645,2,0,L|343:247,1,100,8|2,3:1|0:0,0:0:0:0:
409,89,59910,1,2,0:0:0:0:
421,82,59998,2,0,L|470:202,1,100,0|0,3:0|0:0,0:0:0:0:
304,309,60351,1,8,3:1:0:0:
349,140,60528,1,0,0:0:0:0:
397,364,60704,21,0,3:0:0:0:
208,299,60881,2,2,L|147:304,1,50
366,206,61057,21,8,3:1:0:0:
191,302,61234,2,2,L|130:307,1,50
44,121,61410,5,0,3:0:0:0:
219,217,61587,2,2,L|280:222,1,50
238,4,61763,5,8,3:1:0:0:
142,179,61940,2,2,L|137:240,1,50
383,122,62116,21,0,3:0:0:0:
224,115,62293,1,0,0:0:0:0:
366,206,62469,1,8,3:1:0:0:
347,15,62646,2,2,P|410:14|432:25,1,50
489,136,62822,22,0,L|496:52,1,50,0|2,3:0|0:0,0:0:0:0:
366,206,62999,2,0,L|373:289,1,50,0|2,0:0|0:0,0:0:0:0:
493,86,63175,2,0,L|500:2,1,50,8|2,3:1|0:0,0:0:0:0:
370,255,63352,2,0,L|377:338,1,50,0|2,0:0|0:0,0:0:0:0:
288,173,63528,6,0,P|210:165|164:182,1,100,0|0,3:0|0:0,0:0:0:0:
124,220,63793,1,0,0:0:0:0:
124,220,63881,2,0,P|46:228|0:211,1,100,8|0,3:1|0:0,0:0:0:0:
234,269,64234,1,0,3:0:0:0:
66,141,64410,1,0,0:0:0:0:
64,126,64499,1,0,0:0:0:0:
63,111,64587,2,0,L|53:3,1,100,8|0,3:1|0:0,0:0:0:0:
218,71,64940,54,0,P|243:66|282:29,1,75,0|0,3:0|0:0,0:0:0:0:
294,43,65293,54,0,P|264:76|222:88,1,89.9999972534181,0|0,3:0|0:0,0:0:0:0:
224,111,65645,22,0,P|272:92|306:53,1,104.999996795654,0|0,3:0|0:0,0:0:0:0:
326,39,65999,54,0,P|366:71|417:81,1,80,0|0,3:0|0:0,0:0:0:0:
387,294,66351,6,0,L|357:182,1,100,0|2,3:0|0:0,0:0:0:0:
247,338,66616,1,2,0:0:0:0:
236,351,66704,2,0,L|236:235,1,100,8|0,3:1|0:0,0:0:0:0:
112,173,67057,2,0,L|169:73,1,100,0|2,3:0|0:0,0:0:0:0:
236,251,67322,1,2,0:0:0:0:
244,267,67410,2,0,L|273:155,1,100,8|0,3:1|0:0,0:0:0:0:
326,39,67763,21,0,3:0:0:0:
402,257,67940,2,2,L|396:322,1,50
365,110,68116,5,8,3:1:0:0:
321,336,68293,2,2,L|283:390,1,50
494,360,68469,5,0,3:0:0:0:
240,223,68646,1,2,0:0:0:0:
225,223,68734,1,2,0:0:0:0:
210,223,68822,2,0,P|212:165|230:126,1,100,8|0,3:1|0:0,0:0:0:0:
321,187,69175,22,0,P|384:190|433:171,1,100,0|2,3:0|0:0,0:0:0:0:
512,191,69440,1,2,0:0:0:0:
507,177,69528,2,0,P|478:120|437:88,1,100,8|2,3:1|0:0,0:0:0:0:
418,13,69793,1,2,0:0:0:0:
406,21,69881,2,0,P|371:74|363:125,1,100,0|2,3:0|0:0,0:0:0:0:
309,179,70146,1,2,0:0:0:0:
321,187,70234,2,0,P|384:190|433:171,1,100,8|0,3:1|0:0,0:0:0:0:
202,137,70586,22,2,P|199:200|218:249,1,100,0|2,3:0|0:0,0:0:0:0:
113,197,70851,1,2,0:0:0:0:
117,216,70940,2,0,P|120:279|101:328,1,100,8|0,3:1|0:0,0:0:0:0:
152,62,71293,2,0,P|213:51|260:64,1,100,0|0,3:0|0:0,0:0:0:0:
24,250,71646,1,8,3:1:0:0:
33,88,71822,1,2,0:0:0:0:
194,187,71999,6,0,P|201:151|202:132,1,50,0|2,3:0|0:0,0:0:0:0:
277,252,72175,2,0,P|270:216|269:197,1,50,0|2,0:0|0:0,0:0:0:0:
196,292,72351,1,8,3:1:0:0:
191,278,72440,2,0,P|132:265|76:276,1,100,2|0,0:0|0:0,0:0:0:0:
20,322,72704,5,0,3:0:0:0:
269,341,72881,1,2,0:0:0:0:
283,342,72969,1,2,0:0:0:0:
298,343,73057,1,8,3:1:0:0:
429,219,73234,2,2,L|360:225,1,50
277,252,73410,21,0,3:0:0:0:
444,314,73587,2,2,L|512:320,1,50
436,124,73763,21,8,3:1:0:0:
374,292,73940,2,2,L|367:360,1,50
344,97,74116,5,0,3:0:0:0:
376,272,74293,2,2,L|369:340,1,50
191,278,74469,6,0,P|146:277|132:273,1,50,8|2,3:1|0:0,0:0:0:0:
294,94,74646,2,2,P|339:95|353:99,1,50
174,197,74822,22,0,P|170:131|179:97,1,100,0|2,3:0|0:0,0:0:0:0:
107,13,75087,1,2,0:0:0:0:
105,28,75175,2,0,P|71:55|40:63,1,50,8|0,3:1|0:0,0:0:0:0:
191,23,75351,2,2,P|231:38|253:61,1,50
174,197,75528,2,0,P|118:233|84:242,1,100,0|0,3:0|0:0,0:0:0:0:
171,345,75881,21,0,3:0:0:0:
229,300,75969,1,0,3:0:0:0:
302,289,76057,1,0,3:0:0:0:
371,315,76145,1,0,3:0:0:0:
418,373,76234,70,0,P|439:307|503:254,1,150
369,220,76940,2,0,P|393:187|395:196,1,100
260,225,77557,1,0,0:0:0:0:
260,225,77645,2,0,P|268:186|266:161,1,50
178,266,77999,2,0,P|170:227|172:208,1,50
165,171,78263,2,0,P|134:132|142:176,1,125
330,89,79057,54,0,P|366:81|398:91,1,66.6666666666667
428,176,79469,2,0,L|424:234,1,50
411,296,79704,2,0,L|402:200,1,83.3333333333333
335,333,80175,1,0,0:0:0:0:
254,342,80351,1,0,0:0:0:0:
178,317,80528,2,0,P|149:293|135:226,1,100
148,126,81175,6,0,P|199:59|195:143,1,225.000008583069
299,99,81528,2,0,B|303:93|308:89|316:85|328:87|338:90|344:94|349:100|352:108|352:114|351:122|348:129|345:132|339:138|332:142|327:143|316:146|308:149|298:152|291:154|287:156|284:158|282:161|277:166|276:169|275:172|275:172|344:190,1,225.000008583069
413,212,81881,21,0,3:0:0:0:
216,318,82057,1,0,0:0:0:0:
226,329,82146,1,0,0:0:0:0:
236,339,82234,2,0,L|352:349,1,100,8|0,3:1|0:0,0:0:0:0:
413,212,82587,2,0,P|426:164|419:114,1,100,0|0,3:0|0:0,0:0:0:0:
508,308,82851,1,0,0:0:0:0:
508,308,82939,2,0,P|494:260|501:210,1,100,8|0,3:1|0:0,0:0:0:0:
330,154,83204,1,8,0:1:0:0:
330,154,83293,5,0,3:0:0:0:
335,347,83469,1,0,0:0:0:0:
413,212,83646,2,0,B|427:161|427:161|419:114,1,100,0|0,3:0|0:0,0:0:0:0:
276,251,83999,2,0,L|176:242,1,100,0|8,3:0|0:1,0:0:0:0:
226,327,84263,1,0,0:0:0:0:
236,339,84351,5,8,3:1:0:0:
229,81,84528,2,0,L|146:88,1,50,8|8,0:1|0:1,0:0:0:0:
110,188,84704,21,0,3:0:0:0:
229,81,84881,1,0,0:0:0:0:
239,70,84970,1,0,0:0:0:0:
249,60,85058,2,0,L|365:49,1,100,8|0,3:1|0:0,0:0:0:0:
420,192,85410,1,0,3:0:0:0:
270,174,85587,1,0,0:0:0:0:
434,195,85763,2,0,P|451:140|440:77,1,100,8|0,3:1|0:0,0:0:0:0:
466,300,86028,1,8,0:1:0:0:
466,300,86116,21,0,3:0:0:0:
238,333,86293,1,0,0:0:0:0:
420,192,86469,1,8,3:1:0:0:
270,174,86646,1,0,0:0:0:0:
434,195,86822,2,0,P|435:216|431:249,1,50,0|0,3:0|0:0,0:0:0:0:
372,69,86999,1,0,0:0:0:0:
360,59,87086,1,0,0:0:0:0:
348,51,87176,2,0,L|231:61,1,100,8|0,3:1|0:0,0:0:0:0:
59,144,87439,1,8,0:1:0:0:
58,157,87528,6,0,P|126:149|176:164,1,100,0|0,3:0|0:0,0:0:0:0:
214,241,87793,1,0,0:0:0:0:
225,247,87881,2,0,P|293:255|343:240,1,100,8|0,3:1|0:0,0:0:0:0:
450,162,88234,1,0,3:0:0:0:
284,355,88410,1,0,0:0:0:0:
270,174,88587,2,0,L|280:52,1,100,8|0,3:1|0:0,0:0:0:0:
355,44,88851,1,8,0:1:0:0:
366,47,88940,6,0,P|416:51|434:47,1,50,0|0,3:0|0:0,0:0:0:0:
450,162,89116,2,0,P|495:140|508:128,1,50
270,174,89293,1,8,3:1:0:0:
500,39,89469,1,0,0:0:0:0:
382,233,89646,22,0,L|391:341,1,100,0|0,3:0|0:0,0:0:0:0:
270,174,89910,1,0,0:0:0:0:
269,189,89999,2,0,L|259:297,1,100,8|0,3:1|0:0,0:0:0:0:
163,146,90351,22,0,P|111:130|62:137,1,100,0|0,3:0|0:0,0:0:0:0:
8,188,90616,1,0,0:0:0:0:
8,188,90704,1,8,3:1:0:0:
129,36,90881,1,0,0:0:0:0:
99,224,91057,1,0,3:0:0:0:
361,143,91234,1,0,0:0:0:0:
361,143,91322,1,0,0:0:0:0:
361,143,91410,1,8,3:1:0:0:
258,109,91587,2,0,P|250:80|251:54,1,50,8|8,0:1|0:1,0:0:0:0:
283,194,91763,6,0,L|272:309,1,100,0|0,3:0|0:0,0:0:0:0:
99,224,92116,1,8,3:1:0:0:
361,143,92293,1,0,0:0:0:0:
364,258,92469,6,0,P|312:324|316:240,1,225.000008583069
213,285,92822,2,0,B|208:290|203:294|195:298|183:296|173:293|167:289|162:283|159:275|159:269|160:261|163:254|166:251|172:245|179:241|184:240|195:237|203:234|213:231|220:229|224:227|227:225|229:222|234:217|235:214|236:211|236:211|167:193,1,225.000008583069
99,172,93175,21,0,3:0:0:0:
296,66,93351,1,0,0:0:0:0:
286,55,93440,1,0,0:0:0:0:
276,45,93528,2,0,L|159:34,1,100,8|0,3:1|0:0,0:0:0:0:
99,172,93881,2,0,P|85:219|92:269,1,100,0|0,3:0|0:0,0:0:0:0:
4,76,94145,1,0,0:0:0:0:
4,76,94233,2,0,P|17:123|10:173,1,100,8|0,3:1|0:0,0:0:0:0:
182,230,94498,1,8,0:1:0:0:
182,230,94587,21,0,3:0:0:0:
177,37,94763,1,0,0:0:0:0:
99,172,94940,2,0,B|85:223|85:223|92:269,1,100,0|0,3:0|0:0,0:0:0:0:
236,133,95293,2,0,L|335:141,1,100,0|0,3:0|0:0,0:0:0:0:
286,57,95557,1,0,0:0:0:0:
276,45,95645,5,8,3:1:0:0:
283,303,95822,2,0,L|340:298,1,50,8|8,0:1|0:1,0:0:0:0:
402,196,95998,5,0,3:0:0:0:
283,303,96175,1,0,0:0:0:0:
273,314,96264,1,0,0:0:0:0:
263,324,96352,2,0,L|146:334,1,100,8|0,3:1|0:0,0:0:0:0:
92,192,96704,1,0,3:0:0:0:
242,210,96881,1,0,0:0:0:0:
78,189,97057,2,0,P|61:244|72:307,1,100,8|0,3:1|0:0,0:0:0:0:
46,84,97322,1,8,0:1:0:0:
46,84,97410,21,0,3:0:0:0:
274,51,97587,1,0,0:0:0:0:
92,192,97763,1,8,3:1:0:0:
242,210,97940,1,0,0:0:0:0:
78,189,98116,22,0,P|77:168|81:135,1,50,0|0,3:0|0:0,0:0:0:0:
66,185,98293,6,0,P|65:164|69:131,1,50,0|0,3:0|0:0,0:0:0:0:
223,318,98469,5,0,3:0:0:0:
290,346,98557,1,0,3:0:0:0:
364,338,98645,1,0,3:0:0:0:
423,295,98733,1,0,3:0:0:0:
454,227,98822,22,0,P|386:235|336:220,1,100,0|0,3:0|0:0,0:0:0:0:
298,143,99087,1,0,0:0:0:0:
287,137,99175,2,0,P|219:129|169:144,1,100,8|0,3:1|0:0,0:0:0:0:
62,222,99528,1,0,3:0:0:0:
228,29,99704,1,0,0:0:0:0:
242,210,99881,2,0,L|231:331,1,100,8|0,3:1|0:0,0:0:0:0:
157,340,100145,1,0,0:0:0:0:
146,337,100234,22,0,P|96:333|78:337,1,50,0|0,3:0|0:0,0:0:0:0:
62,222,100410,2,0,P|16:243|3:256,1,50
242,210,100587,1,8,3:1:0:0:
12,345,100763,1,0,0:0:0:0:
130,151,100940,6,0,L|120:42,1,100,0|0,3:0|0:0,0:0:0:0:
242,210,101204,1,0,0:0:0:0:
243,195,101293,2,0,L|252:86,1,100,8|0,3:1|0:0,0:0:0:0:
349,238,101645,6,0,P|401:254|450:247,1,100,0|0,3:0|0:0,0:0:0:0:
504,196,101910,1,0,0:0:0:0:
504,196,101998,1,8,3:1:0:0:
383,348,102175,1,0,0:0:0:0:
413,160,102351,1,0,3:0:0:0:
151,241,102528,1,0,0:0:0:0:
151,241,102616,1,0,0:0:0:0:
151,241,102704,1,8,3:1:0:0:
254,275,102881,2,0,P|262:304|261:330,1,50,8|8,0:1|0:1,0:0:0:0:
229,190,103057,22,0,L|239:74,1,100,0|0,3:0|0:0,0:0:0:0:
413,160,103410,1,8,3:1:0:0:
151,241,103587,1,0,0:0:0:0:
366,289,103763,2,0,P|434:296|470:287,1,100,0|0,3:0|0:0,0:0:0:0:
482,276,104028,1,0,0:0:0:0:
413,160,104469,21,0,3:0:0:0:
348,72,104645,1,0,0:0:0:0:
332,194,104822,2,0,P|364:231|397:246,1,75.0000028610231,8|0,3:1|0:0,0:0:0:0:
334,307,105175,2,0,P|380:323|416:319,1,75.0000028610231,0|0,3:0|0:0,0:0:0:0:
471,217,105528,1,8,3:1:0:0:
488,357,105704,2,0,L|502:306,1,37.5000014305115
386,242,105881,6,0,P|336:229|301:235,1,75.0000028610231,0|0,3:0|0:0,0:0:0:0:
322,150,106233,2,0,P|272:163|244:186,1,75.0000028610231,8|0,3:1|0:0,0:0:0:0:
220,102,106586,2,0,P|183:138|171:172,1,75.0000028610231,0|0,3:0|0:0,0:0:0:0:
107,111,106939,2,0,P|94:161|99:196,1,75.0000028610231,8|0,3:1|0:0,0:0:0:0:
313,231,107292,5,0,3:0:0:0:
120,303,107469,2,0,L|74:306,1,37.5000014305115
241,309,107645,2,0,P|241:261|230:227,1,75.0000028610231,8|0,3:1|0:0,0:0:0:0:
313,231,107998,2,0,P|313:183|324:149,1,75.0000028610231,0|0,3:0|0:0,0:0:0:0:
394,215,108351,2,0,P|394:263|383:297,1,75.0000028610231,8|0,3:1|0:0,0:0:0:0:
454,94,108704,21,0,3:0:0:0:
320,157,108881,1,0,0:0:0:0:
320,157,108969,1,0,0:0:0:0:
320,157,109057,1,8,3:1:0:0:
284,168,109145,1,0,0:0:0:0:
247,169,109233,1,0,0:0:0:0:
210,159,109321,1,0,0:0:0:0:
179,139,109410,22,0,P|145:96|137:68,1,75.0000028610231,0|0,3:0|0:0,0:0:0:0:
35,31,109763,2,0,L|42:113,1,75.0000028610231,8|0,3:1|0:0,0:0:0:0:
251,65,110116,5,0,3:0:0:0:
167,225,110292,1,0,0:0:0:0:
168,239,110381,1,0,0:0:0:0:
169,254,110469,2,0,L|173:299,3,37.5000014305115,8|0|0|0,3:1|0:0|0:0|0:0,0:0:0:0:
260,210,110822,2,0,L|255:255,3,37.5000014305115,0|0|0|0,3:0|0:0|0:0|0:0,0:0:0:0:
250,321,111175,1,8,3:1:0:0:
203,137,111351,1,0,0:0:0:0:
361,205,111528,5,0,3:0:0:0:
361,205,111616,1,0,0:0:0:0:
361,205,111704,2,0,P|387:204|427:195,1,37.5000014305115
422,288,111881,1,8,3:1:0:0:
422,288,111969,1,0,0:0:0:0:
422,288,112057,2,0,P|444:274|474:246,1,37.5000014305115
320,303,112233,2,0,P|273:307|243:327,1,75.0000028610231,0|0,3:0|0:0,0:0:0:0:
172,324,112498,1,0,0:0:0:0:
172,324,112586,1,8,3:1:0:0:
303,381,112763,1,0,0:0:0:0:
239,233,112939,21,0,3:0:0:0:
233,216,113027,1,0,0:0:0:0:
232,199,113115,1,0,0:0:0:0:
235,182,113203,1,0,0:0:0:0:
261,162,113292,21,8,3:1:0:0:
272,127,113380,1,0,0:0:0:0:
274,92,113468,1,0,0:0:0:0:
268,57,113556,1,0,0:0:0:0:
226,26,113645,6,0,P|261:31|324:18,1,75.0000028610231,0|0,3:0|0:0,0:0:0:0:
445,99,113998,2,0,P|410:94|347:107,1,75.0000028610231,8|0,3:1|0:0,0:0:0:0:
403,237,114351,5,0,3:0:0:0:
404,224,114439,1,0,0:0:0:0:
405,212,114527,1,0,0:0:0:0:
406,199,114615,1,0,0:0:0:0:
408,187,114704,21,8,3:1:0:0:
411,224,114792,1,0,0:0:0:0:
414,261,114880,1,0,0:0:0:0:
417,299,114968,1,0,0:0:0:0:
421,336,115057,22,0,P|383:332|355:337,1,37.5000014305115,0|0,3:0|0:0,0:0:0:0:
316,274,115233,6,0,P|293:304|283:331,1,40
228,218,115410,6,0,P|212:183|194:161,1,44.999998626709,8|0,3:1|0:0,0:0:0:0:
307,149,115586,22,0,P|322:114|340:92,1,50
453,26,115763,70,0,L|337:26,1,100,0|0,3:0|0:0,0:0:0:0:
229,97,116028,1,0,3:0:0:0:
229,97,116116,2,0,L|113:97,1,100,8|0,0:1|3:0,0:0:0:0:
35,99,116381,1,0,3:0:0:0:
35,99,116469,2,0,L|35:154,1,50,0|0,3:0|3:0,0:0:0:0:
127,189,116645,1,0,3:0:0:0:
185,274,116822,2,0,P|172:225|180:177,1,100,8|0,0:1|3:0,0:0:0:0:
229,97,117086,1,0,3:0:0:0:
229,97,117175,22,0,L|347:97,1,100,0|0,3:0|0:0,0:0:0:0:
489,96,117528,1,8,0:1:0:0:
429,191,117704,1,0,3:0:0:0:
429,216,117792,1,0,3:0:0:0:
429,241,117880,1,0,3:0:0:0:
429,266,117968,1,0,3:0:0:0:
429,291,118056,1,0,3:0:0:0:
324,354,118233,1,8,0:1:0:0:
279,262,118410,1,0,3:0:0:0:
279,262,118498,1,0,3:0:0:0:
279,262,118586,54,0,P|224:248|168:263,1,100,0|0,3:0|0:0,0:0:0:0:
57,340,118939,2,0,L|57:231,1,100,8|0,0:1|3:0,0:0:0:0:
58,224,119204,1,0,3:0:0:0:
58,209,119292,1,0,3:0:0:0:
58,193,119381,1,0,3:0:0:0:
58,178,119469,1,0,3:0:0:0:
142,80,119645,2,0,P|208:68|241:77,1,100,8|0,0:1|3:0,0:0:0:0:
307,164,119910,1,0,3:0:0:0:
307,164,119998,22,0,L|425:164,1,100,0|0,3:0|0:0,0:0:0:0:
142,80,120351,2,0,P|208:68|241:77,1,100,8|0,0:1|3:0,0:0:0:0:
307,164,120616,1,0,3:0:0:0:
307,164,120704,1,0,3:0:0:0:
307,164,120792,1,0,3:0:0:0:
307,164,120881,54,0,L|425:164,1,100,0|8,3:0|0:1,0:0:0:0:
372,317,121233,1,0,3:0:0:0:
372,317,121322,1,0,3:0:0:0:
372,317,121410,22,0,P|323:306|273:311,1,100,0|0,3:0|0:0,0:0:0:0:
210,240,121675,1,0,0:0:0:0:
210,240,121763,2,0,P|161:250|111:245,1,100,8|0,0:1|3:0,0:0:0:0:
85,233,122028,1,0,3:0:0:0:
60,211,122116,1,0,3:0:0:0:
39,187,122204,1,0,3:0:0:0:
26,157,122292,1,0,3:0:0:0:
150,97,122469,1,8,0:1:0:0:
256,186,122645,1,0,3:0:0:0:
256,186,122733,1,0,3:0:0:0:
256,186,122822,54,0,L|256:79,1,100,0|0,3:0|0:0,0:0:0:0:
375,31,123086,1,0,0:0:0:0:
375,31,123175,2,0,L|375:131,1,100,8|0,0:1|3:0,0:0:0:0:
375,180,123440,1,0,3:0:0:0:
375,230,123528,1,0,3:0:0:0:
375,280,123616,1,0,3:0:0:0:
375,330,123704,2,0,P|312:322|274:330,1,100,0|8,3:0|0:1,0:0:0:0:
172,248,124057,1,0,3:0:0:0:
155,265,124145,1,0,3:0:0:0:
143,288,124233,22,0,P|127:318|122:343,1,50,2|0,3:2|0:0,0:0:0:0:
27,226,124410,2,0,P|43:256|48:281,1,50,2|0,0:0|0:0,0:0:0:0:
154,167,124586,2,0,P|125:184|108:204,1,50,8|0,0:1|0:0,0:0:0:0:
20,99,124763,2,0,P|48:116|65:136,1,50,2|0,0:0|0:0,0:0:0:0:
136,80,124939,54,0,P|142:47|140:28,1,50,8|0,3:3|0:0,0:0:0:0:
154,167,125116,2,0,P|185:155|201:144,1,50,8|0,0:3|0:0,0:0:0:0:
320,202,125292,6,0,P|288:213|272:224,1,50,4|0,3:3|0:0,0:0:0:0:
338,289,125468,2,0,P|332:322|334:341,1,50,4|0,3:3|0:0,0:0:0:0:
435,319,125645,21,2,3:2:0:0:
481,301,125733,1,2,0:0:0:0:
508,264,125822,1,2,0:0:0:0:
508,224,125910,1,2,0:0:0:0:
495,193,125998,5,8,3:1:0:0:
476,169,126086,1,2,0:0:0:0:
460,149,126175,1,2,0:0:0:0:
452,130,126263,1,2,0:0:0:0:
450,115,126351,5,2,3:2:0:0:
450,105,126439,1,2,0:0:0:0:
452,95,126528,1,2,0:0:0:0:
455,85,126616,1,2,0:0:0:0:
479,62,126704,22,0,P|437:67|413:60,3,59.9999981689454,8|0|0|0,3:1|0:0|0:0|0:0,0:0:0:0:
330,77,127057,22,0,P|288:71|264:78,1,59.9999981689454,2|2,3:2|0:2,0:0:0:0:
198,8,127233,1,0,0:0:0:0:
198,8,127322,1,0,0:0:0:0:
198,8,127410,6,0,P|173:41|166:65,1,59.9999981689454,8|0,3:1|0:0,0:0:0:0:
69,75,127586,1,2,0:0:0:0:
69,75,127675,1,2,0:0:0:0:
69,75,127763,6,0,P|93:108|100:132,1,59.9999981689454,2|0,3:2|0:0,0:0:0:0:
189,139,127939,2,2,P|172:177|155:195,1,59.9999981689454
107,264,128116,2,0,B|198:303|199:232|289:272,1,179.999994506836,8|0,3:1|0:0,0:0:0:0:
319,298,128469,22,0,P|318:219|342:180,1,119.999996337891,2|0,3:2|0:0,0:0:0:0:
352,175,128733,1,0,0:0:0:0:
371,166,128822,1,8,3:1:0:0:
394,163,128910,1,2,0:0:0:0:
420,169,128998,1,2,0:0:0:0:
445,185,129086,1,2,0:0:0:0:
465,214,129175,22,0,P|472:252|467:282,1,59.9999981689454,2|2,3:2|0:0,0:0:0:0:
486,111,129351,2,0,P|479:73|484:43,1,59.9999981689454,2|2,0:0|0:0,0:0:0:0:
391,54,129528,1,8,3:1:0:0:
361,44,129616,1,0,0:0:0:0:
331,54,129704,1,0,0:0:0:0:
301,44,129792,1,0,0:0:0:0:
271,54,129881,6,0,P|228:62|203:59,1,59.9999981689454,2|0,3:2|0:0,0:0:0:0:
149,158,130057,1,2,0:0:0:0:
149,158,130145,1,2,0:0:0:0:
149,158,130233,6,0,P|120:124|110:101,1,59.9999981689454,8|0,3:1|0:0,0:0:0:0:
22,240,130410,2,2,P|51:206|61:183,1,59.9999981689454
178,254,130586,21,2,3:2:0:0:
178,254,130675,1,0,0:0:0:0:
178,254,130763,2,2,P|207:253|236:261,1,59.9999981689454
388,302,130939,2,0,B|386:170|386:170|412:242,1,179.999994506836,8|0,3:1|0:0,0:0:0:0:
503,301,131292,21,2,3:2:0:0:
465,287,131380,1,2,0:0:0:0:
425,287,131468,1,2,0:0:0:0:
388,302,131556,1,2,0:0:0:0:
366,340,131645,5,8,3:1:0:0:
342,348,131733,1,2,0:0:0:0:
317,348,131821,1,2,0:0:0:0:
294,338,131909,1,2,0:0:0:0:
267,311,131998,5,2,3:2:0:0:
229,297,132086,1,2,0:0:0:0:
189,297,132174,1,2,0:0:0:0:
152,312,132262,1,2,0:0:0:0:
123,344,132351,22,0,P|93:349|60:347,1,59.9999981689454,8|0,3:1|0:0,0:0:0:0:
51,199,132528,2,0,P|70:222|85:252,1,59.9999981689454,2|0,0:0|0:0,0:0:0:0:
169,192,132704,22,0,P|164:161|165:129,1,59.9999981689454,2|0,3:2|0:0,0:0:0:0:
234,51,132881,1,2,0:0:0:0:
250,45,132969,1,2,0:0:0:0:
268,40,133057,6,0,L|339:46,1,59.9999981689454,8|0,3:1|0:0,0:0:0:0:
375,148,133233,2,2,L|315:142,1,59.9999981689454
461,91,133410,1,2,3:2:0:0:
471,119,133498,1,2,0:0:0:0:
475,148,133586,1,2,0:0:0:0:
474,178,133674,1,2,0:0:0:0:
467,207,133763,6,0,P|457:285|464:338,1,119.999996337891,8|0,3:1|0:0,0:0:0:0:
375,148,134116,21,2,3:2:0:0:
347,145,134204,1,2,0:0:0:0:
319,143,134292,1,2,0:0:0:0:
291,140,134380,1,2,0:0:0:0:
263,156,134469,21,8,3:1:0:0:
235,153,134557,1,2,0:0:0:0:
207,151,134645,1,2,0:0:0:0:
179,148,134733,1,2,0:0:0:0:
152,123,134822,5,2,3:2:0:0:
115,107,134910,1,2,0:0:0:0:
75,104,134998,1,2,0:0:0:0:
37,116,135086,1,2,0:0:0:0:
10,139,135175,6,0,P|13:104|11:77,1,59.9999981689454,8|0,3:1|0:0,0:0:0:0:
88,252,135351,2,2,P|85:217|87:190,1,59.9999981689454
122,341,135528,22,0,P|157:318|174:298,1,59.9999981689454,2|0,3:2|0:0,0:0:0:0:
235,153,135704,2,2,P|237:194|246:219,1,59.9999981689454
303,318,135881,21,8,3:1:0:0:
328,314,135969,1,2,0:0:0:0:
358,281,136057,5,2,0:0:0:0:
383,277,136145,1,2,0:0:0:0:
422,298,136233,6,0,P|460:298|498:286,1,59.9999981689454,2|0,3:2|0:0,0:0:0:0:
472,156,136410,2,2,P|453:188|444:227,1,59.9999981689454
408,101,136586,21,0,3:0:0:0:
356,174,136675,1,0,3:0:0:0:
269,145,136764,1,0,3:0:0:0:
270,56,136852,1,0,3:0:0:0:
356,28,136939,22,0,P|393:26|423:17,3,59.9999981689454,0|2|2|2,3:0|0:0|0:0|0:0,0:0:0:0:
270,56,137292,5,8,3:1:0:0:
210,63,137380,1,2,0:0:0:0:
151,54,137468,1,2,0:0:0:0:
96,31,137556,1,2,0:0:0:0:
49,1,137645,5,0,3:0:0:0:
71,56,137734,1,2,0:0:0:0:
77,116,137822,1,2,0:0:0:0:
69,175,137910,1,2,0:0:0:0:
52,227,137998,22,0,P|100:235|129:251,1,59.9999981689454,8|0,3:1|0:0,0:0:0:0:
269,253,138175,2,2,P|221:261|192:277,1,59.9999981689454
259,334,138351,21,2,3:2:0:0:
284,334,138439,1,2,0:0:0:0:
310,334,138527,1,2,0:0:0:0:
336,334,138615,1,2,0:0:0:0:
361,334,138703,1,8,3:1:0:0:
387,334,138792,1,0,0:0:0:0:
413,334,138880,1,0,0:0:0:0:
439,334,138968,1,0,0:0:0:0:
456,317,139057,6,0,P|453:273|459:245,1,59.9999981689454,0|0,3:0|0:0,0:0:0:0:
371,143,139233,1,2,0:0:0:0:
361,158,139322,1,2,0:0:0:0:
350,172,139410,6,0,P|353:216|347:244,1,59.9999981689454,8|0,3:1|0:0,0:0:0:0:
399,63,139586,2,2,P|438:82|459:101,1,59.9999981689454
305,77,139763,21,2,3:2:0:0:
266,87,139851,1,2,0:0:0:0:
226,87,139939,1,2,0:0:0:0:
187,78,140027,1,2,0:0:0:0:
149,61,140116,21,8,3:1:0:0:
159,99,140204,1,2,0:0:0:0:
159,139,140292,1,2,0:0:0:0:
150,178,140380,1,2,0:0:0:0:
130,214,140469,5,2,3:2:0:0:
120,252,140557,1,2,0:0:0:0:
120,292,140645,1,2,0:0:0:0:
129,331,140733,1,2,0:0:0:0:
159,361,140822,6,0,L|239:353,1,59.9999981689454,8|0,3:1|0:0,0:0:0:0:
284,272,140998,2,2,L|224:266,1,59.9999981689454
316,365,141175,22,0,B|381:349|390:279|390:279|399:348|476:373,1,239.999992675781,0|8,3:0|3:1,0:0:0:0:
288,213,141704,2,2,P|281:246|288:287,1,59.9999981689454
277,116,141881,22,0,P|244:126|212:153,1,59.9999981689454,0|0,3:0|0:0,0:0:0:0:
365,141,142057,1,2,0:0:0:0:
371,112,142145,1,2,0:0:0:0:
369,82,142233,2,0,P|307:32|256:30,1,119.999996337891,8|0,3:1|0:0,0:0:0:0:
25,178,142586,5,0,3:0:0:0:
121,50,142763,1,0,0:0:0:0:
121,50,142851,1,0,0:0:0:0:
121,50,142939,1,8,0:1:0:0:
153,274,143116,1,0,0:0:0:0:
249,146,143292,2,0,P|254:111|251:84,1,50,0|0,3:0|0:0,0:0:0:0:
297,225,143469,2,0,P|318:197|329:172,1,50
153,274,143645,2,0,L|143:161,1,100,8|0,3:1|0:0,0:0:0:0:
254,348,143998,6,0,P|314:357|376:336,1,100,0|0,3:0|0:0,0:0:0:0:
304,30,144351,2,0,P|244:21|182:42,1,100,8|0,3:1|0:0,0:0:0:0:
305,266,144704,1,0,3:0:0:0:
442,75,144881,1,0,0:0:0:0:
219,148,145057,1,8,3:1:0:0:
442,220,145233,1,0,0:0:0:0:
304,30,145410,22,0,P|244:21|182:42,1,100,0|0,3:0|0:0,0:0:0:0:
135,87,145675,1,0,0:0:0:0:
123,96,145763,2,0,P|63:105|1:84,1,100,8|0,3:1|0:0,0:0:0:0:
70,322,146116,1,0,3:0:0:0:
123,189,146292,2,0,P|181:182|202:188,1,50
212,372,146469,1,8,3:1:0:0:
159,265,146645,1,0,0:0:0:0:
374,295,146822,21,0,3:0:0:0:
257,138,146998,1,0,0:0:0:0:
257,138,147086,1,0,0:0:0:0:
257,138,147175,2,0,L|246:249,1,100,8|0,3:1|0:0,0:0:0:0:
390,9,147528,5,0,3:0:0:0:
204,40,147704,1,0,0:0:0:0:
443,107,147881,1,8,3:1:0:0:
257,138,148057,1,0,0:0:0:0:
73,30,148233,5,0,3:0:0:0:
100,218,148410,1,0,0:0:0:0:
100,218,148498,1,0,0:0:0:0:
100,218,148586,2,0,L|94:277,2,50,8|0|0,3:1|0:0|0:0,0:0:0:0:
257,138,148939,2,0,L|379:148,1,100,0|0,3:0|0:0,0:0:0:0:
505,277,149292,2,0,L|405:285,1,100,8|0,3:1|0:0,0:0:0:0:
176,192,149645,22,0,P|163:128|171:85,1,100,0|0,3:0|0:0,0:0:0:0:
242,36,149910,1,0,0:0:0:0:
242,36,149998,2,0,L|364:46,1,100,8|0,3:1|0:0,0:0:0:0:
482,196,150351,1,0,3:0:0:0:
439,54,150528,1,0,0:0:0:0:
328,240,150704,1,8,3:1:0:0:
343,133,150881,1,0,0:0:0:0:
432,330,151057,22,0,B|358:310|361:360|273:328,1,150,0|0,3:0|0:0,0:0:0:0:
273,321,151410,2,0,L|165:330,1,100,8|0,3:1|0:0,0:0:0:0:
229,120,151763,1,0,3:0:0:0:
65,213,151939,1,0,0:0:0:0:
100,84,152116,1,8,3:1:0:0:
193,248,152292,1,0,0:0:0:0:
319,212,152469,6,0,P|347:159|349:106,1,100,0|0,3:0|0:0,0:0:0:0:
340,13,152733,1,0,0:0:0:0:
340,13,152822,2,0,P|393:41|446:42,1,100,8|0,3:1|0:0,0:0:0:0:
497,250,153175,1,0,3:0:0:0:
387,119,153351,1,0,0:0:0:0:
387,119,153439,1,0,0:0:0:0:
387,119,153528,2,0,L|377:232,1,100,8|0,3:1|0:0,0:0:0:0:
21,204,153881,5,0,3:0:0:0:
117,332,154058,1,0,0:0:0:0:
117,332,154146,1,0,0:0:0:0:
117,332,154234,1,8,3:1:0:0:
149,108,154411,1,0,0:0:0:0:
245,236,154587,2,0,P|250:271|247:298,1,50,0|0,3:0|0:0,0:0:0:0:
293,157,154764,2,0,P|314:184|325:209,1,50
149,108,154940,2,0,L|139:220,1,100,8|0,3:1|0:0,0:0:0:0:
250,34,155293,22,0,P|310:25|372:46,1,100,0|0,3:0|0:0,0:0:0:0:
300,352,155646,2,0,P|240:361|178:340,1,100,8|0,3:1|0:0,0:0:0:0:
301,116,155999,1,0,3:0:0:0:
438,307,156176,1,0,0:0:0:0:
215,234,156352,1,8,3:1:0:0:
438,162,156528,1,0,0:0:0:0:
300,352,156705,22,0,P|240:361|178:340,1,100,0|0,3:0|0:0,0:0:0:0:
131,295,156970,1,0,0:0:0:0:
119,286,157058,2,0,P|59:277|-3:298,1,100,8|0,3:1|0:0,0:0:0:0:
66,60,157411,1,0,3:0:0:0:
119,193,157587,2,0,P|177:200|198:194,1,50
208,10,157764,1,8,3:1:0:0:
155,117,157940,1,0,0:0:0:0:
370,87,158117,5,0,3:0:0:0:
253,244,158293,1,0,0:0:0:0:
253,244,158381,1,0,0:0:0:0:
253,244,158470,2,0,L|242:132,1,100,8|0,3:1|0:0,0:0:0:0:
386,373,158823,5,0,3:0:0:0:
200,342,158999,1,0,0:0:0:0:
439,275,159175,1,8,3:1:0:0:
253,244,159352,1,0,0:0:0:0:
69,352,159528,21,0,3:0:0:0:
96,164,159705,1,0,0:0:0:0:
96,164,159793,1,0,0:0:0:0:
96,164,159881,2,0,L|90:104,2,50,8|0|0,3:1|0:0|0:0,0:0:0:0:
253,244,160234,2,0,L|375:233,1,100,0|0,3:0|0:0,0:0:0:0:
501,105,160587,2,0,L|401:96,1,100,8|0,3:1|0:0,0:0:0:0:
172,190,160940,22,0,P|159:254|167:297,1,100,0|0,3:0|0:0,0:0:0:0:
238,346,161205,1,0,0:0:0:0:
238,346,161293,2,0,L|360:335,1,100,8|0,3:1|0:0,0:0:0:0:
478,186,161646,1,0,3:0:0:0:
435,328,161823,1,0,0:0:0:0:
324,142,161999,1,8,3:1:0:0:
339,249,162176,1,0,0:0:0:0:
428,52,162352,6,0,B|354:72|357:22|269:54,1,150,0|0,3:0|0:0,0:0:0:0:
269,61,162705,2,0,L|161:51,1,100,8|0,3:1|0:0,0:0:0:0:
225,262,163058,1,0,3:0:0:0:
61,169,163234,1,0,0:0:0:0:
96,297,163411,1,8,3:1:0:0:
189,133,163587,1,0,0:0:0:0:
315,170,163764,6,0,P|343:223|345:276,1,100,0|0,3:0|0:0,0:0:0:0:
336,369,164028,1,0,0:0:0:0:
336,369,164117,2,0,P|389:341|442:339,1,100,8|0,3:1|0:0,0:0:0:0:
493,132,164470,1,0,3:0:0:0:
383,263,164646,1,0,0:0:0:0:
383,263,164734,1,0,0:0:0:0:
383,263,164822,1,0,0:0:0:0:
