osu file format v14

[General]
AudioFilename: audio.mp3
AudioLeadIn: 0
PreviewTime: 76234
Countdown: 0
SampleSet: Normal
StackLeniency: 0.7
Mode: 1
LetterboxInBreaks: 0
WidescreenStoryboard: 1

[Editor]
Bookmarks: 31058,53646,76234,104469,115763,125642,125646,165175
DistanceSpacing: 2
BeatDivisor: 4
GridSize: 16
TimelineZoom: 2

[Metadata]
Title:YUKINOFUNK
TitleUnicode:YUKINOFUNK
Artist:Yvklnx Mlyvzvwv
ArtistUnicode:Yvklnx Mlyvzvwv
Creator:nyanmi-1828
Version:MIYAZAWA
Source:彼氏彼女の事情
Tags:dudehacker YVK1N0 Miyazawa Yukino 宮沢雪野 Atsuko Enomoto 榎本温子 宮//シ//尺//雪//里//予 ゅL≠σ tsubasa Kare Kano Kareshi Kanojo no Jijou Plastic Love 竹内まりや Mariya Takeuchi 佐倉椿 Sakura Tsubaki 沢田亜弥 Sawada Aya 瀬奈りか Sena Rika Mashup Future Funk JesusMD24
BeatmapID:1824581
BeatmapSetID:872834

[Difficulty]
HPDrainRate:5
CircleSize:4
OverallDifficulty:6
ApproachRate:5
SliderMultiplier:1.4
SliderTickRate:1

[Events]
//Background and Video events
0,0,"BG.jpg",0,0
//Break Periods
2,76434,79975
//Storyboard Layer 0 (Background)
//Storyboard Layer 1 (Fail)
//Storyboard Layer 2 (Pass)
//Storyboard Layer 3 (Foreground)
//Storyboard Sound Samples

[TimingPoints]
18352,352.941176470588,4,1,0,30,1,0
18352,-133.333333333333,4,1,0,30,0,0
22940,-125,4,1,0,40,0,0
25410,-117.647058823529,4,1,0,50,0,0
28234,-111.111111111111,4,1,0,60,0,0
28940,-90.9090909090909,4,1,0,60,0,0
29293,-111.111111111111,4,1,0,60,0,0
29646,-105.263157894737,4,1,0,60,0,0
29822,-104.166666666667,4,1,0,60,0,0
29999,-103.092783505155,4,1,0,60,0,0
30175,-102.040816326531,4,1,0,60,0,0
30352,-100,4,1,0,60,0,0
31057,-100,4,1,0,70,0,0
41028,-101,4,1,0,70,0,0
41116,-102,4,1,0,70,0,0
41204,-103,4,1,0,70,0,0
41293,-104,4,1,0,70,0,0
41381,-105,4,1,0,70,0,0
41557,-107,4,1,0,70,0,0
41646,-108,4,1,0,70,0,0
41734,-109,4,1,0,70,0,0
41822,-110,4,1,0,70,0,0
41999,-110,4,1,0,70,0,0
42351,-100,4,1,0,70,0,0
52234,-102,4,1,0,70,0,0
52322,-103,4,1,0,70,0,0
52410,-104,4,1,0,70,0,0
52499,-105,4,1,0,70,0,0
52587,-106,4,1,0,70,0,0
52675,-107,4,1,0,70,0,0
52851,-109,4,1,0,70,0,0
52940,-108,4,1,0,70,0,0
53028,-107,4,1,0,70,0,0
53116,-106,4,1,0,70,0,0
53204,-105,4,1,0,70,0,0
53293,-104,4,1,0,70,0,0
53381,-103,4,1,0,70,0,0
53469,-102,4,1,0,70,0,0
53557,-101,4,1,0,70,0,0
53646,-100,4,1,0,70,0,0
65646,-111.111111111111,4,1,0,50,0,0
66351,-100,4,1,0,70,0,0
76322,-133.333333333333,4,1,0,30,0,0
81175,-117.647058823529,4,1,0,30,0,0
81881,-100,4,1,0,70,0,1
92469,-100,4,1,0,70,0,0
93175,-100,4,1,0,70,0,1
98116,-100,4,1,0,70,0,0
98822,-100,4,1,0,70,0,1
104116,-100,4,1,0,70,0,0
115587,-105.263157894737,4,1,0,70,0,0
115763,-111.111111111111,4,1,0,70,0,0
116116,-133.333333333333,4,1,0,70,0,0
121234,-130,4,1,0,70,0,0
121322,-127.5,4,1,0,70,0,0
121410,-125,4,1,0,70,0,0
122646,-122.5,4,1,0,70,0,0
122734,-120,4,1,0,70,0,0
122822,-117.5,4,1,0,70,0,0
124057,-115,4,1,0,70,0,0
124146,-112.5,4,1,0,70,0,0
124234,-110,4,1,0,70,0,0
125469,-106,4,1,0,70,0,0
125557,-103,4,1,0,70,0,0
125646,-100,4,1,0,70,0,0

[HitObjects]
348,249,19410,5,0,0:0:0:0:
362,236,19499,1,8,0:0:0:0:
348,249,19763,5,4,0:0:0:0:
348,249,20116,1,8,0:0:0:0:
328,212,20822,1,8,0:0:0:0:
356,211,21528,1,8,0:0:0:0:
339,226,22057,1,8,0:0:0:0:
348,221,22234,1,8,0:0:0:0:
371,218,22940,1,8,0:0:0:0:
371,218,23646,1,8,0:0:0:0:
365,226,24352,1,8,0:0:0:0:
358,223,25057,1,8,0:0:0:0:
365,226,25234,1,8,0:0:0:0:
376,231,25410,1,0,0:0:0:0:
358,223,25763,1,8,0:0:0:0:
352,213,26469,1,8,0:0:0:0:
352,213,27175,1,8,0:0:0:0:
346,204,27704,1,8,0:0:0:0:
369,211,27881,1,8,0:0:0:0:
341,211,28234,1,8,0:0:0:0:
343,214,28587,1,8,0:0:0:0:
353,207,28940,1,12,0:0:0:0:
343,214,29293,1,8,0:0:0:0:
338,219,29646,1,8,0:0:0:0:
338,219,29822,1,8,0:0:0:0:
338,220,29999,1,8,0:0:0:0:
338,220,30175,1,8,0:0:0:0:
368,222,30352,1,8,0:0:0:0:
368,222,30440,1,8,0:0:0:0:
366,238,30528,1,8,0:0:0:0:
369,233,30704,1,0,0:0:0:0:
369,233,30793,1,0,0:0:0:0:
369,233,30881,1,8,0:0:0:0:
369,233,30969,1,8,0:0:0:0:
383,239,31057,1,4,0:0:0:0:
346,217,31322,1,8,0:0:0:0:
346,217,31410,1,0,0:0:0:0:
364,236,31587,1,8,0:0:0:0:
364,236,31763,1,0,0:0:0:0:
366,242,31852,1,0,0:0:0:0:
366,244,31940,1,8,0:0:0:0:
366,244,32028,1,8,0:0:0:0:
366,244,32116,1,0,0:0:0:0:
378,243,32293,1,8,0:0:0:0:
374,254,32381,1,8,0:0:0:0:
378,243,32469,1,0,0:0:0:0:
378,243,32557,1,0,0:0:0:0:
378,243,32734,1,8,0:0:0:0:
378,243,32822,1,0,0:0:0:0:
356,234,32999,1,8,0:0:0:0:
356,233,33175,1,0,0:0:0:0:
385,257,33263,1,0,0:0:0:0:
356,233,33352,1,8,0:0:0:0:
388,243,33528,1,0,0:0:0:0:
387,246,33704,1,8,0:0:0:0:
387,246,33793,1,8,0:0:0:0:
388,243,33881,1,0,0:0:0:0:
388,243,34146,1,8,0:0:0:0:
388,243,34234,1,0,0:0:0:0:
378,243,34410,1,8,0:0:0:0:
371,229,34499,1,8,0:0:0:0:
362,237,34587,1,0,0:0:0:0:
363,207,34675,1,8,0:0:0:0:
362,237,34763,1,8,0:0:0:0:
362,237,34852,1,8,0:0:0:0:
362,237,34940,1,0,0:0:0:0:
362,237,35116,1,8,0:0:0:0:
362,237,35293,1,0,0:0:0:0:
362,237,35381,1,0,0:0:0:0:
362,237,35557,1,8,0:0:0:0:
362,237,35646,1,0,0:0:0:0:
378,242,35822,1,8,0:0:0:0:
374,240,35910,1,8,0:0:0:0:
378,242,35999,1,0,0:0:0:0:
362,237,36087,1,0,0:0:0:0:
365,237,36175,1,8,0:0:0:0:
384,249,36352,1,8,0:0:0:0:
380,239,36440,1,8,0:0:0:0:
378,242,36528,1,8,0:0:0:0:
378,242,36704,1,0,0:0:0:0:
379,233,36969,1,8,0:0:0:0:
379,233,37057,1,0,0:0:0:0:
379,234,37234,1,8,0:0:0:0:
379,234,37410,1,0,0:0:0:0:
379,234,37499,1,0,0:0:0:0:
379,234,37587,1,8,0:0:0:0:
379,234,37675,1,8,0:0:0:0:
379,233,37763,1,0,0:0:0:0:
391,251,37940,1,8,0:0:0:0:
381,282,38028,1,8,0:0:0:0:
391,251,38116,1,0,0:0:0:0:
391,251,38204,1,0,0:0:0:0:
391,251,38381,1,8,0:0:0:0:
391,251,38469,1,0,0:0:0:0:
379,234,38557,1,0,0:0:0:0:
379,234,38646,1,8,0:0:0:0:
380,243,38822,1,0,0:0:0:0:
380,243,38999,1,8,0:0:0:0:
391,239,39087,1,0,0:0:0:0:
380,243,39175,1,0,0:0:0:0:
371,245,39263,1,8,0:0:0:0:
380,243,39352,1,8,0:0:0:0:
380,243,39440,1,8,0:0:0:0:
380,243,39528,1,0,0:0:0:0:
401,238,39793,1,8,0:0:0:0:
401,238,39881,1,0,0:0:0:0:
401,239,40057,1,8,0:0:0:0:
405,269,40146,1,8,0:0:0:0:
405,269,40234,1,0,0:0:0:0:
405,269,40322,1,8,0:0:0:0:
382,250,40410,1,8,0:0:0:0:
382,250,40499,1,0,0:0:0:0:
382,250,40587,1,0,0:0:0:0:
369,241,40763,1,8,0:0:0:0:
382,246,40940,1,0,0:0:0:0:
382,246,41028,1,8,0:0:0:0:
382,250,41116,1,0,0:0:0:0:
382,250,41204,1,8,0:0:0:0:
397,244,41293,1,0,0:0:0:0:
384,240,41381,1,8,0:0:0:0:
368,224,41557,1,8,0:0:0:0:
358,233,41646,1,0,0:0:0:0:
358,233,41734,1,8,0:0:0:0:
358,233,41822,1,0,0:0:0:0:
176,64,41999,1,8,0:0:0:0:
383,239,42352,1,4,0:0:0:0:
346,217,42617,1,8,0:0:0:0:
346,217,42705,1,0,0:0:0:0:
364,236,42882,1,8,0:0:0:0:
364,236,43058,1,0,0:0:0:0:
366,242,43147,1,0,0:0:0:0:
366,244,43235,1,8,0:0:0:0:
366,244,43323,1,8,0:0:0:0:
366,244,43411,1,0,0:0:0:0:
378,243,43588,1,8,0:0:0:0:
374,254,43676,1,8,0:0:0:0:
378,243,43764,1,0,0:0:0:0:
378,243,43852,1,0,0:0:0:0:
378,243,44029,1,8,0:0:0:0:
378,243,44117,1,0,0:0:0:0:
356,234,44294,1,8,0:0:0:0:
384,240,44381,1,8,0:0:0:0:
356,233,44470,1,0,0:0:0:0:
385,257,44558,1,0,0:0:0:0:
356,233,44647,1,8,0:0:0:0:
388,243,44823,1,0,0:0:0:0:
384,224,44910,1,8,0:0:0:0:
387,246,44999,1,8,0:0:0:0:
387,246,45088,1,8,0:0:0:0:
388,243,45176,1,0,0:0:0:0:
388,243,45441,1,8,0:0:0:0:
388,243,45529,1,0,0:0:0:0:
378,243,45705,1,8,0:0:0:0:
371,229,45794,1,8,0:0:0:0:
362,237,45882,1,0,0:0:0:0:
363,207,45970,1,8,0:0:0:0:
362,237,46058,1,8,0:0:0:0:
362,237,46235,1,0,0:0:0:0:
388,243,46322,1,0,0:0:0:0:
362,237,46411,1,8,0:0:0:0:
362,237,46588,1,0,0:0:0:0:
362,237,46676,1,0,0:0:0:0:
362,237,46852,1,8,0:0:0:0:
362,237,46941,1,0,0:0:0:0:
378,242,47117,1,8,0:0:0:0:
374,240,47205,1,8,0:0:0:0:
378,242,47294,1,0,0:0:0:0:
362,237,47382,1,0,0:0:0:0:
365,237,47470,1,8,0:0:0:0:
384,249,47647,1,8,0:0:0:0:
380,239,47735,1,0,0:0:0:0:
378,242,47823,1,8,0:0:0:0:
384,240,47910,1,8,0:0:0:0:
378,242,47999,1,0,0:0:0:0:
379,233,48264,1,8,0:0:0:0:
379,233,48352,1,0,0:0:0:0:
379,234,48529,1,8,0:0:0:0:
379,234,48705,1,0,0:0:0:0:
379,234,48794,1,0,0:0:0:0:
379,234,48882,1,8,0:0:0:0:
379,234,48970,1,8,0:0:0:0:
379,233,49058,1,0,0:0:0:0:
391,251,49235,1,8,0:0:0:0:
381,282,49323,1,8,0:0:0:0:
391,251,49411,1,0,0:0:0:0:
391,251,49499,1,0,0:0:0:0:
391,251,49676,1,8,0:0:0:0:
391,251,49764,1,0,0:0:0:0:
379,234,49852,1,0,0:0:0:0:
379,234,49941,1,8,0:0:0:0:
380,243,50117,1,0,0:0:0:0:
368,224,50204,1,0,0:0:0:0:
380,243,50294,1,8,0:0:0:0:
391,239,50382,1,0,0:0:0:0:
380,243,50470,1,0,0:0:0:0:
371,245,50558,1,8,0:0:0:0:
380,243,50647,1,8,0:0:0:0:
380,243,50735,1,8,0:0:0:0:
380,243,50823,1,0,0:0:0:0:
401,238,51088,1,8,0:0:0:0:
401,238,51176,1,0,0:0:0:0:
401,239,51352,1,8,0:0:0:0:
405,269,51441,1,8,0:0:0:0:
405,269,51529,1,0,0:0:0:0:
405,269,51617,1,0,0:0:0:0:
380,243,51704,1,8,0:0:0:0:
382,250,51882,1,0,0:0:0:0:
384,240,51969,1,0,0:0:0:0:
369,241,52058,1,8,0:0:0:0:
382,246,52235,1,0,0:0:0:0:
382,246,52323,1,8,0:0:0:0:
382,250,52411,1,0,0:0:0:0:
382,250,52499,1,8,0:0:0:0:
397,244,52588,1,0,0:0:0:0:
368,224,52676,1,8,0:0:0:0:
368,224,52852,1,8,0:0:0:0:
358,233,52941,1,0,0:0:0:0:
358,233,53029,1,0,0:0:0:0:
358,233,53117,1,8,0:0:0:0:
352,240,53204,1,8,0:0:0:0:
176,64,53294,1,0,0:0:0:0:
368,240,53381,1,8,0:0:0:0:
368,240,53469,1,8,0:0:0:0:
368,240,53557,1,8,0:0:0:0:
395,231,53647,1,0,0:0:0:0:
352,208,54704,1,8,0:0:0:0:
352,208,54793,1,8,0:0:0:0:
352,208,54881,1,8,0:0:0:0:
383,239,55057,1,4,0:0:0:0:
346,217,55322,1,8,0:0:0:0:
346,217,55410,1,0,0:0:0:0:
364,236,55587,1,8,0:0:0:0:
364,236,55763,1,0,0:0:0:0:
366,242,55852,1,0,0:0:0:0:
366,244,55940,1,8,0:0:0:0:
366,244,56028,1,8,0:0:0:0:
366,244,56116,1,0,0:0:0:0:
378,243,56293,1,8,0:0:0:0:
378,243,56469,1,0,0:0:0:0:
378,243,56646,1,8,0:0:0:0:
378,243,56734,1,8,0:0:0:0:
378,243,56822,1,0,0:0:0:0:
356,234,56999,1,8,0:0:0:0:
384,256,57087,1,8,0:0:0:0:
356,233,57175,1,0,0:0:0:0:
385,257,57263,1,8,0:0:0:0:
356,233,57440,1,8,0:0:0:0:
388,243,57528,1,0,0:0:0:0:
387,246,57704,1,8,0:0:0:0:
387,246,57793,1,8,0:0:0:0:
388,243,57881,1,0,0:0:0:0:
388,243,58146,1,8,0:0:0:0:
388,243,58234,1,0,0:0:0:0:
378,243,58410,1,8,0:0:0:0:
371,229,58499,1,8,0:0:0:0:
362,237,58587,1,0,0:0:0:0:
363,207,58675,1,8,0:0:0:0:
362,237,58763,1,8,0:0:0:0:
362,237,58940,1,0,0:0:0:0:
384,240,59028,1,0,0:0:0:0:
362,237,59116,1,8,0:0:0:0:
362,237,59293,1,0,0:0:0:0:
362,237,59557,1,8,0:0:0:0:
362,237,59646,1,0,0:0:0:0:
378,242,59822,1,8,0:0:0:0:
374,240,59910,1,8,0:0:0:0:
378,242,59999,1,0,0:0:0:0:
362,237,60087,1,0,0:0:0:0:
365,237,60175,1,8,0:0:0:0:
400,240,60351,1,0,0:0:0:0:
378,242,60528,1,8,0:0:0:0:
378,242,60704,1,0,0:0:0:0:
386,251,60793,1,8,0:0:0:0:
368,240,60881,1,8,0:0:0:0:
379,233,60969,1,8,0:0:0:0:
379,233,61057,1,0,0:0:0:0:
379,234,61234,1,8,0:0:0:0:
379,234,61322,1,0,0:0:0:0:
379,234,61499,1,0,0:0:0:0:
379,234,61587,1,8,0:0:0:0:
379,234,61675,1,8,0:0:0:0:
379,233,61763,1,0,0:0:0:0:
391,251,61940,1,8,0:0:0:0:
391,251,62116,1,0,0:0:0:0:
391,251,62204,1,0,0:0:0:0:
391,251,62381,1,8,0:0:0:0:
391,251,62469,1,0,0:0:0:0:
379,234,62646,1,8,0:0:0:0:
368,224,62734,1,8,0:0:0:0:
380,243,62822,1,0,0:0:0:0:
400,256,62910,1,0,0:0:0:0:
380,243,62999,1,8,0:0:0:0:
368,224,63175,1,0,0:0:0:0:
380,243,63352,1,8,0:0:0:0:
380,243,63440,1,8,0:0:0:0:
380,243,63528,1,0,0:0:0:0:
401,238,63793,1,8,0:0:0:0:
401,238,63881,1,0,0:0:0:0:
401,239,64057,1,8,0:0:0:0:
368,240,64146,1,0,0:0:0:0:
405,269,64234,1,0,0:0:0:0:
405,269,64322,1,8,0:0:0:0:
368,240,64499,1,0,0:0:0:0:
368,240,64587,1,8,0:0:0:0:
369,241,64763,1,8,0:0:0:0:
368,256,64851,1,8,0:0:0:0:
382,246,64940,1,0,0:0:0:0:
358,233,65646,1,0,0:0:0:0:
358,233,65734,1,8,0:0:0:0:
358,233,65822,1,0,0:0:0:0:
176,64,65999,1,8,0:0:0:0:
352,208,66087,1,8,0:0:0:0:
352,208,66175,1,8,0:0:0:0:
383,239,66352,1,4,0:0:0:0:
346,217,66617,1,8,0:0:0:0:
346,217,66705,1,0,0:0:0:0:
364,236,66882,1,8,0:0:0:0:
379,232,66969,1,8,0:0:0:0:
383,239,67057,1,0,0:0:0:0:
366,242,67147,1,8,0:0:0:0:
366,244,67235,1,8,0:0:0:0:
366,244,67323,1,8,0:0:0:0:
366,244,67411,1,0,0:0:0:0:
378,243,67588,1,8,0:0:0:0:
378,243,67764,1,0,0:0:0:0:
378,243,67852,1,0,0:0:0:0:
364,236,67940,1,8,0:0:0:0:
378,243,68117,1,0,0:0:0:0:
382,234,68204,1,0,0:0:0:0:
356,234,68294,1,8,0:0:0:0:
384,240,68381,1,8,0:0:0:0:
356,233,68470,1,0,0:0:0:0:
385,257,68558,1,8,0:0:0:0:
356,233,68734,1,8,0:0:0:0:
388,243,68823,1,0,0:0:0:0:
384,224,68910,1,0,0:0:0:0:
387,246,68999,1,8,0:0:0:0:
387,246,69088,1,8,0:0:0:0:
388,243,69176,1,0,0:0:0:0:
388,243,69441,1,8,0:0:0:0:
388,243,69529,1,0,0:0:0:0:
378,243,69705,1,8,0:0:0:0:
371,229,69794,1,8,0:0:0:0:
362,237,69882,1,0,0:0:0:0:
384,240,69969,1,0,0:0:0:0:
362,237,70058,1,8,0:0:0:0:
362,237,70235,1,0,0:0:0:0:
388,243,70322,1,0,0:0:0:0:
362,237,70411,1,8,0:0:0:0:
362,237,70588,1,0,0:0:0:0:
362,237,70852,1,8,0:0:0:0:
362,237,70941,1,0,0:0:0:0:
378,242,71117,1,8,0:0:0:0:
378,242,71294,1,0,0:0:0:0:
362,237,71382,1,0,0:0:0:0:
365,237,71470,1,8,0:0:0:0:
384,249,71647,1,8,0:0:0:0:
380,239,71735,1,0,0:0:0:0:
378,242,71823,1,8,0:0:0:0:
384,240,71910,1,8,0:0:0:0:
378,242,71999,1,0,0:0:0:0:
384,240,72175,1,8,0:0:0:0:
379,233,72352,1,0,0:0:0:0:
379,234,72529,1,8,0:0:0:0:
384,240,72616,1,0,0:0:0:0:
379,234,72794,1,0,0:0:0:0:
379,234,72882,1,8,0:0:0:0:
379,234,72970,1,8,0:0:0:0:
379,233,73058,1,0,0:0:0:0:
391,251,73235,1,8,0:0:0:0:
391,251,73411,1,0,0:0:0:0:
391,251,73499,1,0,0:0:0:0:
384,256,73587,1,8,0:0:0:0:
391,251,73676,1,8,0:0:0:0:
391,251,73764,1,0,0:0:0:0:
379,234,73941,1,8,0:0:0:0:
380,243,74117,1,0,0:0:0:0:
380,243,74294,1,8,0:0:0:0:
385,240,74381,1,8,0:0:0:0:
380,243,74470,1,0,0:0:0:0:
380,243,74647,1,8,0:0:0:0:
384,256,74822,1,8,0:0:0:0:
384,256,74910,1,0,0:0:0:0:
401,238,75176,1,8,0:0:0:0:
401,239,75351,1,0,0:0:0:0:
405,269,75529,1,0,0:0:0:0:
405,269,75617,1,8,0:0:0:0:
382,249,75793,1,8,0:0:0:0:
382,250,75882,1,0,0:0:0:0:
384,240,75969,1,8,0:0:0:0:
369,241,76058,1,8,0:0:0:0:
382,246,76146,1,8,0:0:0:0:
382,246,76234,1,0,0:0:0:0:
362,204,81175,5,8,0:0:0:0:
367,209,81528,1,12,0:0:0:0:
360,212,81881,1,4,0:0:0:0:
360,212,82057,1,8,0:0:0:0:
360,212,82146,1,8,0:0:0:0:
360,212,82234,1,0,0:0:0:0:
360,212,82410,1,8,0:0:0:0:
373,226,82587,1,0,0:0:0:0:
385,247,82675,1,0,0:0:0:0:
371,246,82763,1,8,0:0:0:0:
371,246,82851,1,8,0:0:0:0:
401,251,82940,1,0,0:0:0:0:
384,239,83116,1,0,0:0:0:0:
384,239,83204,1,8,0:0:0:0:
384,239,83293,1,0,0:0:0:0:
376,233,83469,1,0,0:0:0:0:
376,233,83646,1,8,0:0:0:0:
384,232,83734,1,8,0:0:0:0:
382,249,83822,1,0,0:0:0:0:
374,247,83999,1,8,0:0:0:0:
355,232,84175,1,0,0:0:0:0:
356,234,84263,1,0,0:0:0:0:
357,233,84351,1,8,0:0:0:0:
378,252,84528,1,8,0:0:0:0:
382,249,84704,1,0,0:0:0:0:
378,253,84881,1,8,0:0:0:0:
378,253,84969,1,8,0:0:0:0:
378,253,85057,1,0,0:0:0:0:
378,253,85234,1,8,0:0:0:0:
378,252,85322,1,8,0:0:0:0:
378,252,85410,1,0,0:0:0:0:
397,273,85587,1,0,0:0:0:0:
395,265,85763,1,8,0:0:0:0:
390,258,85940,1,0,0:0:0:0:
390,258,86028,1,8,0:0:0:0:
390,258,86116,1,0,0:0:0:0:
390,258,86293,1,0,0:0:0:0:
390,258,86469,1,8,0:0:0:0:
406,248,86557,1,8,0:0:0:0:
382,242,86646,1,0,0:0:0:0:
382,242,86734,1,0,0:0:0:0:
382,242,86822,1,8,0:0:0:0:
390,258,86999,1,8,0:0:0:0:
390,258,87087,1,0,0:0:0:0:
385,250,87175,1,8,0:0:0:0:
385,250,87263,1,8,0:0:0:0:
385,250,87351,1,0,0:0:0:0:
378,249,87528,1,0,0:0:0:0:
378,237,87704,1,8,0:0:0:0:
378,237,87793,1,8,0:0:0:0:
377,241,87881,1,0,0:0:0:0:
377,241,88057,1,8,0:0:0:0:
377,241,88234,1,0,0:0:0:0:
377,241,88410,1,0,0:0:0:0:
380,229,88499,1,8,0:0:0:0:
378,237,88587,1,8,0:0:0:0:
399,252,88763,1,0,0:0:0:0:
399,252,88851,1,0,0:0:0:0:
399,254,88940,1,8,0:0:0:0:
380,229,89028,1,8,0:0:0:0:
399,254,89116,1,0,0:0:0:0:
399,254,89293,1,8,0:0:0:0:
384,255,89469,1,0,0:0:0:0:
388,243,89557,1,0,0:0:0:0:
386,255,89646,1,8,0:0:0:0:
392,256,89822,1,0,0:0:0:0:
392,256,89910,1,0,0:0:0:0:
392,256,89999,1,8,0:0:0:0:
399,254,90087,1,0,0:0:0:0:
372,239,90175,1,8,0:0:0:0:
369,250,90351,1,0,0:0:0:0:
369,249,90528,1,8,0:0:0:0:
369,249,90616,1,8,0:0:0:0:
369,249,90704,1,0,0:0:0:0:
366,248,90881,1,8,0:0:0:0:
368,248,90969,1,8,0:0:0:0:
368,248,91057,1,0,0:0:0:0:
373,242,91234,1,0,0:0:0:0:
373,243,91410,1,8,0:0:0:0:
373,221,91587,1,0,0:0:0:0:
373,221,91675,1,8,0:0:0:0:
373,221,91763,1,0,0:0:0:0:
373,221,91940,1,0,0:0:0:0:
375,221,92116,1,8,0:0:0:0:
397,252,92204,1,8,0:0:0:0:
375,221,92293,1,0,0:0:0:0:
367,226,92469,1,8,0:0:0:0:
367,226,92822,1,12,0:0:0:0:
365,223,93175,1,0,0:0:0:0:
365,223,93263,1,0,0:0:0:0:
367,226,93351,1,8,0:0:0:0:
367,226,93440,1,8,0:0:0:0:
367,226,93528,1,0,0:0:0:0:
367,226,93616,1,0,0:0:0:0:
367,226,93704,1,8,0:0:0:0:
365,223,93881,1,0,0:0:0:0:
365,223,94057,1,8,0:0:0:0:
365,223,94146,1,0,0:0:0:0:
365,223,94234,1,8,0:0:0:0:
367,226,94322,1,8,0:0:0:0:
367,226,94410,1,0,0:0:0:0:
367,226,94499,1,0,0:0:0:0:
367,226,94587,1,8,0:0:0:0:
371,224,94763,1,0,0:0:0:0:
371,224,94851,1,0,0:0:0:0:
371,224,94940,1,8,0:0:0:0:
371,224,95116,1,0,0:0:0:0:
371,224,95204,1,0,0:0:0:0:
367,226,95293,1,8,0:0:0:0:
367,226,95381,1,8,0:0:0:0:
367,226,95469,1,0,0:0:0:0:
367,226,95557,1,0,0:0:0:0:
371,224,95646,1,8,0:0:0:0:
371,224,95734,1,0,0:0:0:0:
371,224,95822,1,8,0:0:0:0:
383,241,95999,1,0,0:0:0:0:
383,241,96087,1,0,0:0:0:0:
383,241,96175,1,8,0:0:0:0:
383,241,96263,1,8,0:0:0:0:
383,241,96351,1,0,0:0:0:0:
383,241,96440,1,8,0:0:0:0:
383,241,96528,1,0,0:0:0:0:
383,241,96616,1,0,0:0:0:0:
383,241,96704,1,8,0:0:0:0:
383,241,96881,1,0,0:0:0:0:
383,241,96969,1,0,0:0:0:0:
383,241,97057,1,8,0:0:0:0:
383,241,97146,1,8,0:0:0:0:
383,241,97234,1,0,0:0:0:0:
383,241,97322,1,0,0:0:0:0:
383,241,97410,1,8,0:0:0:0:
392,229,97587,1,0,0:0:0:0:
394,232,97763,1,8,0:0:0:0:
394,232,97851,1,8,0:0:0:0:
394,232,97940,1,0,0:0:0:0:
383,241,98116,1,8,0:0:0:0:
383,241,98293,1,8,0:0:0:0:
379,238,98469,1,8,0:0:0:0:
379,238,98557,1,8,0:0:0:0:
379,238,98646,1,8,0:0:0:0:
379,238,98734,1,8,0:0:0:0:
358,223,98822,1,0,0:0:0:0:
365,234,98999,1,8,0:0:0:0:
365,234,99087,1,8,0:0:0:0:
365,234,99175,1,0,0:0:0:0:
365,234,99263,1,8,0:0:0:0:
365,234,99351,1,8,0:0:0:0:
365,234,99528,1,0,0:0:0:0:
365,234,99616,1,0,0:0:0:0:
365,234,99704,1,8,0:0:0:0:
351,225,99793,1,0,0:0:0:0:
351,225,99881,1,8,0:0:0:0:
365,234,99969,1,8,0:0:0:0:
365,234,100057,1,0,0:0:0:0:
192,59,100146,1,0,0:0:0:0:
365,234,100234,1,8,0:0:0:0:
375,243,100410,1,0,0:0:0:0:
375,243,100499,1,0,0:0:0:0:
376,244,100587,1,8,0:0:0:0:
371,245,100675,1,0,0:0:0:0:
371,245,100763,1,0,0:0:0:0:
371,245,100940,1,8,0:0:0:0:
371,245,101028,1,8,0:0:0:0:
371,245,101116,1,0,0:0:0:0:
371,245,101204,1,0,0:0:0:0:
367,239,101293,1,8,0:0:0:0:
366,236,101469,1,8,0:0:0:0:
376,241,101646,1,0,0:0:0:0:
371,227,101822,1,8,0:0:0:0:
368,223,101910,1,8,0:0:0:0:
368,222,101999,1,0,0:0:0:0:
368,222,102087,1,8,0:0:0:0:
368,221,102175,1,0,0:0:0:0:
368,221,102263,1,0,0:0:0:0:
368,221,102351,1,8,0:0:0:0:
365,209,102528,1,0,0:0:0:0:
365,209,102616,1,8,0:0:0:0:
365,209,102704,1,0,0:0:0:0:
365,209,102793,1,0,0:0:0:0:
365,209,102881,1,8,0:0:0:0:
365,209,102969,1,0,0:0:0:0:
365,209,103057,1,8,0:0:0:0:
369,235,103234,1,0,0:0:0:0:
369,235,103322,1,0,0:0:0:0:
369,235,103410,1,8,0:0:0:0:
369,235,103587,1,0,0:0:0:0:
369,235,103675,1,0,0:0:0:0:
369,235,103763,1,8,0:0:0:0:
369,235,103851,1,8,0:0:0:0:
369,235,103940,1,0,0:0:0:0:
366,222,104116,1,8,0:0:0:0:
380,235,104469,1,4,0:0:0:0:
343,203,104646,1,0,0:0:0:0:
343,203,104734,1,0,0:0:0:0:
343,203,104822,1,8,0:0:0:0:
388,228,104999,1,8,0:0:0:0:
388,228,105087,1,0,0:0:0:0:
367,229,105175,1,8,0:0:0:0:
367,229,105263,1,8,0:0:0:0:
367,229,105351,1,0,0:0:0:0:
367,229,105440,1,0,0:0:0:0:
371,224,105528,1,8,0:0:0:0:
374,238,105704,1,0,0:0:0:0:
374,238,105793,1,8,0:0:0:0:
374,238,105881,1,0,0:0:0:0:
374,238,106057,1,0,0:0:0:0:
374,238,106234,1,8,0:0:0:0:
379,227,106410,1,8,0:0:0:0:
379,227,106499,1,8,0:0:0:0:
379,227,106587,1,0,0:0:0:0:
377,214,106675,1,0,0:0:0:0:
379,227,106851,1,0,0:0:0:0:
379,227,106940,1,8,0:0:0:0:
361,229,107116,1,8,0:0:0:0:
386,246,107293,1,0,0:0:0:0:
361,229,107469,1,0,0:0:0:0:
367,205,107557,1,0,0:0:0:0:
361,229,107646,1,8,0:0:0:0:
379,227,107822,1,0,0:0:0:0:
379,227,107910,1,8,0:0:0:0:
373,227,107999,1,0,0:0:0:0:
380,224,108087,1,0,0:0:0:0:
380,224,108175,1,8,0:0:0:0:
369,235,108351,1,8,0:0:0:0:
345,241,108528,1,8,0:0:0:0:
345,204,108616,1,8,0:0:0:0:
369,235,108704,1,0,0:0:0:0:
365,245,108881,1,0,0:0:0:0:
365,245,109057,1,8,0:0:0:0:
369,223,109234,1,8,0:0:0:0:
369,223,109322,1,8,0:0:0:0:
369,223,109410,1,0,0:0:0:0:
350,220,109587,1,0,0:0:0:0:
350,220,109675,1,0,0:0:0:0:
350,220,109763,1,8,0:0:0:0:
350,220,109851,1,0,0:0:0:0:
356,227,109940,1,8,0:0:0:0:
356,227,110116,1,4,0:0:0:0:
369,223,110293,1,0,0:0:0:0:
369,223,110381,1,0,0:0:0:0:
364,220,110469,1,8,0:0:0:0:
356,218,110646,1,8,0:0:0:0:
357,222,110822,1,0,0:0:0:0:
356,227,110910,1,8,0:0:0:0:
356,227,110999,1,0,0:0:0:0:
356,227,111087,1,0,0:0:0:0:
357,222,111175,1,8,0:0:0:0:
357,222,111351,1,8,0:0:0:0:
357,222,111440,1,8,0:0:0:0:
356,218,111528,1,0,0:0:0:0:
371,234,111704,1,0,0:0:0:0:
356,227,111881,1,8,0:0:0:0:
355,206,112057,1,0,0:0:0:0:
355,209,112146,1,8,0:0:0:0:
355,207,112234,1,0,0:0:0:0:
355,207,112322,1,0,0:0:0:0:
357,209,112410,1,8,0:0:0:0:
357,209,112587,1,8,0:0:0:0:
349,220,112675,1,8,0:0:0:0:
357,209,112763,1,8,0:0:0:0:
355,206,112940,1,0,0:0:0:0:
368,217,113116,1,0,0:0:0:0:
368,217,113293,1,8,0:0:0:0:
368,250,113469,1,0,0:0:0:0:
366,237,113557,1,8,0:0:0:0:
366,237,113646,1,0,0:0:0:0:
367,224,113734,1,0,0:0:0:0:
368,228,113822,1,8,0:0:0:0:
368,228,113999,1,8,0:0:0:0:
361,238,114175,1,8,0:0:0:0:
361,238,114263,1,8,0:0:0:0:
361,238,114351,1,0,0:0:0:0:
361,232,114528,1,0,0:0:0:0:
360,230,114704,1,8,0:0:0:0:
360,231,114881,1,8,0:0:0:0:
360,231,114969,1,8,0:0:0:0:
363,232,115057,1,0,0:0:0:0:
360,231,115146,1,0,0:0:0:0:
360,230,115234,1,8,0:0:0:0:
360,230,115322,1,0,0:0:0:0:
361,232,115410,1,8,0:0:0:0:
360,230,115587,1,8,0:0:0:0:
358,232,115763,5,4,0:0:0:0:
345,220,116116,1,8,0:0:0:0:
371,239,116381,1,0,0:0:0:0:
371,239,116557,1,0,0:0:0:0:
371,239,116646,1,0,0:0:0:0:
371,239,116822,1,8,0:0:0:0:
379,233,116999,1,0,0:0:0:0:
378,230,117087,1,0,0:0:0:0:
378,230,117175,1,0,0:0:0:0:
379,229,117351,1,0,0:0:0:0:
379,229,117528,1,8,0:0:0:0:
371,239,117704,1,0,0:0:0:0:
371,239,117793,1,0,0:0:0:0:
372,238,117881,1,0,0:0:0:0:
373,238,117969,1,0,0:0:0:0:
373,238,118057,1,0,0:0:0:0:
373,238,118234,1,8,0:0:0:0:
371,237,118410,1,0,0:0:0:0:
372,236,118499,1,0,0:0:0:0:
371,239,118587,1,0,0:0:0:0:
394,231,118940,1,8,0:0:0:0:
383,244,119116,1,0,0:0:0:0:
394,231,119204,1,0,0:0:0:0:
372,236,119381,1,0,0:0:0:0:
371,239,119469,1,0,0:0:0:0:
350,228,119646,1,8,0:0:0:0:
361,233,119822,1,0,0:0:0:0:
361,233,119910,1,0,0:0:0:0:
361,233,119999,1,0,0:0:0:0:
361,233,120175,1,0,0:0:0:0:
361,233,120263,1,0,0:0:0:0:
361,233,120351,1,8,0:0:0:0:
379,244,120528,1,0,0:0:0:0:
379,244,120616,1,0,0:0:0:0:
379,244,120793,1,0,0:0:0:0:
379,244,120881,1,0,0:0:0:0:
380,245,121057,1,8,0:0:0:0:
371,234,121234,1,0,0:0:0:0:
371,234,121322,1,0,0:0:0:0:
371,234,121410,1,0,0:0:0:0:
360,222,121763,1,8,0:0:0:0:
358,216,121940,1,0,0:0:0:0:
358,216,122028,1,0,0:0:0:0:
358,216,122116,1,0,0:0:0:0:
358,216,122204,1,0,0:0:0:0:
369,218,122293,1,0,0:0:0:0:
376,229,122469,1,8,0:0:0:0:
366,222,122646,1,0,0:0:0:0:
366,222,122734,1,0,0:0:0:0:
366,222,122822,1,0,0:0:0:0:
368,224,122999,1,0,0:0:0:0:
345,214,123175,1,8,0:0:0:0:
347,217,123351,1,0,0:0:0:0:
347,217,123440,1,0,0:0:0:0:
347,217,123528,1,0,0:0:0:0:
347,217,123616,1,0,0:0:0:0:
347,217,123704,1,0,0:0:0:0:
347,217,123881,1,8,0:0:0:0:
355,231,124057,1,0,0:0:0:0:
355,232,124146,1,0,0:0:0:0:
355,232,124234,1,0,0:0:0:0:
365,221,124410,1,0,0:0:0:0:
363,220,124587,1,8,0:0:0:0:
356,225,124763,1,0,0:0:0:0:
357,225,124851,1,0,0:0:0:0:
357,225,124940,1,0,0:0:0:0:
357,225,125028,1,0,0:0:0:0:
357,225,125116,1,0,0:0:0:0:
357,226,125293,1,8,0:0:0:0:
389,245,125469,1,8,0:0:0:0:
380,235,125646,1,4,0:0:0:0:
343,203,125823,1,8,0:0:0:0:
343,203,125911,1,0,0:0:0:0:
343,203,125999,1,8,0:0:0:0:
363,226,126175,1,0,0:0:0:0:
388,228,126264,1,0,0:0:0:0:
367,229,126352,1,8,0:0:0:0:
367,229,126440,1,0,0:0:0:0:
367,229,126528,1,0,0:0:0:0:
371,224,126705,1,8,0:0:0:0:
374,238,126881,1,0,0:0:0:0:
374,238,126970,1,8,0:0:0:0:
374,238,127058,1,0,0:0:0:0:
374,238,127234,1,0,0:0:0:0:
374,238,127411,1,8,0:0:0:0:
367,229,127499,1,0,0:0:0:0:
364,232,127587,1,8,0:0:0:0:
379,227,127676,1,8,0:0:0:0:
379,227,127764,1,0,0:0:0:0:
377,214,127940,1,0,0:0:0:0:
379,227,128028,1,0,0:0:0:0:
379,227,128117,1,8,0:0:0:0:
306,226,128204,1,0,0:0:0:0:
361,229,128293,1,8,0:0:0:0:
386,246,128470,1,0,0:0:0:0:
361,229,128646,1,0,0:0:0:0:
367,205,128734,1,0,0:0:0:0:
361,229,128823,1,8,0:0:0:0:
379,227,128999,1,0,0:0:0:0:
379,227,129087,1,8,0:0:0:0:
373,227,129176,1,0,0:0:0:0:
380,224,129264,1,0,0:0:0:0:
380,224,129352,1,8,0:0:0:0:
369,235,129440,1,0,0:0:0:0:
369,235,129528,1,8,0:0:0:0:
378,243,129705,1,8,0:0:0:0:
376,240,129793,1,8,0:0:0:0:
369,235,129881,1,0,0:0:0:0:
365,245,130058,1,0,0:0:0:0:
365,245,130146,1,0,0:0:0:0:
365,245,130234,1,8,0:0:0:0:
372,231,130323,1,0,0:0:0:0:
369,223,130411,1,8,0:0:0:0:
369,223,130499,1,8,0:0:0:0:
369,223,130587,1,0,0:0:0:0:
350,220,130764,1,8,0:0:0:0:
350,220,130852,1,8,0:0:0:0:
350,220,130940,1,8,0:0:0:0:
356,227,131117,1,8,0:0:0:0:
356,227,131293,1,0,0:0:0:0:
369,223,131470,1,0,0:0:0:0:
357,246,131557,1,0,0:0:0:0:
364,220,131646,1,8,0:0:0:0:
372,237,131734,1,0,0:0:0:0:
356,218,131823,1,8,0:0:0:0:
356,218,131911,1,8,0:0:0:0:
357,222,131999,1,0,0:0:0:0:
356,227,132087,1,8,0:0:0:0:
356,227,132176,1,0,0:0:0:0:
356,227,132264,1,0,0:0:0:0:
357,222,132352,1,8,0:0:0:0:
357,222,132528,1,8,0:0:0:0:
357,222,132617,1,8,0:0:0:0:
356,218,132705,1,0,0:0:0:0:
371,234,132881,1,0,0:0:0:0:
353,230,132969,1,0,0:0:0:0:
356,227,133058,1,8,0:0:0:0:
356,227,133146,1,8,0:0:0:0:
355,206,133234,1,0,0:0:0:0:
355,209,133323,1,8,0:0:0:0:
355,207,133411,1,0,0:0:0:0:
355,207,133499,1,0,0:0:0:0:
357,209,133587,1,8,0:0:0:0:
382,235,133675,1,0,0:0:0:0:
357,209,133764,1,8,0:0:0:0:
357,209,133940,1,8,0:0:0:0:
355,206,134117,1,0,0:0:0:0:
367,246,134204,1,8,0:0:0:0:
368,217,134293,1,0,0:0:0:0:
374,249,134381,1,0,0:0:0:0:
368,217,134470,1,8,0:0:0:0:
388,244,134646,1,8,0:0:0:0:
366,237,134734,1,8,0:0:0:0:
366,237,134823,1,0,0:0:0:0:
367,224,134911,1,0,0:0:0:0:
368,228,135087,1,0,0:0:0:0:
368,228,135176,1,8,0:0:0:0:
361,238,135352,1,8,0:0:0:0:
361,238,135440,1,8,0:0:0:0:
361,238,135528,1,0,0:0:0:0:
376,237,135616,1,8,0:0:0:0:
361,232,135705,1,0,0:0:0:0:
360,230,135793,5,0,0:0:0:0:
360,230,135881,1,8,0:0:0:0:
360,231,136058,1,8,0:0:0:0:
360,231,136146,1,8,0:0:0:0:
363,232,136234,1,0,0:0:0:0:
360,231,136323,1,0,0:0:0:0:
360,230,136411,1,8,0:0:0:0:
360,230,136499,1,0,0:0:0:0:
361,232,136587,1,8,0:0:0:0:
380,231,136675,1,8,0:0:0:0:
360,230,136764,1,8,0:0:0:0:
380,231,136851,1,8,0:0:0:0:
380,235,136940,1,0,0:0:0:0:
343,203,137117,1,8,0:0:0:0:
343,203,137205,1,0,0:0:0:0:
343,203,137293,1,8,0:0:0:0:
388,228,137470,1,0,0:0:0:0:
388,228,137558,1,0,0:0:0:0:
367,229,137646,1,8,0:0:0:0:
367,229,137734,1,8,0:0:0:0:
367,229,137822,1,0,0:0:0:0:
371,224,137999,1,8,0:0:0:0:
374,238,138175,1,0,0:0:0:0:
374,238,138264,1,8,0:0:0:0:
374,238,138352,1,0,0:0:0:0:
374,238,138528,1,0,0:0:0:0:
374,238,138705,1,8,0:0:0:0:
379,227,138881,1,8,0:0:0:0:
379,227,138970,1,8,0:0:0:0:
379,227,139058,1,0,0:0:0:0:
377,214,139146,1,0,0:0:0:0:
379,227,139322,1,0,0:0:0:0:
379,227,139411,1,8,0:0:0:0:
361,229,139587,1,8,0:0:0:0:
386,246,139764,1,0,0:0:0:0:
361,229,139940,1,8,0:0:0:0:
367,205,140028,1,8,0:0:0:0:
361,229,140117,1,8,0:0:0:0:
379,227,140293,1,0,0:0:0:0:
379,227,140381,1,8,0:0:0:0:
373,227,140470,1,0,0:0:0:0:
380,224,140558,1,0,0:0:0:0:
380,224,140646,1,8,0:0:0:0:
386,246,140734,1,0,0:0:0:0:
369,235,140822,1,8,0:0:0:0:
380,224,140911,1,8,0:0:0:0:
378,243,140999,1,0,0:0:0:0:
369,235,141175,1,0,0:0:0:0:
365,245,141352,1,0,0:0:0:0:
365,245,141440,1,0,0:0:0:0:
365,245,141528,1,8,0:0:0:0:
372,231,141617,1,0,0:0:0:0:
369,223,141705,1,8,0:0:0:0:
369,223,141793,1,8,0:0:0:0:
369,223,141881,1,0,0:0:0:0:
350,220,142058,1,0,0:0:0:0:
350,220,142146,1,0,0:0:0:0:
350,220,142234,1,8,0:0:0:0:
356,227,142411,1,8,0:0:0:0:
356,227,142587,1,4,0:0:0:0:
369,223,142764,1,0,0:0:0:0:
369,223,142852,1,0,0:0:0:0:
364,220,142940,1,8,0:0:0:0:
356,218,143117,1,8,0:0:0:0:
357,222,143293,1,0,0:0:0:0:
356,227,143381,1,8,0:0:0:0:
356,227,143470,1,0,0:0:0:0:
356,227,143558,1,0,0:0:0:0:
357,222,143646,1,8,0:0:0:0:
357,222,143822,1,8,0:0:0:0:
357,222,143911,1,8,0:0:0:0:
356,218,143999,1,0,0:0:0:0:
371,234,144175,1,0,0:0:0:0:
356,227,144352,1,8,0:0:0:0:
355,206,144528,1,0,0:0:0:0:
355,209,144617,1,8,0:0:0:0:
355,207,144705,1,0,0:0:0:0:
355,207,144793,1,0,0:0:0:0:
357,209,144881,1,8,0:0:0:0:
357,209,145058,1,8,0:0:0:0:
349,220,145146,1,8,0:0:0:0:
357,209,145234,1,8,0:0:0:0:
385,231,145322,1,8,0:0:0:0:
355,206,145411,1,0,0:0:0:0:
368,217,145587,1,0,0:0:0:0:
368,217,145764,1,8,0:0:0:0:
368,250,145940,1,0,0:0:0:0:
366,237,146028,1,8,0:0:0:0:
366,237,146117,1,0,0:0:0:0:
368,228,146293,1,8,0:0:0:0:
372,235,146381,1,0,0:0:0:0:
368,228,146470,1,8,0:0:0:0:
363,232,146558,1,8,0:0:0:0:
361,238,146646,1,0,0:0:0:0:
361,238,146822,1,0,0:0:0:0:
361,232,146999,1,0,0:0:0:0:
360,230,147087,5,0,0:0:0:0:
360,230,147175,1,8,0:0:0:0:
360,231,147352,1,8,0:0:0:0:
360,231,147440,1,8,0:0:0:0:
363,232,147528,1,0,0:0:0:0:
360,230,147705,1,8,0:0:0:0:
360,230,147793,1,0,0:0:0:0:
361,232,147881,1,8,0:0:0:0:
376,217,147969,1,8,0:0:0:0:
360,230,148058,1,0,0:0:0:0:
380,235,148234,1,4,0:0:0:0:
343,203,148411,1,8,0:0:0:0:
343,203,148499,1,8,0:0:0:0:
343,203,148587,1,8,0:0:0:0:
388,228,148764,1,0,0:0:0:0:
367,229,148940,1,8,0:0:0:0:
367,229,149028,1,8,0:0:0:0:
367,229,149116,1,0,0:0:0:0:
371,228,149204,1,0,0:0:0:0:
371,224,149293,1,8,0:0:0:0:
372,228,149469,1,8,0:0:0:0:
374,238,149558,1,8,0:0:0:0:
374,238,149646,1,0,0:0:0:0:
374,238,149822,1,0,0:0:0:0:
374,238,149999,1,8,0:0:0:0:
379,227,150175,1,0,0:0:0:0:
382,235,150351,1,0,0:0:0:0:
359,228,150440,1,0,0:0:0:0:
352,222,150528,1,0,0:0:0:0:
379,227,150705,1,8,0:0:0:0:
361,229,150881,1,8,0:0:0:0:
355,220,150969,1,8,0:0:0:0:
386,246,151058,1,0,0:0:0:0:
361,229,151234,1,0,0:0:0:0:
361,229,151411,1,8,0:0:0:0:
379,227,151587,1,0,0:0:0:0:
379,227,151675,1,8,0:0:0:0:
373,227,151764,1,0,0:0:0:0:
380,224,151852,1,0,0:0:0:0:
380,224,151940,1,8,0:0:0:0:
386,246,152028,1,0,0:0:0:0:
369,235,152116,1,8,0:0:0:0:
362,256,152293,1,8,0:0:0:0:
362,256,152381,1,8,0:0:0:0:
369,235,152469,1,0,0:0:0:0:
365,245,152646,1,0,0:0:0:0:
365,245,152822,1,8,0:0:0:0:
369,223,152999,1,8,0:0:0:0:
369,223,153087,1,8,0:0:0:0:
369,223,153175,1,0,0:0:0:0:
367,232,153263,1,8,0:0:0:0:
350,220,153352,1,0,0:0:0:0:
350,220,153440,1,0,0:0:0:0:
350,220,153528,1,8,0:0:0:0:
356,227,153705,1,8,0:0:0:0:
356,227,153881,1,4,0:0:0:0:
369,223,154058,1,0,0:0:0:0:
364,220,154234,1,8,0:0:0:0:
356,218,154411,1,8,0:0:0:0:
355,222,154499,1,8,0:0:0:0:
357,222,154587,1,0,0:0:0:0:
356,227,154675,1,8,0:0:0:0:
356,227,154764,1,0,0:0:0:0:
357,222,154940,1,8,0:0:0:0:
357,222,155116,1,8,0:0:0:0:
357,222,155205,1,8,0:0:0:0:
356,218,155293,1,0,0:0:0:0:
371,234,155469,1,0,0:0:0:0:
356,227,155646,1,8,0:0:0:0:
355,206,155822,1,0,0:0:0:0:
355,209,155911,1,8,0:0:0:0:
355,207,155999,1,0,0:0:0:0:
384,252,156175,1,0,0:0:0:0:
357,209,156352,1,8,0:0:0:0:
349,220,156440,1,8,0:0:0:0:
357,209,156528,1,8,0:0:0:0:
355,206,156705,1,0,0:0:0:0:
368,217,156881,1,0,0:0:0:0:
368,217,157058,1,8,0:0:0:0:
368,250,157234,1,0,0:0:0:0:
366,237,157322,1,8,0:0:0:0:
366,237,157411,1,0,0:0:0:0:
368,230,157499,1,0,0:0:0:0:
368,228,157587,1,8,0:0:0:0:
371,244,157675,1,0,0:0:0:0:
368,228,157764,1,8,0:0:0:0:
379,227,157940,1,8,0:0:0:0:
380,240,158028,1,8,0:0:0:0:
361,238,158116,1,0,0:0:0:0:
361,232,158293,1,0,0:0:0:0:
360,230,158469,1,8,0:0:0:0:
360,231,158646,1,8,0:0:0:0:
360,231,158734,1,8,0:0:0:0:
363,232,158822,1,0,0:0:0:0:
360,230,158999,1,8,0:0:0:0:
360,230,159087,1,0,0:0:0:0:
361,232,159175,1,8,0:0:0:0:
376,217,159263,1,8,0:0:0:0:
360,230,159352,1,0,0:0:0:0:
360,231,159528,1,4,0:0:0:0:
356,235,159704,1,0,0:0:0:0:
357,235,159881,1,8,0:0:0:0:
357,238,160057,1,8,0:0:0:0:
357,238,160146,1,8,0:0:0:0:
357,238,160234,1,0,0:0:0:0:
351,217,160322,1,8,0:0:0:0:
351,217,160410,1,0,0:0:0:0:
352,220,160587,1,8,0:0:0:0:
352,220,160763,1,8,0:0:0:0:
353,220,160851,1,8,0:0:0:0:
354,223,160940,1,0,0:0:0:0:
357,238,161116,1,0,0:0:0:0:
357,238,161204,1,0,0:0:0:0:
356,233,161293,1,8,0:0:0:0:
356,233,161469,1,0,0:0:0:0:
356,233,161557,1,8,0:0:0:0:
356,233,161646,1,0,0:0:0:0:
356,233,161734,1,0,0:0:0:0:
356,233,161822,1,8,0:0:0:0:
356,233,161910,1,0,0:0:0:0:
357,238,161999,1,8,0:0:0:0:
365,240,162175,1,8,0:0:0:0:
365,241,162263,1,8,0:0:0:0:
365,241,162351,1,0,0:0:0:0:
365,241,162440,1,0,0:0:0:0:
365,241,162528,1,0,0:0:0:0:
365,241,162616,1,0,0:0:0:0:
365,241,162704,1,8,0:0:0:0:
365,241,162881,1,8,0:0:0:0:
365,241,162969,1,8,0:0:0:0:
365,240,163057,1,0,0:0:0:0:
365,240,163146,1,0,0:0:0:0:
365,241,163234,1,8,0:0:0:0:
365,241,163322,1,0,0:0:0:0:
365,241,163410,1,8,0:0:0:0:
354,224,163587,1,8,0:0:0:0:
354,225,163675,1,8,0:0:0:0:
355,226,163763,1,0,0:0:0:0:
356,229,163851,1,0,0:0:0:0:
357,230,163940,1,8,0:0:0:0:
357,230,164028,1,0,0:0:0:0:
357,230,164116,1,8,0:0:0:0:
357,230,164204,1,8,0:0:0:0:
357,230,164293,1,0,0:0:0:0:
357,230,164381,1,8,0:0:0:0:
357,230,164469,1,0,0:0:0:0:
357,230,164557,1,0,0:0:0:0:
357,230,164646,1,8,0:0:0:0:
355,226,164734,1,0,0:0:0:0:
356,229,164822,1,8,0:0:0:0:
366,222,165175,1,4,0:0:0:0:
