osu file format v14

[General]
AudioFilename: audio.mp3
AudioLeadIn: 0
PreviewTime: 37386
Countdown: 0
SampleSet: Soft
StackLeniency: 0.7
Mode: 0
LetterboxInBreaks: 0
WidescreenStoryboard: 1

[Editor]
Bookmarks: 7626,105126,119188
DistanceSpacing: 1
BeatDivisor: 4
GridSize: 32
TimelineZoom: 1

[Metadata]
Title:Rise Up
TitleUnicode:Rise Up
Artist:Yves Larock
ArtistUnicode:Yves Larock
Creator:Kyshiro
Version:Dream
Source:
Tags:
BeatmapID:1452637
BeatmapSetID:686366

[Difficulty]
HPDrainRate:6
CircleSize:3.5
OverallDifficulty:8.2
ApproachRate:8.7
SliderMultiplier:2.3
SliderTickRate:1

[Events]
//Background and Video events
0,0,"wallhaven-532567.jpg",0,0
//Break Periods
2,105310,118291
//Storyboard Layer 0 (Background)
//Storyboard Layer 1 (Fail)
//Storyboard Layer 2 (Pass)
//Storyboard Layer 3 (Foreground)
//Storyboard Sound Samples

[TimingPoints]
126,468.68,4,2,1,75,1,0
15123,-100,4,2,0,60,0,0
37620,-80,4,2,1,75,0,1
67615,-100,4,2,0,60,0,0
82613,-80,4,2,1,75,0,1
105110,-100,4,2,0,75,0,0
120108,-133.333333333333,4,2,0,75,0,0
127606,-80,4,2,1,75,0,1
142629,468.68,4,2,1,75,1,1
142629,-80,4,2,1,75,0,1
157626,-80,4,2,1,75,0,0

[Colours]
Combo1 : 244,208,168
Combo2 : 237,177,204
Combo3 : 185,192,244

[HitObjects]
68,56,7624,6,0,P|56:121|96:227,1,172.5,4|8,0:0|0:0,0:0:0:0:
179,265,8093,2,0,L|298:251,1,115,0|8,0:0|0:0,0:0:0:0:
212,117,8562,1,2,0:0:0:0:
212,117,8679,1,8,0:0:0:0:
83,323,8913,1,8,0:0:0:0:
83,323,9030,1,2,0:0:0:0:
264,291,9265,1,10,0:0:0:0:
168,56,9499,6,0,L|164:176,1,115
161,253,9851,1,8,0:0:0:0:
161,253,9968,2,0,P|74:246|48:227,1,115,0|8,0:0|0:0,0:0:0:0:
288,113,10436,1,2,0:0:0:0:
288,113,10554,1,8,0:0:0:0:
80,145,10788,1,8,0:0:0:0:
80,145,10905,1,2,0:0:0:0:
364,212,11139,1,8,0:0:0:0:
188,68,11374,6,0,B|156:152|219:152|188:237,1,172.5,0|8,0:0|0:0,0:0:0:0:
140,317,11843,1,0,0:0:0:0:
36,201,12077,1,8,0:0:0:0:
302,193,12311,1,2,0:0:0:0:
302,193,12428,2,0,L|317:313,1,115,8|8,0:0|0:0,0:0:0:0:
386,372,12780,1,2,0:0:0:0:
440,175,13014,1,2,0:0:0:0:
221,323,13249,1,4,3:0:0:0:
221,323,13952,5,2,0:0:0:0:
82,212,14186,5,2,3:0:0:0:
184,226,14537,5,10,3:0:0:0:
286,240,14889,5,6,3:0:0:0:
504,109,15123,6,0,P|412:113|363:174,1,172.5,12|2,3:0|0:0,0:0:0:0:
307,93,15592,2,0,P|266:55|199:32,1,115,0|2,0:0|0:0,0:0:0:0:
40,151,16061,1,0,0:0:0:0:
40,151,16178,2,0,L|160:139,1,115,2|0,0:0|0:0,0:0:0:0:
242,178,16529,1,2,0:0:0:0:
195,333,16764,1,0,0:0:0:0:
195,333,16881,1,0,0:0:0:0:
195,333,16998,6,0,P|166:273|165:216,1,115,2|0,0:0|0:0,0:0:0:0:
242,178,17349,1,2,0:0:0:0:
242,178,17467,1,0,0:0:0:0:
85,317,17701,1,2,0:0:0:0:
81,144,17935,1,0,0:0:0:0:
81,144,18053,1,2,0:0:0:0:
323,309,18287,1,0,0:0:0:0:
323,309,18404,2,0,L|187:294,1,115,2|0,0:0|0:0,0:0:0:0:
384,148,18873,6,0,L|520:133,1,115,2|0,0:0|0:0,0:0:0:0:
431,49,19224,1,2,0:0:0:0:
431,49,19341,2,0,P|356:39|303:70,1,115,0|2,0:0|0:0,0:0:0:0:
452,329,19810,1,0,0:0:0:0:
452,329,19927,2,0,B|471:273|471:273|453:215,1,115,2|0,0:0|0:0,0:0:0:0:
342,215,20279,2,0,B|323:271|323:271|341:329,1,115,2|0,0:0|0:0,0:0:0:0:
90,227,20747,6,0,L|218:233,1,115,2|0,0:0|0:0,0:0:0:0:
244,312,21099,1,2,0:0:0:0:
244,312,21216,1,0,0:0:0:0:
7,262,21450,1,2,0:0:0:0:
226,146,21685,1,0,0:0:0:0:
226,146,21802,1,2,0:0:0:0:
124,344,22036,1,0,0:0:0:0:
124,344,22153,2,0,L|103:211,1,115,2|0,0:0|0:0,0:0:0:0:
193,40,22622,6,0,P|303:33|367:96,1,172.5,2|2,0:0|0:0,0:0:0:0:
120,115,23091,2,0,P|89:59|96:7,1,115,0|2,0:0|0:0,0:0:0:0:
261,133,23560,1,0,0:0:0:0:
261,133,23677,2,0,L|242:270,1,115,2|0,0:0|0:0,0:0:0:0:
305,319,24028,1,2,0:0:0:0:
489,79,24263,1,0,0:0:0:0:
489,79,24380,1,0,0:0:0:0:
489,79,24497,6,0,B|404:47|404:110|319:79,1,172.5,2|2,0:0|0:0,0:0:0:0:
246,28,24966,1,0,0:0:0:0:
447,162,25200,1,2,0:0:0:0:
162,123,25434,1,0,0:0:0:0:
162,123,25551,1,2,0:0:0:0:
353,91,25786,1,0,0:0:0:0:
353,91,25903,2,0,L|363:237,1,115,2|0,0:0|0:0,0:0:0:0:
82,342,26372,6,0,P|54:261|91:170,1,172.5,2|2,0:0|0:0,0:0:0:0:
162,123,26840,1,0,0:0:0:0:
252,249,27075,1,2,0:0:0:0:
93,46,27309,1,0,0:0:0:0:
93,46,27426,2,0,P|177:21|216:35,1,115,2|0,0:0|0:0,0:0:0:0:
274,97,27778,1,2,0:0:0:0:
52,180,28012,1,0,0:0:0:0:
52,180,28129,1,0,0:0:0:0:
52,180,28246,6,0,L|40:303,1,115,2|0,0:0|0:0,0:0:0:0:
132,242,28598,2,0,L|244:190,1,115,2|0,0:0|0:0,0:0:0:0:
147,143,28949,2,0,L|46:71,1,115,2|0,0:0|0:0,0:0:0:0:
21,165,29301,1,2,0:0:0:0:
312,262,29535,1,0,0:0:0:0:
312,262,29652,2,0,P|335:195|318:143,1,115,2|0,0:0|0:0,0:0:0:0:
484,28,30121,6,0,P|446:97|464:199,1,172.5,2|2,0:0|0:0,0:0:0:0:
509,264,30590,1,0,0:0:0:0:
354,65,30824,1,2,0:0:0:0:
173,199,31058,2,0,B|257:230|257:167|342:199,1,172.5,0|2,0:0|0:0,0:0:0:0:
299,284,31527,1,0,0:0:0:0:
216,120,31761,1,2,0:0:0:0:
458,131,31996,6,0,B|486:197|486:197|456:301,1,172.5,2|2,0:0|0:0,0:0:0:0:
434,377,32464,1,0,0:0:0:0:
216,267,32699,1,2,0:0:0:0:
345,167,32933,1,0,0:0:0:0:
345,167,33050,2,0,L|354:298,1,115,2|0,0:0|0:0,0:0:0:0:
273,352,33402,2,0,L|156:339,1,115,2|0,0:0|0:0,0:0:0:0:
57,116,33870,5,2,0:0:0:0:
159,125,34222,5,2,0:0:0:0:
262,135,34573,5,2,0:0:0:0:
221,46,34808,1,0,0:0:0:0:
221,46,34925,1,2,0:0:0:0:
204,215,35159,1,0,0:0:0:0:
204,215,35277,1,2,0:0:0:0:
357,139,35511,1,0,0:0:0:0:
82,51,35745,5,2,0:3:0:0:
256,192,35862,12,0,37385,0:0:0:0:
67,226,37620,6,0,P|174:299|255:279,1,215.625,4|8,3:1|0:0,0:0:0:0:
185,166,38089,1,0,0:0:0:0:
42,333,38323,1,8,0:0:0:0:
334,357,38557,1,2,0:0:0:0:
334,357,38674,2,0,P|360:284|336:213,1,143.75,8|8,0:0|0:0,0:0:0:0:
169,210,39026,2,0,P|143:283|167:354,1,143.75,2|10,0:0|0:0,0:0:0:0:
441,109,39495,6,0,B|336:56|336:161|232:109,1,215.625,0|8,3:0|0:0,0:0:0:0:
286,29,39963,1,0,0:0:0:0:
390,188,40198,1,8,0:0:0:0:
88,219,40432,1,2,0:0:0:0:
88,219,40549,2,0,L|68:70,1,143.75,8|8,0:0|0:0,0:0:0:0:
194,196,40901,2,0,L|174:338,1,143.75,2|8,0:0|0:0,0:0:0:0:
191,42,41369,6,0,P|297:26|386:96,1,215.625,0|8,3:0|0:0,0:0:0:0:
310,172,41838,2,0,P|268:109|244:205,1,215.625
300,259,42307,1,2,0:0:0:0:
300,259,42424,1,8,0:0:0:0:
433,164,42658,1,8,0:0:0:0:
433,164,42775,1,2,0:0:0:0:
153,208,43010,1,10,0:0:0:0:
408,286,43244,6,0,B|426:200|426:200|400:158|400:158|419:72,1,215.625,0|8,3:0|0:0,0:0:0:0:
511,135,43713,1,0,0:0:0:0:
326,223,43947,1,8,0:0:0:0:
168,71,44181,2,0,P|236:34|314:50,1,143.75,2|0,0:0|0:0,0:0:0:0:
170,190,44533,2,0,P|102:153|24:169,1,143.75,10|0,0:0|0:0,0:0:0:0:
85,258,44884,1,10,0:0:0:0:
309,354,45119,6,0,P|351:261|314:148,1,215.625,4|8,3:1|0:0,0:0:0:0:
234,120,45587,1,0,0:0:0:0:
432,320,45822,1,8,0:0:0:0:
482,59,46056,1,2,0:0:0:0:
482,59,46173,2,0,B|411:41|411:41|350:77,1,143.75,8|8,0:0|0:0,0:0:0:0:
370,213,46525,2,2,B|441:231|441:231|502:195,1,143.75,2|10,0:0|0:0,0:0:0:0:
231,79,46994,6,0,B|157:67|104:122|104:122|74:94|17:98,1,215.625,0|8,3:0|0:0,0:0:0:0:
38,198,47462,2,0,L|57:346,1,143.75,0|8,0:0|0:0,0:0:0:0:
222,250,47931,1,2,0:0:0:0:
222,250,48048,1,8,0:0:0:0:
94,28,48282,1,8,0:0:0:0:
94,28,48400,1,2,0:0:0:0:
58,183,48634,1,8,0:0:0:0:
374,277,48868,6,0,P|418:196|388:76,1,215.625,0|8,3:0|0:0,0:0:0:0:
265,115,49337,2,0,P|314:166|209:199,1,215.625
161,127,49806,1,2,0:0:0:0:
161,127,49923,1,8,0:0:0:0:
244,315,50157,1,8,0:0:0:0:
244,315,50274,1,2,0:0:0:0:
267,36,50509,1,10,0:0:0:0:
40,213,50743,6,0,L|188:226,1,143.75,0|0,3:0|0:0,0:0:0:0:
278,183,51094,1,8,0:0:0:0:
278,183,51212,1,0,0:0:0:0:
122,70,51446,1,10,0:0:0:0:
142,327,51680,1,2,0:0:0:0:
142,327,51797,1,8,0:0:0:0:
269,309,52032,1,8,0:0:0:0:
269,309,52149,1,2,0:0:0:0:
397,291,52383,1,10,0:0:0:0:
203,44,52618,6,0,P|163:119|176:185,1,143.75,4|0,3:1|0:0,0:0:0:0:
329,215,52969,2,0,P|369:140|356:74,1,143.75,8|0,0:0|0:0,0:0:0:0:
266,129,53321,1,8,0:0:0:0:
264,331,53555,1,2,0:0:0:0:
264,331,53672,2,0,L|433:314,1,143.75,8|8,0:0|0:0,0:0:0:0:
236,233,54024,2,0,L|67:216,1,143.75,2|10,0:0|0:0,0:0:0:0:
268,42,54492,6,0,P|397:39|446:120,1,215.625,0|8,3:0|0:0,0:0:0:0:
336,131,54961,2,0,P|329:214|353:277,1,143.75,0|8,0:0|0:0,0:0:0:0:
503,202,55430,1,2,0:0:0:0:
503,202,55547,1,8,0:0:0:0:
211,156,55781,1,8,0:0:0:0:
211,156,55898,1,2,0:0:0:0:
331,325,56133,1,8,0:0:0:0:
341,113,56367,6,0,B|238:61|238:164|135:113,1,215.625,0|8,3:0|0:0,0:0:0:0:
55,46,56836,1,0,0:0:0:0:
156,227,57070,1,8,0:0:0:0:
228,23,57304,1,2,0:0:0:0:
228,23,57422,1,8,0:0:0:0:
42,171,57656,1,8,0:0:0:0:
42,171,57773,1,2,0:0:0:0:
334,118,58007,1,10,0:0:0:0:
123,31,58242,6,0,L|141:190,1,143.75,0|0,3:0|0:0,0:0:0:0:
153,270,58593,1,8,0:0:0:0:
153,270,58711,1,0,0:0:0:0:
251,90,58945,1,10,0:0:0:0:
25,250,59179,1,2,0:0:0:0:
25,250,59296,1,8,0:0:0:0:
153,270,59531,1,8,0:0:0:0:
153,270,59648,1,2,0:0:0:0:
280,290,59882,1,10,0:0:0:0:
96,348,60117,6,0,P|43:256|76:122,1,215.625,4|8,3:1|0:0,0:0:0:0:
154,82,60585,1,0,0:0:0:0:
210,226,60820,1,8,0:0:0:0:
42,40,61054,1,2,0:0:0:0:
42,40,61171,1,8,0:0:0:0:
273,131,61405,1,8,0:0:0:0:
273,131,61523,1,2,0:0:0:0:
105,183,61757,1,10,0:0:0:0:
224,29,61991,6,0,B|300:2|357:60|357:60|388:35|434:30,1,215.625,0|8,3:0|0:0,0:0:0:0:
492,114,62460,2,0,L|470:267,1,143.75,0|8,0:0|0:0,0:0:0:0:
256,348,62929,1,2,0:0:0:0:
256,348,63046,1,8,0:0:0:0:
167,172,63280,1,8,0:0:0:0:
167,172,63397,1,2,0:0:0:0:
376,287,63632,1,8,0:0:0:0:
70,254,63866,6,0,P|38:150|97:65,1,215.625,0|8,3:0|0:0,0:0:0:0:
167,172,64335,2,0,P|199:262|181:316,1,143.75,0|8,0:0|0:0,0:0:0:0:
11,156,64803,1,2,0:0:0:0:
11,156,64921,1,8,0:0:0:0:
212,68,65155,1,8,0:0:0:0:
212,68,65272,1,2,0:0:0:0:
49,273,65506,1,10,0:0:0:0:
83,55,65741,5,4,0:0:0:0:
83,55,66444,1,2,0:0:0:0:
283,153,66678,5,2,3:0:0:0:
154,171,67030,5,10,3:0:0:0:
26,189,67381,5,4,3:0:0:0:
227,50,67615,6,0,P|341:51|394:109,1,172.5,12|2,3:0|0:0,0:0:0:0:
471,130,68084,2,0,P|453:197|456:252,1,115,0|2,0:0|0:0,0:0:0:0:
345,353,68553,1,0,0:0:0:0:
345,353,68670,1,2,0:0:0:0:
259,199,68904,1,0,0:0:0:0:
259,199,69021,1,2,0:0:0:0:
464,339,69256,1,0,0:0:0:0:
220,368,69490,6,0,L|87:356,1,115,2|0,0:0|0:0,0:0:0:0:
25,300,69842,1,2,0:0:0:0:
25,300,69959,1,0,0:0:0:0:
199,188,70193,2,0,P|277:201|316:234,1,115,2|0,0:0|0:0,0:0:0:0:
353,305,70545,1,2,0:0:0:0:
101,224,70779,1,0,0:0:0:0:
101,224,70896,2,0,L|82:101,1,115,2|0,0:0|0:0,0:0:0:0:
313,36,71365,6,0,P|417:43|475:111,1,172.5,2|2,0:0|0:0,0:0:0:0:
454,189,71834,1,0,0:0:0:0:
256,170,72068,2,0,P|306:140|378:135,1,115,2|0,0:0|0:0,0:0:0:0:
414,274,72419,2,0,P|364:304|292:309,1,115,2|0,0:0|0:0,0:0:0:0:
216,270,72771,1,2,0:0:0:0:
512,230,73005,1,0,0:0:0:0:
512,230,73122,1,0,0:0:0:0:
512,230,73240,6,0,L|501:368,1,115,2|0,0:0|0:0,0:0:0:0:
414,274,73591,2,0,L|404:159,1,115,2|0,0:0|0:0,0:0:0:0:
331,93,73943,2,0,P|261:79|209:93,1,115,2|0,0:0|0:0,0:0:0:0:
190,178,74294,2,0,P|120:192|68:178,1,115,2|0,0:0|0:0,0:0:0:0:
18,97,74646,1,2,0:0:0:0:
152,299,74880,1,0,0:0:0:0:
357,177,75114,6,0,B|273:145|273:208|189:177,1,172.5,2|2,0:0|0:0,0:0:0:0:
232,87,75583,1,0,0:0:0:0:
314,267,75817,1,2,0:0:0:0:
473,226,76052,1,0,0:0:0:0:
473,226,76169,2,0,P|481:155|459:110,1,115,2|0,0:0|0:0,0:0:0:0:
356,71,76520,2,0,P|348:142|370:187,1,115,2|0,0:0|0:0,0:0:0:0:
358,355,76989,6,0,P|273:311|196:314,1,172.5,2|2,0:0|0:0,0:0:0:0:
115,353,77458,1,0,0:0:0:0:
289,227,77692,1,2,0:0:0:0:
147,110,77926,1,0,0:0:0:0:
147,110,78044,2,0,L|138:235,1,115,2|0,0:0|0:0,0:0:0:0:
256,131,78395,2,0,L|247:16,1,115,2|0,0:0|0:0,0:0:0:0:
33,170,78864,5,0,0:0:0:0:
256,192,78981,12,0,80739,0:0:0:0:
256,192,80856,12,0,82379,0:0:0:0:
50,67,82613,6,0,P|162:46|226:152,1,215.625,4|8,3:1|0:0,0:0:0:0:
224,220,83082,2,0,P|155:196|121:135,1,143.75,0|8,0:0|0:0,0:0:0:0:
379,119,83551,1,2,0:0:0:0:
379,119,83668,2,0,L|368:266,1,143.75,8|8,0:0|0:0,0:0:0:0:
472,227,84019,1,2,0:0:0:0:
322,36,84254,1,10,0:0:0:0:
179,249,84488,6,0,B|256:281|314:223|314:223|335:253|372:263,1,215.625,0|8,3:0|0:0,0:0:0:0:
402,163,84957,1,0,0:0:0:0:
307,358,85191,1,8,0:0:0:0:
234,164,85425,1,2,0:0:0:0:
234,164,85542,1,8,0:0:0:0:
482,238,85777,1,8,0:0:0:0:
482,238,85894,1,2,0:0:0:0:
167,272,86128,1,8,0:0:0:0:
237,27,86363,6,0,P|332:23|390:125,1,215.625,0|8,3:0|0:0,0:0:0:0:
376,210,86831,2,0,B|322:204|292:159|297:113|297:113|263:139|207:127,1,215.625
138,73,87300,1,2,0:0:0:0:
138,73,87417,1,8,0:0:0:0:
226,238,87651,1,8,0:0:0:0:
226,238,87769,1,2,0:0:0:0:
228,15,88003,1,10,0:0:0:0:
121,178,88237,6,0,L|142:331,1,143.75,0|0,3:0|0:0,0:0:0:0:
218,366,88589,1,8,0:0:0:0:
218,366,88706,1,0,0:0:0:0:
28,235,88940,1,8,0:0:0:0:
287,220,89175,1,2,0:0:0:0:
287,220,89292,1,8,0:0:0:0:
157,227,89526,1,8,0:0:0:0:
157,227,89643,1,2,0:0:0:0:
28,235,89878,1,8,0:0:0:0:
332,328,90112,6,0,P|402:245|356:128,1,215.625,4|8,3:1|0:0,0:0:0:0:
419,59,90581,2,0,P|327:64|288:108,1,143.75,0|8,0:0|0:0,0:0:0:0:
82,291,91049,1,2,0:0:0:0:
82,291,91167,2,0,B|130:345|130:345|204:337,1,143.75,8|8,0:0|0:0,0:0:0:0:
249,200,91518,2,0,B|201:146|201:146|127:154,1,143.75,2|10,0:0|0:0,0:0:0:0:
378,327,91987,6,0,B|417:220|338:220|378:114,1,215.625,0|8,3:0|0:0,0:0:0:0:
483,170,92455,1,0,0:0:0:0:
274,272,92690,1,8,0:0:0:0:
333,28,92924,1,2,0:0:0:0:
333,28,93041,2,0,P|427:32|464:69,1,143.75,8|8,0:0|0:0,0:0:0:0:
421,206,93393,2,0,P|327:202|290:165,1,143.75,2|8,0:0|0:0,0:0:0:0:
21,138,93862,6,0,P|78:79|88:177,1,215.625,0|8,3:0|0:0,0:0:0:0:
139,260,94330,2,0,P|149:348|218:292,1,215.625
216,192,94799,1,2,0:0:0:0:
216,192,94916,1,8,0:0:0:0:
311,356,95150,1,8,0:0:0:0:
311,356,95268,1,2,0:0:0:0:
74,192,95502,1,10,0:0:0:0:
337,111,95736,6,0,L|321:253,1,143.75,0|0,3:0|0:0,0:0:0:0:
227,297,96088,1,8,0:0:0:0:
227,297,96205,1,0,0:0:0:0:
440,197,96439,1,8,0:0:0:0:
288,55,96674,1,2,0:0:0:0:
288,55,96791,1,8,0:0:0:0:
314,181,97025,1,8,0:0:0:0:
314,181,97142,1,2,0:0:0:0:
340,307,97377,1,8,0:0:0:0:
505,96,97611,6,0,P|436:77|368:120,1,143.75,4|0,3:1|0:0,0:0:0:0:
448,171,97962,2,0,L|428:334,1,143.75,8|0,0:0|0:0,0:0:0:0:
335,366,98314,1,8,0:0:0:0:
192,157,98548,1,2,0:0:0:0:
192,157,98665,2,0,B|259:133|259:133|318:185,1,143.75,8|8,0:0|0:0,0:0:0:0:
235,249,99017,1,2,0:0:0:0:
193,58,99251,1,10,0:0:0:0:
421,126,99486,6,0,L|402:289,1,143.75,0|0,3:0|0:0,0:0:0:0:
475,336,99837,1,8,0:0:0:0:
475,336,99954,1,0,0:0:0:0:
319,145,100189,1,8,0:0:0:0:
204,333,100423,1,2,0:0:0:0:
204,333,100540,2,0,P|281:303|314:243,1,143.75,8|8,0:0|0:0,0:0:0:0:
205,222,100892,2,0,P|128:252|95:312,1,143.75,2|8,0:0|0:0,0:0:0:0:
0,74,101360,6,0,P|92:142|205:115,1,215.625,0|8,3:0|0:0,0:0:0:0:
267,63,101829,1,0,0:0:0:0:
114,228,102063,1,8,0:0:0:0:
356,142,102298,1,2,0:0:0:0:
356,142,102415,2,0,P|388:63|372:6,1,143.75,8|8,0:0|0:0,0:0:0:0:
267,63,102766,1,2,0:0:0:0:
306,235,103001,1,10,0:0:0:0:
478,48,103235,5,0,3:0:0:0:
220,158,103469,1,0,0:0:0:0:
220,158,103587,1,8,0:0:0:0:
220,158,103704,1,0,0:0:0:0:
467,238,103938,1,8,0:0:0:0:
375,324,104172,1,2,0:0:0:0:
375,324,104290,1,8,0:0:0:0:
341,198,104524,1,8,0:0:0:0:
341,198,104641,1,2,0:0:0:0:
308,73,104875,1,10,0:0:0:0:
251,296,105110,5,4,2:1:0:0:
76,90,118936,5,0,0:0:0:0:
274,152,119170,1,2,0:0:0:0:
173,176,119522,5,2,0:0:0:0:
72,201,119873,5,2,0:0:0:0:
281,241,120108,2,0,L|315:111,1,129.375004935265,0|0,3:0|0:0,0:0:0:0:
342,29,120576,1,2,0:0:0:0:
401,195,120811,1,0,0:0:0:0:
198,173,121045,2,0,P|163:119|147:46,1,129.375004935265,2|0,0:0|0:0,0:0:0:0:
232,15,121514,1,2,0:0:0:0:
80,160,121748,1,0,0:0:0:0:
285,120,121982,6,0,L|437:140,1,129.375004935265,0|0,3:0|0:0,0:0:0:0:
499,99,122451,1,2,0:0:0:0:
326,225,122685,1,0,0:0:0:0:
421,324,122920,1,2,0:0:0:0:
421,324,123037,2,0,B|445:288|445:288|435:239,1,86.2500032901765
326,225,123388,2,0,B|302:261|302:261|312:310,1,86.2500032901765,2|0,0:0|0:0,0:0:0:0:
400,101,123857,6,0,P|305:82|253:109,1,129.375004935265,0|0,3:0|0:0,0:0:0:0:
212,162,124326,2,0,P|156:171|114:161,1,86.2500032901765,2|0,0:0|0:0,0:0:0:0:
166,38,124794,1,2,0:0:0:0:
166,38,124912,1,0,0:0:0:0:
309,184,125146,1,0,0:0:0:0:
309,184,125263,1,2,0:0:0:0:
109,179,125497,1,2,0:0:0:0:
373,80,125732,1,4,3:1:0:0:
256,192,125849,12,0,127372,0:0:0:0:
376,60,127606,6,0,P|420:141|370:248,1,215.625,4|8,3:1|0:0,0:0:0:0:
268,293,128075,2,0,P|257:230|292:162,1,143.75,0|8,0:0|0:0,0:0:0:0:
463,305,128544,1,2,0:0:0:0:
463,305,128661,1,8,0:0:0:0:
175,235,128895,1,8,0:0:0:0:
175,235,129013,1,2,0:0:0:0:
410,172,129247,1,10,0:0:0:0:
250,329,129481,6,0,B|204:335|168:357|168:357|128:307|45:297,1,215.625,0|8,3:0|0:0,0:0:0:0:
0,205,129950,2,0,P|80:195|135:156,1,143.75,0|8,0:0|0:0,0:0:0:0:
238,18,130419,1,2,0:0:0:0:
238,18,130536,1,8,0:0:0:0:
43,124,130770,1,8,0:0:0:0:
43,124,130887,1,2,0:0:0:0:
333,126,131122,1,8,0:0:0:0:
140,76,131356,6,0,B|88:178|191:178|140:280,1,215.625,0|8,3:0|0:0,0:0:0:0:
40,180,131825,2,0,B|142:128|142:231|244:180,1,215.625
322,104,132293,1,2,0:0:0:0:
322,104,132410,1,8,0:0:0:0:
59,266,132645,1,8,0:0:0:0:
59,266,132762,1,2,0:0:0:0:
259,272,132996,1,10,0:0:0:0:
181,24,133231,6,0,L|163:242,1,215.625,0|8,3:0|0:0,0:0:0:0:
154,348,133699,1,0,0:0:0:0:
54,136,133934,1,8,0:0:0:0:
363,205,134168,1,2,0:0:0:0:
363,205,134285,1,8,0:0:0:0:
192,252,134519,1,8,0:0:0:0:
192,252,134637,1,2,0:0:0:0:
236,88,134871,1,10,0:0:0:0:
453,133,135105,6,0,P|475:233|392:317,1,215.625,4|8,3:1|0:0,0:0:0:0:
364,205,135574,2,0,P|340:126|359:68,1,143.75,0|8,0:0|0:0,0:0:0:0:
512,253,136043,1,2,0:0:0:0:
512,253,136160,1,8,0:0:0:0:
248,202,136394,1,8,0:0:0:0:
248,202,136511,1,2,0:0:0:0:
479,108,136746,1,10,0:0:0:0:
312,307,136980,6,0,B|230:328|230:328|108:247,1,215.625,0|8,3:0|0:0,0:0:0:0:
43,185,137449,1,0,0:0:0:0:
275,188,137683,1,8,0:0:0:0:
66,347,137917,1,2,0:0:0:0:
66,347,138035,1,8,0:0:0:0:
196,76,138269,1,8,0:0:0:0:
196,76,138386,1,2,0:0:0:0:
367,233,138620,1,8,0:0:0:0:
94,268,138855,6,0,P|38:192|80:73,1,215.625,0|8,3:0|0:0,0:0:0:0:
189,134,139323,2,0,P|119:174|202:178,1,215.625
274,97,139792,1,2,0:0:0:0:
274,97,139909,1,8,0:0:0:0:
168,300,140144,1,8,0:0:0:0:
168,300,140261,1,2,0:0:0:0:
396,198,140495,1,10,0:0:0:0:
147,13,140730,6,0,L|139:165,1,143.75,0|0,3:0|0:0,0:0:0:0:
229,213,141081,1,8,0:0:0:0:
229,213,141198,1,0,0:0:0:0:
38,73,141433,1,8,0:0:0:0:
302,152,141667,1,2,0:0:0:0:
302,152,141784,1,8,0:0:0:0:
168,284,142018,1,8,0:0:0:0:
168,284,142136,1,2,0:0:0:0:
133,116,142370,1,10,0:0:0:0:
368,99,142629,6,0,P|377:197|343:229,1,143.75,4|0,3:1|0:0,0:0:0:0:
235,206,142981,2,0,P|226:108|260:76,1,143.75,8|0,0:0|0:0,0:0:0:0:
302,152,143332,1,8,0:0:0:0:
112,222,143567,1,2,0:0:0:0:
112,222,143684,1,8,0:0:0:0:
156,27,143918,1,8,0:0:0:0:
156,27,144035,1,2,0:0:0:0:
239,279,144270,1,10,0:0:0:0:
61,127,144504,6,0,P|141:122|192:159,1,143.75,0|0,3:0|0:0,0:0:0:0:
112,222,144855,1,8,0:0:0:0:
112,222,144973,1,0,0:0:0:0:
274,54,145207,1,8,0:0:0:0:
221,315,145441,1,2,0:0:0:0:
221,315,145558,1,8,0:0:0:0:
393,148,145793,1,8,0:0:0:0:
393,148,145910,1,2,0:0:0:0:
148,88,146144,1,8,0:0:0:0:
465,236,146379,6,0,P|505:128|449:50,1,215.625,0|8,3:0|0:0,0:0:0:0:
393,148,146847,2,0,P|353:216|362:281,1,143.75,0|8,0:0|0:0,0:0:0:0:
481,38,147316,1,2,0:0:0:0:
481,38,147433,1,8,0:0:0:0:
236,168,147667,1,8,0:0:0:0:
236,168,147785,1,2,0:0:0:0:
483,196,148019,1,10,0:0:0:0:
291,39,148253,6,0,L|133:54,1,143.75,0|0,3:0|0:0,0:0:0:0:
54,66,148605,1,8,0:0:0:0:
54,66,148722,1,0,0:0:0:0:
224,251,148956,1,8,0:0:0:0:
221,86,149191,1,2,0:0:0:0:
221,86,149308,1,8,0:0:0:0:
114,183,149542,1,8,0:0:0:0:
114,183,149659,1,2,0:0:0:0:
8,280,149894,1,10,0:0:0:0:
255,285,150128,6,0,B|270:215|270:215|225:153,1,143.75,4|0,3:1|0:0,0:0:0:0:
114,183,150479,2,0,B|99:253|99:253|144:315,1,143.75,8|0,0:0|0:0,0:0:0:0:
186,233,150831,1,8,0:0:0:0:
20,126,151065,1,2,0:0:0:0:
20,126,151182,1,8,0:0:0:0:
319,159,151417,1,8,0:0:0:0:
319,159,151534,1,2,0:0:0:0:
87,252,151768,1,10,0:0:0:0:
276,48,152003,6,0,P|393:68|434:150,1,215.625,0|8,3:0|0:0,0:0:0:0:
339,293,152471,2,0,P|308:218|323:149,1,143.75,0|8,0:0|0:0,0:0:0:0:
482,287,152940,1,2,0:0:0:0:
482,287,153057,1,8,0:0:0:0:
214,167,153291,1,8,0:0:0:0:
214,167,153409,1,2,0:0:0:0:
485,137,153643,1,8,0:0:0:0:
254,316,153877,6,0,L|91:299,1,143.75,0|0,3:0|0:0,0:0:0:0:
17,296,154229,1,8,0:0:0:0:
17,296,154346,1,0,0:0:0:0:
247,153,154580,1,8,0:0:0:0:
91,163,154815,1,2,0:0:0:0:
91,163,154932,1,8,0:0:0:0:
306,301,155166,1,8,0:0:0:0:
306,301,155283,1,2,0:0:0:0:
304,34,155518,1,10,0:0:0:0:
141,315,155752,5,0,3:0:0:0:
361,209,155986,1,0,0:0:0:0:
361,209,156103,1,8,0:0:0:0:
361,209,156221,1,0,0:0:0:0:
143,165,156455,1,8,0:0:0:0:
465,146,156689,1,2,0:0:0:0:
465,146,156806,1,8,0:0:0:0:
355,333,157041,1,8,0:0:0:0:
355,333,157158,1,2,0:0:0:0:
249,150,157392,1,10,0:0:0:0:
497,289,157627,5,4,0:0:0:0:
