osu file format v14

[General]
AudioFilename: audio.mp3
AudioLeadIn: 0
PreviewTime: -1
Countdown: 1
SampleSet: None
StackLeniency: 0.7
Mode: 0
LetterboxInBreaks: 0
WidescreenStoryboard: 0

[Editor]
DistanceSpacing: 1
BeatDivisor: 8
GridSize: 4
TimelineZoom: 2.2

[Metadata]
Title:Shiawaseni nareru kakushi komando ga aru rashii
TitleUnicode:幸せになれる隠しコマンドがあるらしい (SDVX. VER)
Artist:Yuzuki Yukari
ArtistUnicode:結月ゆかり
Creator:Gyro Zeppeli
Version:Shita
Source:
Tags:結月ゆかり Yuzuki Yukari 幸せになれる隠しコマンドがあるらしい Shiawaseninarerukakushikomandogaarurashii うたたP ボカロ ボーカロイド Vocaloid Sound Voltex
BeatmapID:1441532
BeatmapSetID:681756

[Difficulty]
HPDrainRate:7
CircleSize:3.8
OverallDifficulty:8.5
ApproachRate:9.5
SliderMultiplier:1.5
SliderTickRate:1

[Events]
//Background and Video events
0,0,"僗僋儕乕儞僔儑僢僩 2017-04-23 13.26.10.png",0,0
//Break Periods
//Storyboard Layer 0 (Background)
//Storyboard Layer 1 (Fail)
//Storyboard Layer 2 (Pass)
//Storyboard Layer 3 (Foreground)
//Storyboard Sound Samples

[TimingPoints]
601,422.535211267606,4,2,0,50,1,0
14122,-83.3333333333333,4,2,0,50,0,0

[HitObjects]
128,60,601,6,0,L|128:156,1,75
88,240,1023,1,0,0:0:0:0:
268,328,1235,1,0,0:0:0:0:
224,328,1341,1,0,0:0:0:0:
184,304,1446,2,0,B|184:264|184:264|212:236,1,75
336,248,1868,1,0,0:0:0:0:
448,164,2080,1,0,0:0:0:0:
426,124,2186,1,0,0:0:0:0:
383,103,2291,6,0,B|346:105|346:105|316:132,1,75
208,148,2714,1,0,0:0:0:0:
40,232,2925,2,0,L|80:232,1,37.5
128,256,3136,2,0,B|112:216|112:216|120:180,1,75
88,76,3559,1,0,0:0:0:0:
196,40,3770,1,0,0:0:0:0:
236,56,3876,1,0,0:0:0:0:
280,48,3981,6,0,B|320:44|320:44|352:60,1,75
432,140,4404,1,0,0:0:0:0:
348,212,4615,1,0,0:0:0:0:
360,256,4721,1,0,0:0:0:0:
396,284,4826,2,0,B|416:320|416:320|416:360,1,75
304,336,5249,1,0,0:0:0:0:
84,336,5460,2,0,L|124:344,1,37.5
176,356,5672,6,0,B|164:320|164:320|164:280,1,75
216,160,6094,1,0,0:0:0:0:
272,256,6305,1,0,0:0:0:0:
316,264,6411,1,0,0:0:0:0:
356,240,6517,2,0,B|380:212|380:212|384:168,1,75
452,40,6939,1,0,0:0:0:0:
228,44,7150,2,0,L|264:56,1,37.5
328,96,7361,6,0,B|308:112|308:112|288:152,1,56.25
108,168,7784,2,0,B|128:172|128:172|152:188,1,37.5
324,312,8206,2,0,B|304:308|304:308|280:292,1,37.5
64,324,8629,2,0,B|84:308|84:308|104:268,1,56.25
100,92,9051,6,0,B|117:111|117:111|158:129,1,56.25
183,307,9474,2,0,B|185:286|185:286|200:262,1,37.5
315,84,9896,2,0,B|312:104|312:104|297:128,1,37.5
341,343,10319,2,0,B|323:323|323:323|282:305,1,56.25
176,168,10741,6,0,B|168:152|168:152|168:128,1,37.5
208,52,10953,1,0,0:0:0:0:
272,216,11164,2,0,B|264:200|264:200|264:176,1,37.5
304,100,11376,1,0,0:0:0:0:
380,228,11586,2,0,B|388:244|388:244|388:268,1,37.5
348,344,11798,1,0,0:0:0:0:
472,204,12009,2,0,B|480:220|480:220|480:244,1,37.5
440,320,12221,1,0,0:0:0:0:
276,292,12379,5,0,0:0:0:0:
260,308,12431,2,0,B|240:320|240:320|208:320,1,56.25
52,212,12854,2,0,B|76:196|76:196|108:192,1,56.25
223,288,13224,1,0,0:0:0:0:
201,294,13276,2,0,B|178:294|178:294|150:278,1,56.25
69,107,13699,2,0,B|98:105|98:105|127:117,1,56.25
216,180,14122,6,0,B|244:200|244:200|280:208,1,67.4999979400635
404,92,14544,2,0,B|384:80|384:80|356:80,1,44.999998626709
284,120,14755,1,0,0:0:0:0:
468,184,14967,2,0,B|448:172|448:172|420:172,1,44.999998626709
356,216,15178,1,0,0:0:0:0:
432,320,15389,2,0,B|400:336|400:336|360:340,1,67.4999979400635
260,312,15812,6,0,B|246:280|246:280|219:255,1,67.4999979400635
53,290,16234,2,0,B|63:310|63:310|87:325,1,44.999998626709
170,328,16445,1,0,0:0:0:0:
46,178,16657,2,0,B|56:198|56:198|80:213,1,44.999998626709
158,209,16868,1,0,0:0:0:0:
146,80,17079,2,0,B|181:82|181:82|218:99,1,67.4999979400635
464,132,17502,6,0,B|440:144|440:144|416:144,1,44.999998626709
320,116,17713,1,0,0:0:0:0:
460,224,17924,2,0,B|434:231|434:231|410:226,1,44.999998626709
272,180,18135,1,0,0:0:0:0:
400,320,18347,2,0,B|373:315|373:315|354:301,1,44.999998626709
200,228,18558,1,0,0:0:0:0:
288,352,18770,2,0,B|267:334|267:334|257:313,1,44.999998626709
136,200,18981,1,0,0:0:0:0:
