osu file format v14

[General]
AudioFilename: audio.mp3
AudioLeadIn: 0
PreviewTime: 67861
Countdown: 0
SampleSet: Soft
StackLeniency: 0.5
Mode: 0
LetterboxInBreaks: 0
WidescreenStoryboard: 1

[Editor]
DistanceSpacing: 1.2
BeatDivisor: 4
GridSize: 16
TimelineZoom: 1

[Metadata]
Title:Egaiteta Yume
TitleUnicode:描いてた夢
Artist:Yuzuki Tina
ArtistUnicode:柚木ちな
Creator:Hishiro Chizuru
Version:Kururu's Hard
Source:同棲ラブラブル
Tags:amb1d3x Dousei Lover Able sequel ラブラブル〜lover able〜 kururu eroge visual novel japanese pop
BeatmapID:3594351
BeatmapSetID:1756422

[Difficulty]
HPDrainRate:5
CircleSize:4
OverallDifficulty:6
ApproachRate:7
SliderMultiplier:1.6
SliderTickRate:1

[Events]
//Background and Video events
0,0,"holyshit4by3.jpg",0,0
//Break Periods
2,180874,193107
//Storyboard Layer 0 (Background)
//Storyboard Layer 1 (Fail)
//Storyboard Layer 2 (Pass)
//Storyboard Layer 3 (Foreground)
//Storyboard Layer 4 (Overlay)
//Storyboard Sound Samples

[TimingPoints]
674,416.666666666667,4,2,0,60,1,0
674,-133.333333333333,4,2,0,60,0,0
2341,-133.333333333333,4,2,1,55,0,0
15257,-133.333333333333,4,2,1,70,0,0
15674,-100,4,2,1,80,0,0
29216,-100,4,2,1,60,0,0
29424,-133.333333333333,4,2,1,60,0,0
55674,-133.333333333333,4,2,1,70,0,0
62341,-133.333333333333,4,2,1,75,0,0
67966,-133.333333333333,4,2,1,60,0,0
69007,-100,4,2,1,80,0,1
99007,-100,4,2,1,80,0,0
112340,-133.333333333333,4,2,1,80,0,0
112549,-133.333333333333,4,2,1,65,0,0
139424,-133.333333333333,4,2,1,70,0,0
145674,-133.333333333333,4,2,1,75,0,0
151299,-133.333333333333,4,2,1,60,0,0
152340,-100,4,2,1,80,0,1
180674,-100,4,2,1,80,0,0
180882,-100,4,2,1,70,0,0
192966,-100,4,2,1,60,0,0
193591,-100,4,2,1,70,0,0
194007,-133.333333333333,4,2,1,60,0,0
204007,-133.333333333333,4,2,1,70,0,0
206299,-133.333333333333,4,2,1,80,0,0
207340,-100,4,2,1,80,0,1
224007,-100,4,2,1,80,0,0
242340,-100,4,2,1,80,0,0
243174,-100,4,2,1,5,0,0

[Colours]
Combo1 : 170,213,255
Combo2 : 255,187,255
Combo3 : 187,187,255
Combo4 : 252,194,203
Combo5 : 255,255,168

[HitObjects]
343,326,1299,6,0,P|355:295|354:256,2,60.0000022888184,0|0|0,0:2|0:2|0:2,0:0:0:0:
268,286,1924,2,0,P|269:256|281:228,1,60.0000022888184,0|0,0:2|0:2,0:0:0:0:
356,192,2340,2,0,P|390:162|330:47,1,180.000006866455,2|0,0:2|0:2,0:0:0:0:
196,118,3382,2,0,P|156:114|120:95,1,60.0000022888184,2|0,0:2|0:2,0:0:0:0:
78,47,3799,2,0,P|95:87|71:177,1,120.000004577637,2|0,0:2|0:2,0:0:0:0:
16,212,4424,1,0,0:0:0:0:
16,212,4632,6,0,L|89:229,1,60.0000022888184,2|0,0:2|0:2,0:0:0:0:
153,255,5049,2,0,L|165:328,1,60.0000022888184,0|0,0:2|0:2,0:0:0:0:
96,365,5465,1,0,0:2:0:0:
96,365,5674,2,0,P|136:321|252:336,1,180.000006866455,2|0,0:2|0:2,0:0:0:0:
415,334,6715,2,0,P|428:291|423:262,1,60.0000022888184,2|0,0:2|0:2,0:0:0:0:
354,234,7132,2,0,B|304:222|274:245|228:238,1,120.000004577637,2|0,0:2|0:2,0:0:0:0:
152,220,7757,1,0,0:2:0:0:
152,220,7965,2,0,P|133:258|219:366,1,180.000006866455,2|0,0:2|0:0,0:0:0:0:
274,213,9007,6,0,L|290:72,1,120.000004577637,4|0,0:2|1:2,0:0:0:0:
355,42,9632,1,0,0:2:0:0:
355,42,9840,2,0,P|375:82|351:153,1,120.000004577637,2|0,0:2|1:2,0:0:0:0:
287,93,10465,2,0,P|272:135|319:219,1,120.000004577637,2|0,0:2|0:0,0:0:0:0:
374,237,11090,1,0,1:2:0:0:
374,237,11299,2,0,L|457:248,1,60.0000022888184,0|2,0:2|0:2,0:0:0:0:
449,327,11715,2,0,L|364:339,1,60.0000022888184,0|0,0:2|1:2,0:0:0:0:
305,339,12132,1,0,0:2:0:0:
305,339,12340,6,0,B|250:323|228:353|164:335,2,120.000004577637,2|0|0,0:2|1:2|0:2,0:0:0:0:
370,286,13382,1,2,0:2:0:0:
400,207,13590,1,0,1:2:0:0:
336,151,13799,1,2,0:2:0:0:
256,192,14007,12,8,15465,0:2:0:0:
255,233,15674,6,0,P|207:243|92:193,1,160,4|8,1:2|0:2,0:0:0:0:
91,119,16299,2,0,P|87:169|71:199,1,80,0|0,1:2|1:2,0:0:0:0:
12,257,16715,1,2,0:2:0:0:
60,330,16924,2,0,L|147:321,1,80,8|0,0:2|0:2,0:0:0:0:
186,247,17340,6,0,P|240:264|248:359,1,160,2|8,1:2|0:2,0:0:0:0:
292,269,18174,2,0,P|338:252|376:255,1,80,2|0,1:2|0:2,0:0:0:0:
456,251,18590,2,0,P|477:211|469:167,1,80,10|0,0:2|0:2,0:0:0:0:
415,111,19007,6,0,P|370:137|369:241,1,160,2|8,1:2|0:2,0:0:0:0:
280,320,19632,2,0,P|296:297|271:247,1,80,2|0,0:2|0:0,0:0:0:0:
196,224,20049,1,2,0:2:0:0:
196,224,20257,2,0,P|160:182|151:147,1,80,8|2,0:2|0:2,0:0:0:0:
210,92,20674,2,0,P|249:125|277:240,2,160,2|8|0,1:2|0:2|1:2,0:0:0:0:
122,89,21715,1,0,1:2:0:0:
55,147,21924,2,0,P|41:191|48:231,1,80,10|0,0:2|0:2,0:0:0:0:
122,257,22340,6,0,P|201:248|290:221,1,160,4|8,1:2|0:2,0:0:0:0:
349,173,22965,2,0,P|405:179|446:191,1,80,0|0,1:2|1:2,0:0:0:0:
474,111,23382,1,2,1:2:0:0:
474,111,23590,2,0,P|418:105|377:93,1,80,8|0,0:2|1:2,0:0:0:0:
320,51,24007,6,0,P|271:75|276:172,1,160,0|8,1:2|0:2,0:0:0:0:
345,220,24632,1,0,0:0:0:0:
311,301,24840,2,0,P|273:325|230:332,1,80,0|0,1:2|0:2,0:0:0:0:
152,313,25257,2,0,P|114:289|71:282,1,80,10|0,0:2|0:0,0:0:0:0:
42,202,25674,6,0,P|116:210|147:121,1,160,4|8,1:2|0:2,0:0:0:0:
30,45,26507,2,0,P|34:81|93:82,1,80,0|0,1:2|1:2,0:0:0:0:
155,67,26924,2,0,P|194:54|241:50,1,80,8|0,0:2|0:2,0:0:0:0:
307,109,27340,2,0,P|350:113|384:16,1,160,2|10,1:2|0:2,0:0:0:0:
226,94,28174,2,0,P|218:136|218:182,1,80,2|0,1:2|0:0,0:0:0:0:
275,239,28590,2,0,P|274:278|266:318,1,80,10|0,0:2|0:0,0:0:0:0:
186,356,29007,6,0,P|125:357|96:264,1,160,4|8,1:2|0:2,0:0:0:0:
159,161,29840,2,0,P|163:120|165:85,1,60.0000022888184,0|2,0:2|1:2,0:0:0:0:
89,77,30257,2,0,P|91:44|97:15,1,60.0000022888184,8|0,0:2|1:2,0:0:0:0:
174,8,30674,2,0,P|218:22|315:21,1,120.000004577637,2|8,1:2|0:2,0:0:0:0:
441,66,31507,2,0,P|461:27|463:2,2,60.0000022888184,0|2|8,0:2|1:2|0:2,0:0:0:0:
364,80,32132,1,0,1:2:0:0:
364,80,32236,1,0,1:2:0:0:
364,80,32340,6,0,P|306:99|251:160,1,120.000004577637,2|8,1:2|0:2,0:0:0:0:
216,200,32965,2,0,P|173:198|77:167,1,120.000004577637,2|0,0:2|1:2,0:0:0:0:
34,133,33590,1,8,0:2:0:0:
67,285,34007,2,0,P|116:298|187:361,1,120.000004577637,2|8,1:2|0:2,0:0:0:0:
248,332,34632,2,0,P|235:296|235:252,1,60.0000022888184,2|0,0:2|1:2,0:0:0:0:
293,224,35049,1,2,1:2:0:0:
293,224,35257,2,0,P|337:225|368:236,1,60.0000022888184,8|0,0:2|1:2,0:0:0:0:
420,266,35674,6,0,L|439:135,1,120.000004577637,2|8,1:2|0:2,0:0:0:0:
389,85,36299,1,2,0:2:0:0:
389,85,36507,2,0,P|367:116|361:156,1,60.0000022888184,0|2,0:2|1:2,0:0:0:0:
292,174,36924,2,0,P|290:137|272:109,1,60.0000022888184,8|0,0:2|1:2,0:0:0:0:
215,161,37340,6,0,P|206:218|244:261,1,120.000004577637,2|8,1:2|0:2,0:0:0:0:
321,278,37965,1,2,0:2:0:0:
321,278,38382,2,0,P|386:253|459:237,1,120.000004577637,2|0,1:2|1:2,0:0:0:0:
464,168,39007,6,0,P|421:160|327:125,1,120.000004577637,2|8,1:2|0:2,0:0:0:0:
280,97,39632,1,0,0:2:0:0:
280,97,39840,2,0,P|222:103|144:133,1,120.000004577637,0|8,0:2|0:2,0:0:0:0:
92,155,40465,1,0,0:2:0:0:
92,155,40569,1,0,0:0:0:0:
91,154,40674,2,0,P|43:124|45:67,1,120.000004577637,2|8,1:2|0:2,0:0:0:0:
123,41,41299,1,0,0:2:0:0:
123,41,41403,1,0,0:2:0:0:
123,41,41508,2,0,P|171:71|169:128,1,120.000004577637,2|8,0:2|0:2,0:0:0:0:
128,195,42132,1,0,1:2:0:0:
143,271,42340,6,0,P|202:271|277:244,1,120.000004577637,4|8,1:2|0:2,0:0:0:0:
412,217,43174,2,0,P|416:260|406:293,1,60.0000022888184,0|2,0:2|1:2,0:0:0:0:
334,285,43591,2,0,P|333:318|342:347,1,60.0000022888184,8|0,0:2|0:2,0:0:0:0:
415,364,44008,2,0,P|371:357|274:351,1,120.000004577637,2|8,1:2|0:2,0:0:0:0:
141,371,44841,2,0,L|72:363,2,60.0000022888184,0|2|8,0:2|1:2|0:2,0:0:0:0:
208,328,45466,1,0,0:2:0:0:
208,328,45570,1,0,0:0:0:0:
208,328,45674,6,0,P|220:271|174:218,1,120.000004577637,2|8,1:2|0:2,0:0:0:0:
109,208,46299,2,0,P|106:165|121:88,1,120.000004577637,2|0,0:2|1:2,0:0:0:0:
191,58,46924,1,8,0:2:0:0:
296,172,47341,2,0,P|356:170|431:133,1,120.000004577637,2|10,1:2|0:2,0:0:0:0:
459,86,47966,2,0,P|455:56|443:28,1,60.0000022888184,2|0,0:2|0:0,0:0:0:0:
371,14,48383,1,2,1:2:0:0:
371,14,48591,2,0,P|327:15|296:26,1,60.0000022888184,8|0,0:2|1:2,0:0:0:0:
270,85,49008,6,0,P|200:83|139:66,1,120.000004577637,2|8,1:2|0:2,0:0:0:0:
84,41,49633,1,2,0:2:0:0:
84,41,49841,2,0,L|8:78,1,60.0000022888184,0|2,0:2|1:2,0:0:0:0:
18,144,50257,2,0,L|94:181,1,60.0000022888184,8|0,0:2|1:2,0:0:0:0:
146,146,50674,6,0,P|187:133|264:175,1,120.000004577637,2|8,1:2|0:2,0:0:0:0:
267,239,51299,1,2,0:2:0:0:
132,323,51716,2,0,L|-6:282,1,120.000004577637,2|0,1:2|1:2,0:0:0:0:
32,212,52341,6,0,P|81:211|152:256,1,120.000004577637,2|8,1:2|0:2,0:0:0:0:
191,305,52966,1,0,0:2:0:0:
268,295,53174,2,0,P|287:238|293:178,1,120.000004577637,2|8,0:2|0:2,0:0:0:0:
240,126,53799,1,0,1:2:0:0:
240,126,53903,1,0,1:2:0:0:
240,126,54008,2,0,P|183:110|123:103,1,120.000004577637,2|0,1:2|0:0,0:0:0:0:
141,198,54633,1,0,0:2:0:0:
141,198,54737,1,0,0:2:0:0:
141,198,54840,2,0,P|81:191|23:174,1,120.000004577637,0|8,0:2|0:2,0:0:0:0:
42,92,55466,1,8,0:2:0:0:
116,50,55674,6,0,P|173:51|246:65,2,120.000004577637,4|8|0,1:2|0:2|0:2,0:0:0:0:
83,120,56715,2,0,P|49:126|10:130,2,60.0000022888184,0|8|0,1:2|0:2|0:2,0:0:0:0:
134,184,57340,2,0,P|180:177|255:195,1,120.000004577637,2|10,1:2|0:2,0:0:0:0:
321,236,57965,1,0,0:2:0:0:
321,236,58174,2,0,P|353:197|348:117,1,120.000004577637,2|8,0:2|0:2,0:0:0:0:
308,54,58799,1,0,0:2:0:0:
308,54,59007,6,0,P|276:93|281:173,1,120.000004577637,2|8,1:2|0:2,0:0:0:0:
337,218,59632,2,0,P|337:267|314:344,1,120.000004577637,2|0,0:2|1:2,0:0:0:0:
241,354,60257,2,0,L|175:341,1,60.0000022888184,10|0,0:2|0:2,0:0:0:0:
117,277,60674,2,0,B|153:260|192:278|246:259,1,120.000004577637,2|8,1:2|0:2,0:0:0:0:
308,209,61299,1,2,0:2:0:0:
286,129,61507,1,2,0:2:0:0:
168,191,61924,2,0,P|127:183|95:170,1,60.0000022888184,8|8,0:2|0:2,0:0:0:0:
77,96,62340,6,0,P|132:93|207:138,1,120.000004577637,4|8,1:2|0:2,0:0:0:0:
251,176,62965,1,0,0:2:0:0:
251,176,63174,2,0,P|254:219|248:246,1,60.0000022888184,0|0,0:2|1:2,0:0:0:0:
187,292,63590,2,0,P|149:283|111:265,1,60.0000022888184,10|0,0:2|1:2,0:0:0:0:
68,212,64007,6,0,P|31:230|35:309,1,120.000004577637,4|8,1:2|0:2,0:0:0:0:
106,340,64632,1,2,0:2:0:0:
106,340,64840,2,0,P|139:338|177:329,1,60.0000022888184,0|0,0:0|1:2,0:0:0:0:
225,267,65257,2,0,P|254:272|289:289,1,60.0000022888184,10|0,0:2|0:2,0:0:0:0:
361,340,65674,6,0,P|379:296|377:211,1,120.000004577637,4|8,1:2|0:2,0:0:0:0:
305,177,66299,1,2,0:2:0:0:
220,196,66507,2,0,P|182:193|158:180,1,60.0000022888184,0|0,0:0|1:2,0:0:0:0:
101,134,66924,2,0,P|65:128|36:132,1,60.0000022888184,8|8,0:2|1:2,0:0:0:0:
15,220,67340,1,4,1:2:0:0:
271,311,67965,5,0,0:2:0:0:
271,311,68174,2,0,L|284:243,2,60.0000022888184,0|0|8,0:2|1:2|0:2,0:0:0:0:
187,330,68799,1,8,0:2:0:0:
187,330,68903,1,0,0:0:0:0:
187,330,69007,6,0,P|153:288|192:197,1,160,4|8,1:2|0:2,0:0:0:0:
272,169,69632,2,0,P|283:129|284:89,1,80,2|0,1:2|1:2,0:0:0:0:
207,19,70049,2,0,P|199:62|201:100,1,80,2|8,1:2|0:2,0:0:0:0:
133,162,70465,1,2,1:2:0:0:
133,162,70674,6,0,P|88:168|67:72,1,160,0|10,1:2|0:2,0:0:0:0:
159,25,71299,2,0,P|176:68|175:103,1,80,0|2,1:2|1:2,0:0:0:0:
244,157,71715,2,0,P|229:199|194:222,1,80,0|10,1:2|0:2,0:0:0:0:
117,282,72132,1,0,1:2:0:0:
117,282,72340,6,0,B|181:271|215:318|278:304,1,160,2|8,1:2|0:2,0:0:0:0:
347,267,72965,2,0,P|388:257|430:253,1,80,2|0,1:2|0:0,0:0:0:0:
483,352,73382,2,0,P|443:347|404:338,1,80,2|8,0:2|0:2,0:0:0:0:
359,256,73799,6,0,P|350:204|356:96,1,160,2|0,1:2|1:2,0:0:0:0:
441,33,74424,2,0,L|352:22,1,80,8|2,0:2|1:2,0:0:0:0:
286,93,74840,1,0,1:2:0:0:
286,93,75049,2,0,L|184:100,1,80,0|8,1:2|0:2,0:0:0:0:
127,60,75465,1,2,1:2:0:0:
127,60,75569,1,0,1:2:0:0:
127,60,75674,6,0,P|169:100|121:213,1,160,4|8,1:2|0:2,0:0:0:0:
61,211,76299,2,0,P|54:262|103:367,1,160,2|0,1:2|1:2,0:0:0:0:
190,365,76924,1,8,0:2:0:0:
271,320,77132,1,0,0:2:0:0:
271,232,77340,6,0,P|273:175|336:92,1,160,2|10,1:2|0:2,0:0:0:0:
433,79,77965,1,0,1:2:0:0:
433,79,78174,2,0,P|431:132|364:216,1,160,2|10,1:2|0:2,0:0:0:0:
274,187,78799,1,0,0:2:0:0:
193,144,79007,6,0,P|144:141|57:213,1,160,2|0,1:2|1:2,0:0:0:0:
71,290,79632,1,2,1:2:0:0:
158,281,79840,2,0,P|180:246|181:202,1,80,0|2,1:2|1:2,0:0:0:0:
121,153,80257,2,0,P|112:114|121:64,1,80,8|8,0:2|0:2,0:0:0:0:
211,29,80674,6,0,P|289:18|379:17,1,160,4|8,1:2|0:2,0:0:0:0:
400,120,81299,6,0,P|321:109|232:108,1,160,4|0,1:2|1:2,0:0:0:0:
192,178,81924,2,0,L|177:223,3,40,8|8|8|8,0:2|0:2|0:2|0:2,0:0:0:0:
230,211,82340,6,0,P|309:200|398:199,1,160,4|8,1:2|0:2,0:0:0:0:
457,256,82965,2,0,L|449:343,1,80,2|0,1:2|1:2,0:0:0:0:
363,356,83382,2,0,P|355:313|357:275,1,80,2|8,1:2|0:2,0:0:0:0:
396,197,83798,1,2,1:2:0:0:
343,129,84007,2,0,P|269:102|191:113,1,160,0|10,1:2|0:2,0:0:0:0:
128,173,84632,2,0,L|123:258,1,80,0|2,0:0|1:2,0:0:0:0:
193,297,85049,2,0,L|203:381,1,80,0|10,0:0|0:2,0:0:0:0:
297,366,85465,1,0,1:2:0:0:
297,366,85674,6,0,P|355:373|393:290,1,160,2|8,1:2|0:2,0:0:0:0:
328,242,86298,2,0,P|289:235|240:231,1,80,2|0,1:2|1:2,0:0:0:0:
150,237,86715,2,0,P|110:232|71:223,1,80,2|8,1:2|0:2,0:0:0:0:
169,165,87132,6,0,P|178:113|172:5,1,160,4|0,1:2|1:2,0:0:0:0:
69,15,87757,1,10,0:2:0:0:
69,15,87965,2,0,P|85:52|204:52,1,160,4|2,1:2|0:2,0:0:0:0:
272,29,88590,1,10,0:2:0:0:
330,94,88798,1,0,1:2:0:0:
273,161,89007,6,0,P|268:206|294:331,1,160,4|8,1:2|0:2,0:0:0:0:
373,339,89632,1,0,0:2:0:0:
373,339,89840,2,0,L|464:311,1,80,0|0,1:2|1:2,0:0:0:0:
483,234,90257,1,8,0:2:0:0:
396,218,90465,6,0,P|332:206|276:278,1,160,4|0,1:2|1:2,0:0:0:0:
224,342,91090,1,8,0:2:0:0:
137,332,91299,2,0,P|100:312|76:267,1,80,0|2,1:2|1:2,0:0:0:0:
162,235,91715,1,0,0:2:0:0:
162,235,91924,2,0,P|169:189|162:150,1,80,8|0,0:2|1:2,0:0:0:0:
68,94,92340,6,0,L|219:179,1,160,4|8,1:2|0:2,0:0:0:0:
291,147,92965,1,0,1:2:0:0:
306,71,93174,2,0,P|277:41|242:19,1,80,0|2,1:2|1:2,0:0:0:0:
159,66,93590,2,0,P|188:96|223:118,1,80,8|0,0:2|1:2,0:0:0:0:
358,144,94007,6,0,P|373:95|292:36,1,160,2|8,1:2|0:2,0:0:0:0:
232,98,94632,1,0,1:2:0:0:
249,192,94840,2,0,P|256:234|276:267,1,80,0|2,1:2|1:2,0:0:0:0:
372,281,95257,2,0,P|360:242|329:203,1,80,8|0,0:2|0:0,0:0:0:0:
223,230,95674,6,0,P|144:223|76:183,2,160,4|8|0,1:2|0:2|1:2,0:0:0:0:
314,208,96715,2,0,P|357:227|396:254,1,80,2|8,1:2|0:2,0:0:0:0:
399,334,97132,1,2,0:2:0:0:
399,334,97340,6,0,P|388:267|416:167,1,160,4|8,1:2|0:2,0:0:0:0:
474,117,97965,2,0,P|414:167|336:182,1,160,0|0,0:0|1:2,0:0:0:0:
243,143,98590,2,0,P|231:128|221:111,3,40,8|8|8|8,0:2|0:2|0:2|0:2,0:0:0:0:
247,179,99007,6,0,P|245:222|208:332,1,160,4|8,1:2|0:2,0:0:0:0:
122,352,99632,2,0,P|72:348|42:332,1,80,0|0,1:2|1:2,0:0:0:0:
25,249,100048,1,2,0:2:0:0:
25,249,100257,2,0,P|38:208|60:161,1,80,8|0,0:2|0:2,0:0:0:0:
140,161,100674,6,0,P|192:168|295:117,1,160,2|8,1:2|0:2,0:0:0:0:
431,23,101507,2,0,P|419:69|417:107,1,80,2|0,1:2|0:2,0:0:0:0:
436,184,101923,2,0,P|446:223|447:267,1,80,10|0,0:2|0:2,0:0:0:0:
371,307,102340,6,0,P|294:316|245:257,1,160,2|8,1:2|0:2,0:0:0:0:
212,175,102965,2,0,P|167:157|136:157,1,80,2|0,1:2|1:2,0:0:0:0:
60,200,103382,1,2,0:2:0:0:
60,200,103590,2,0,P|24:242|15:277,1,80,8|2,0:2|0:2,0:0:0:0:
97,301,104007,2,0,P|136:268|143:157,2,160,2|8|0,1:2|0:2|1:2,0:0:0:0:
161,360,105048,1,0,1:2:0:0:
245,335,105257,2,0,P|282:328|329:328,1,80,10|0,0:2|0:2,0:0:0:0:
412,325,105673,6,0,P|434:248|443:168,1,160,4|8,1:2|0:2,0:0:0:0:
365,130,106298,2,0,P|357:86|352:35,1,80,2|0,1:2|0:0,0:0:0:0:
452,19,106715,1,2,1:2:0:0:
452,19,106924,2,0,P|459:62|465:114,1,80,8|0,0:2|1:2,0:0:0:0:
349,117,107340,6,0,B|292:100|264:115|188:104,1,160,2|8,1:2|0:2,0:0:0:0:
116,153,107965,1,0,0:2:0:0:
116,153,108174,2,0,P|75:147|35:133,1,80,2|0,1:2|1:2,0:0:0:0:
55,48,108590,2,0,P|96:54|136:68,1,80,10|0,0:2|0:2,0:0:0:0:
202,138,109007,6,0,P|213:221|215:301,1,160,4|8,1:2|0:2,0:0:0:0:
341,371,109840,2,0,P|375:382|432:376,1,80,0|0,1:2|1:2,0:0:0:0:
486,313,110257,2,0,P|499:274|503:227,1,80,8|0,0:2|0:2,0:0:0:0:
416,180,110674,2,0,B|363:166|309:198|242:169,2,160,2|10|2,1:2|0:2|1:2,0:0:0:0:
486,127,111715,1,0,0:0:0:0:
435,54,111924,1,10,0:2:0:0:
348,38,112132,1,0,0:0:0:0:
266,70,112340,6,0,P|203:63|142:27,1,120.000004577637,4|0,1:2|0:0,0:0:0:0:
29,104,113174,2,0,P|70:108|100:121,1,60.0000022888184,0|2,0:0|1:2,0:0:0:0:
153,167,113591,2,0,P|186:165|215:159,1,60.0000022888184,8|0,0:2|1:2,0:0:0:0:
296,153,114008,6,0,P|310:197|309:294,1,120.000004577637,6|8,1:2|0:2,0:0:0:0:
240,312,114632,2,0,P|206:310|178:303,1,60.0000022888184,0|0,0:2|0:2,0:0:0:0:
98,287,115049,2,0,P|57:291|29:299,2,60.0000022888184,2|8|0,1:2|0:2|1:2,0:0:0:0:
171,234,115674,6,0,P|225:232|306:242,1,120.000004577637,2|8,1:2|0:2,0:0:0:0:
376,266,116299,2,0,P|438:266|482:211,2,120.000004577637,2|0|0,0:2|1:2|1:2,0:0:0:0:
293,224,117341,2,0,P|236:211|153:200,1,120.000004577637,2|8,1:2|0:2,0:0:0:0:
84,205,117966,2,0,P|54:201|26:189,1,60.0000022888184,2|0,0:2|0:0,0:0:0:0:
40,101,118382,1,2,1:2:0:0:
40,101,118590,2,0,P|69:104|97:116,1,60.0000022888184,8|0,0:2|1:2,0:0:0:0:
196,151,119007,6,0,P|245:150|320:119,1,120.000004577637,2|8,1:2|0:2,0:0:0:0:
398,141,119633,1,2,0:2:0:0:
398,141,119840,2,0,P|383:176|386:220,1,60.0000022888184,0|2,1:2|1:2,0:0:0:0:
440,257,120257,2,0,L|451:329,1,60.0000022888184,8|0,0:2|1:2,0:0:0:0:
380,365,120674,6,0,P|331:360|294:293,1,120.000004577637,2|8,1:2|0:2,0:0:0:0:
327,223,121299,1,2,0:2:0:0:
236,118,121715,2,0,P|174:119|97:132,1,120.000004577637,2|0,1:2|1:2,0:0:0:0:
35,152,122341,6,0,P|16:92|20:24,1,120.000004577637,2|8,1:2|0:2,0:0:0:0:
101,13,122966,1,0,0:2:0:0:
101,13,123174,2,0,P|157:32|217:38,1,120.000004577637,0|8,0:2|1:2,0:0:0:0:
300,27,123799,1,0,1:2:0:0:
300,27,124008,2,0,L|315:154,1,120.000004577637,2|8,1:2|0:2,0:0:0:0:
356,222,124633,1,0,0:2:0:0:
356,222,124737,1,0,0:2:0:0:
356,222,124840,2,0,P|295:236|238:189,1,120.000004577637,2|8,0:2|0:2,0:0:0:0:
177,162,125466,1,0,1:2:0:0:
95,181,125674,6,0,P|81:241|78:314,1,120.000004577637,4|8,1:2|0:2,0:0:0:0:
206,361,126507,2,0,P|237:359|278:351,1,60.0000022888184,0|2,0:2|1:2,0:0:0:0:
326,296,126924,2,0,P|357:298|398:306,1,60.0000022888184,8|0,0:2|0:2,0:0:0:0:
466,280,127340,2,0,P|423:284|363:213,1,120.000004577637,2|8,1:2|0:2,0:0:0:0:
334,117,128175,2,0,P|339:82|355:55,2,60.0000022888184,0|2|8,0:2|1:2|0:2,0:0:0:0:
289,190,128800,1,0,0:2:0:0:
289,190,128904,1,0,0:2:0:0:
289,190,129008,6,0,P|232:202|151:206,1,120.000004577637,2|8,1:2|0:2,0:0:0:0:
86,206,129633,2,0,P|72:264|107:321,1,120.000004577637,2|0,0:2|1:2,0:0:0:0:
174,353,130258,1,8,0:2:0:0:
241,215,130674,6,0,P|236:155|224:96,1,120.000004577637,2|10,1:2|0:2,0:0:0:0:
150,54,131300,2,0,P|120:58|92:70,1,60.0000022888184,2|0,0:2|0:0,0:0:0:0:
75,154,131715,1,2,1:2:0:0:
75,154,131925,2,0,P|119:153|150:142,1,60.0000022888184,8|0,0:2|1:2,0:0:0:0:
207,107,132340,6,0,P|277:109|338:126,1,120.000004577637,2|8,1:2|0:2,0:0:0:0:
406,138,132965,2,0,P|417:111|422:68,1,60.0000022888184,2|0,0:2|0:2,0:0:0:0:
324,29,133382,2,0,P|298:57|304:152,1,120.000004577637,2|0,1:2|1:2,0:0:0:0:
318,218,134007,6,0,P|321:254|316:286,2,60.0000022888184,2|0|8,1:2|1:2|0:2,0:0:0:0:
235,197,134633,1,2,0:2:0:0:
235,197,135050,2,0,P|158:197|106:162,1,120.000004577637,2|0,1:2|1:2,0:0:0:0:
69,125,135674,6,0,P|42:183|22:239,1,120.000004577637,2|8,1:2|0:2,0:0:0:0:
79,298,136300,1,0,0:2:0:0:
79,298,136508,2,0,P|136:279|196:273,1,120.000004577637,2|8,1:2|0:2,0:0:0:0:
277,307,137133,1,0,1:2:0:0:
277,307,137340,2,0,P|336:300|394:283,1,120.000004577637,2|8,1:2|0:2,0:0:0:0:
454,225,137965,1,0,0:2:0:0:
454,225,138069,1,0,0:2:0:0:
454,225,138174,2,0,L|469:92,1,120.000004577637,2|8,1:2|0:2,0:0:0:0:
389,71,138800,1,8,0:2:0:0:
319,118,139008,6,0,P|264:127|206:75,2,120.000004577637,4|8|0,1:2|0:2|0:2,0:0:0:0:
379,63,140049,2,0,P|379:29|389:-10,2,60.0000022888184,0|8|0,1:2|0:2|1:2,0:0:0:0:
433,127,140674,2,0,P|440:173|422:248,1,120.000004577637,2|10,1:2|0:2,0:0:0:0:
351,287,141299,1,0,0:2:0:0:
351,287,141508,2,0,L|224:263,1,120.000004577637,2|8,0:2|0:2,0:0:0:0:
153,254,142133,1,0,0:2:0:0:
153,254,142341,6,0,L|20:269,1,120.000004577637,2|8,1:2|0:2,0:0:0:0:
14,185,142966,2,0,P|14:136|37:59,1,120.000004577637,2|0,0:2|1:2,0:0:0:0:
113,92,143591,2,0,P|143:88|179:79,1,60.0000022888184,10|0,0:2|0:2,0:0:0:0:
238,29,144007,2,0,P|281:31|358:57,1,120.000004577637,2|8,1:2|0:2,0:0:0:0:
406,121,144633,1,2,0:2:0:0:
488,108,144841,1,2,0:2:0:0:
491,252,145258,2,0,P|483:293|470:325,1,60.0000022888184,8|8,0:2|0:2,0:0:0:0:
400,345,145674,6,0,P|339:325|273:310,1,120.000004577637,4|8,1:2|0:2,0:0:0:0:
194,333,146299,1,0,0:2:0:0:
194,333,146508,2,0,P|191:290|197:263,1,60.0000022888184,2|0,0:2|1:2,0:0:0:0:
271,226,146924,2,0,P|262:188|244:150,1,60.0000022888184,10|0,0:2|1:2,0:0:0:0:
180,134,147340,6,0,B|144:126|113:145|51:132,1,120.000004577637,4|8,1:2|0:2,0:0:0:0:
12,204,147966,1,2,0:2:0:0:
12,204,148174,2,0,P|9:234|23:275,1,60.0000022888184,0|0,0:0|1:2,0:0:0:0:
97,283,148591,2,0,P|132:272|163:267,1,60.0000022888184,10|0,0:2|0:2,0:0:0:0:
233,298,149008,6,0,P|292:299|348:278,1,120.000004577637,4|8,1:2|0:2,0:0:0:0:
411,222,149633,1,2,0:2:0:0:
411,222,149840,2,0,P|422:255|426:283,1,60.0000022888184,0|0,0:0|1:2,0:0:0:0:
358,331,150258,2,0,P|319:324|299:313,1,60.0000022888184,8|8,0:2|1:2,0:0:0:0:
292,231,150674,1,4,1:2:0:0:
109,299,151299,5,0,0:2:0:0:
109,299,151508,2,0,L|34:288,2,60.0000022888184,0|0|8,0:2|1:2|0:2,0:0:0:0:
180,250,152133,1,8,0:2:0:0:
180,250,152237,1,0,0:0:0:0:
180,250,152341,6,0,B|205:187|166:142|185:76,1,160,4|8,1:2|0:2,0:0:0:0:
257,20,152966,2,0,P|297:9|337:8,1,80,2|0,1:2|1:2,0:0:0:0:
363,105,153383,2,0,P|323:106|284:98,1,80,2|8,1:2|0:2,0:0:0:0:
185,66,153799,1,2,1:2:0:0:
91,110,154007,6,0,P|71:147|85:266,1,160,0|10,1:2|0:2,0:0:0:0:
179,297,154632,2,0,P|221:294|278:285,1,80,0|2,1:2|1:2,0:0:0:0:
342,348,155049,2,0,P|388:343|419:327,1,80,0|10,1:2|0:2,0:0:0:0:
427,239,155466,1,0,1:2:0:0:
354,179,155674,6,0,P|331:135|369:20,1,160,2|8,1:2|0:2,0:0:0:0:
480,114,156299,2,0,P|439:104|397:100,1,80,2|0,1:2|0:0,0:0:0:0:
307,98,156716,2,0,L|229:81,1,80,2|8,0:2|0:2,0:0:0:0:
136,136,157132,6,0,P|91:112|121:14,1,160,2|0,1:2|1:2,0:0:0:0:
213,29,157758,2,0,P|222:66|224:118,1,80,8|2,0:2|1:2,0:0:0:0:
189,205,158174,1,0,1:2:0:0:
228,301,158383,2,0,P|268:303|330:294,1,80,0|8,1:2|0:2,0:0:0:0:
393,245,158799,1,2,1:2:0:0:
393,245,158903,1,0,1:2:0:0:
393,245,159008,6,0,P|318:219|238:215,1,160,4|8,1:2|0:2,0:0:0:0:
138,240,159632,2,0,P|80:232|8:155,1,160,2|0,1:2|1:2,0:0:0:0:
49,65,160258,1,8,0:2:0:0:
119,141,160466,1,0,0:2:0:0:
222,128,160674,6,0,P|296:115|390:112,1,160,2|10,1:2|0:2,0:0:0:0:
446,199,161299,1,0,1:2:0:0:
446,199,161508,2,0,P|393:197|309:130,1,160,2|10,1:2|0:2,0:0:0:0:
257,44,162133,1,0,0:2:0:0:
174,106,162341,6,0,B|154:158|179:203|158:276,1,160,2|0,1:2|1:2,0:0:0:0:
69,345,162966,1,2,1:2:0:0:
69,345,163174,2,0,P|108:349|145:334,1,80,0|2,1:2|1:2,0:0:0:0:
207,270,163591,2,0,P|246:261|296:270,1,80,8|8,0:2|0:2,0:0:0:0:
387,286,164008,6,0,P|390:199|345:129,1,160,4|8,1:2|0:2,0:0:0:0:
256,102,164632,6,0,P|259:189|214:259,1,160,4|0,1:2|1:2,0:0:0:0:
131,300,165258,6,0,P|120:314|110:340,3,40,8|8|8|8,0:2|0:2|0:2|0:2,0:0:0:0:
109,267,165674,6,0,P|112:180|67:110,1,160,4|8,1:2|0:2,0:0:0:0:
173,120,166299,2,0,P|209:129|260:128,1,80,2|0,1:2|1:2,0:0:0:0:
339,73,166715,2,0,P|375:63|426:65,1,80,2|8,1:2|0:2,0:0:0:0:
472,135,167132,1,2,1:2:0:0:
434,231,167340,2,0,P|372:229|311:140,1,160,0|10,1:2|0:2,0:0:0:0:
235,87,167966,2,0,P|194:70|151:69,2,80,0|2|0,0:0|1:2|0:0,0:0:0:0:
246,190,168590,1,10,0:2:0:0:
157,245,168799,1,0,1:2:0:0:
60,207,169007,6,0,B|128:191|174:206|235:200,1,160,2|8,1:2|0:2,0:0:0:0:
319,173,169632,2,0,P|358:176|398:183,1,80,2|0,1:2|1:2,0:0:0:0:
475,253,170049,1,2,1:2:0:0:
425,344,170257,1,8,0:2:0:0:
321,328,170465,6,0,P|242:331|164:350,1,160,4|0,1:2|1:2,0:0:0:0:
63,323,171091,1,10,0:2:0:0:
63,323,171299,2,0,P|81:267|70:142,1,160,4|2,1:2|0:2,0:0:0:0:
1,95,171924,1,10,0:2:0:0:
99,61,172132,1,0,1:2:0:0:
181,124,172341,6,0,P|226:129|351:103,1,160,4|8,1:2|0:2,0:0:0:0:
425,52,172965,2,0,P|476:68|501:86,2,80,0|0|0,0:2|1:2|1:2,0:0:0:0:
323,26,173591,1,8,0:2:0:0:
260,108,173799,6,0,P|259:150|285:272,1,160,4|0,1:2|1:2,0:0:0:0:
381,297,174424,1,8,0:2:0:0:
381,297,174633,2,0,P|422:292|481:276,1,80,0|2,1:2|1:2,0:0:0:0:
451,180,175049,1,0,0:2:0:0:
451,180,175258,2,0,P|412:189|372:193,1,80,8|0,0:2|1:2,0:0:0:0:
237,168,175674,6,0,P|160:151|80:153,2,160,4|8|0,1:2|0:2|1:2,0:0:0:0:
335,201,176715,1,2,1:2:0:0:
335,201,176924,2,0,P|340:240|340:280,1,80,8|0,0:2|1:2,0:0:0:0:
251,334,177340,6,0,B|191:313|135:337|76:323,2,160,2|8|0,1:2|0:2|1:2,0:0:0:0:
349,369,178382,1,2,1:2:0:0:
426,300,178590,2,0,P|429:257|420:213,1,80,8|0,0:2|0:0,0:0:0:0:
333,165,179007,6,0,P|316:120|312:1,1,160,4|8,1:2|0:2,0:0:0:0:
414,5,179632,2,0,P|416:50|405:91,1,80,0|0,1:2|1:2,0:0:0:0:
304,96,180049,1,2,1:2:0:0:
201,78,180257,1,8,0:2:0:0:
108,125,180465,1,2,0:2:0:0:
94,225,180674,5,4,1:2:0:0:
40,294,194007,5,6,0:0:0:0:
118,320,194632,1,2,0:0:0:0:
184,264,195049,2,0,P|184:223|172:193,2,60.0000022888184,2|0|0,0:0|0:0|0:0,0:0:0:0:
328,120,196299,6,0,P|328:161|340:191,2,60.0000022888184,2|0|0,0:0|0:0|0:0,0:0:0:0:
405,107,196924,2,0,P|406:77|399:48,1,60.0000022888184,2|0,0:0|0:0,0:0:0:0:
314,12,197340,1,2,0:0:0:0:
240,82,197965,1,2,0:0:0:0:
139,52,198382,2,0,P|102:42|74:42,2,60.0000022888184,2|0|0,0:0|0:0|0:0,0:0:0:0:
210,317,200465,5,2,0:2:0:0:
210,317,200674,2,0,P|277:306|366:379,1,180.000006866455,2|2,0:2|0:2,0:0:0:0:
489,297,201715,2,0,P|430:288|381:254,1,120.000004577637,2|0,0:2|0:2,0:0:0:0:
326,199,202340,1,2,0:2:0:0:
224,321,202757,1,8,0:2:0:0:
80,246,203174,1,2,0:2:0:0:
191,117,203590,1,10,0:2:0:0:
204,227,204007,6,0,B|279:245|311:202|398:225,1,180.000006866455,2|0,0:2|0:2,0:0:0:0:
460,173,204840,1,0,0:2:0:0:
460,173,205049,2,0,P|471:118|444:39,1,120.000004577637,2|0,0:2|1:2,0:0:0:0:
377,41,205674,6,0,P|318:38|258:28,1,120.000004577637,4|8,1:2|0:2,0:0:0:0:
209,112,206299,2,0,P|268:101|328:99,1,120.000004577637,4|0,1:2|1:2,0:0:0:0:
404,153,206924,1,8,0:2:0:0:
383,241,207132,1,8,0:2:0:0:
295,281,207340,6,0,P|216:270|127:269,1,160,4|8,1:2|0:2,0:0:0:0:
36,235,207965,2,0,P|29:194|28:148,1,80,2|0,1:2|1:2,0:0:0:0:
122,112,208382,2,0,P|126:70|138:26,1,80,2|8,1:2|0:2,0:0:0:0:
239,22,208798,1,2,1:2:0:0:
281,117,209007,6,0,P|353:138|416:90,1,160,0|10,1:2|0:2,0:0:0:0:
475,157,209632,2,0,P|474:197|470:242,1,80,0|2,1:2|1:2,0:0:0:0:
369,261,210049,2,0,P|369:299|379:345,1,80,0|10,0:2|0:2,0:0:0:0:
475,361,210465,1,0,1:2:0:0:
475,361,210674,6,0,B|400:348|364:366|288:352,1,160,2|8,1:2|0:2,0:0:0:0:
214,330,211298,2,0,P|207:291|203:242,1,80,2|0,1:2|1:2,0:0:0:0:
267,168,211715,2,0,P|228:159|188:154,1,80,2|8,1:2|0:2,0:0:0:0:
141,260,212132,6,0,P|203:264|305:246,1,160,4|0,1:2|1:2,0:0:0:0:
361,164,212757,1,10,0:2:0:0:
361,164,212965,2,0,P|365:118|267:64,1,160,4|2,1:2|0:2,0:0:0:0:
187,110,213590,1,10,0:2:0:0:
100,52,213798,1,0,1:2:0:0:
30,130,214007,6,0,P|35:209|57:286,1,160,4|8,1:2|0:2,0:0:0:0:
159,324,214632,1,0,1:2:0:0:
159,324,214840,2,0,P|151:275|143:243,1,80,0|0,1:2|1:2,0:0:0:0:
200,158,215257,1,8,0:2:0:0:
200,158,215465,6,0,P|205:207|296:279,2,160,4|0|2,1:2|1:2|1:2,0:0:0:0:
266,88,216507,1,2,1:2:0:0:
370,112,216715,1,0,0:2:0:0:
414,187,216924,2,0,P|407:229|390:268,1,80,8|0,0:2|1:2,0:0:0:0:
266,308,217340,6,0,B|227:252|233:204|200:163,2,160,4|8|0,1:2|0:2|1:2,0:0:0:0:
361,340,218382,1,2,1:2:0:0:
361,340,218590,2,0,P|391:311|413:276,1,80,8|0,0:2|1:2,0:0:0:0:
403,174,219007,2,0,P|381:125|396:17,1,160,2|8,1:2|0:2,0:0:0:0:
492,54,219632,1,0,1:2:0:0:
419,128,219840,2,0,P|373:125|338:113,1,80,0|2,1:2|1:2,0:0:0:0:
263,44,220257,2,0,P|224:32|185:30,1,80,8|0,0:2|0:2,0:0:0:0:
126,116,220674,6,0,P|71:110|38:9,2,160,4|8|0,1:2|0:2|1:2,0:0:0:0:
229,119,221715,2,0,P|242:162|243:203,1,80,2|8,1:2|0:2,0:0:0:0:
185,283,222132,1,2,0:2:0:0:
185,283,222340,6,0,P|233:276|353:274,1,160,4|8,1:2|0:2,0:0:0:0:
389,367,222965,2,0,P|341:360|221:358,1,160,8|0,0:2|1:2,0:0:0:0:
124,370,223590,2,0,P|105:362|92:348,3,40,8|8|8|8,0:2|0:2|0:2|0:2,0:0:0:0:
158,339,224007,6,0,P|163:298|159:168,1,160,4|8,1:2|0:2,0:0:0:0:
73,137,224632,2,0,P|73:88|81:48,1,80,0|0,1:2|1:2,0:0:0:0:
162,17,225048,1,2,0:2:0:0:
213,98,225257,2,0,P|258:93|307:82,1,80,8|0,0:2|0:2,0:0:0:0:
381,51,225674,6,0,P|436:55|514:124,1,160,2|8,1:2|0:2,0:0:0:0:
371,251,226507,2,0,P|325:263|287:265,1,80,2|0,1:2|0:2,0:0:0:0:
240,184,226923,2,0,P|279:174|323:173,1,80,10|0,0:2|0:2,0:0:0:0:
414,181,227340,6,0,P|423:104|364:55,1,160,2|8,1:2|0:2,0:0:0:0:
272,55,227965,2,0,L|255:157,1,80,2|0,1:2|1:2,0:0:0:0:
175,178,228382,1,2,0:2:0:0:
175,178,228590,2,0,P|121:157|88:119,1,80,8|2,0:2|0:2,0:0:0:0:
180,82,229007,6,0,B|230:94|279:80|353:108,2,160,2|8|0,1:2|0:2|1:2,0:0:0:0:
84,73,230048,1,0,1:2:0:0:
84,73,230257,2,0,P|77:110|77:157,1,80,10|0,0:2|0:2,0:0:0:0:
153,235,230673,6,0,P|230:257|310:266,1,160,4|8,1:2|0:2,0:0:0:0:
373,194,231298,2,0,P|329:186|278:181,1,80,2|0,1:2|1:2,0:0:0:0:
248,266,231715,1,2,1:2:0:0:
298,348,231924,2,0,P|337:343|377:336,1,80,8|0,0:2|1:2,0:0:0:0:
454,246,232340,6,0,P|465:203|395:105,1,160,2|8,1:2|0:2,0:0:0:0:
315,124,232965,1,0,0:2:0:0:
315,124,233174,2,0,P|271:127|225:122,1,80,2|0,1:2|1:2,0:0:0:0:
144,93,233590,2,0,P|100:90|54:95,1,80,10|0,0:2|0:2,0:0:0:0:
15,185,234007,6,0,P|17:264|28:344,1,160,4|8,1:2|0:2,0:0:0:0:
125,358,234632,2,0,L|167:367,2,40,0|0|0,1:2|1:2|1:2,0:0:0:0:
117,265,235049,2,0,P|157:283|275:303,1,160,0|2,1:2|1:2,0:0:0:0:
337,203,235674,6,0,P|325:171|279:238,1,160,2|10,1:2|0:2,0:0:0:0:
419,214,236507,2,0,P|442:171|464:59,1,160,2|10,1:2|0:2,0:0:0:0:
387,22,237132,1,8,0:3:0:0:
387,22,237236,1,8,0:3:0:0:
387,22,237340,1,4,1:2:0:0:
256,192,237549,12,0,242340,0:0:0:0:
