osu file format v14

[General]
AudioFilename: audio.mp3
AudioLeadIn: 0
PreviewTime: 156039
Countdown: 0
SampleSet: Normal
StackLeniency: 0.7
Mode: 1
LetterboxInBreaks: 0
WidescreenStoryboard: 0

[Editor]
DistanceSpacing: 1.54
BeatDivisor: 4
GridSize: 4
TimelineZoom: 3.299999

[Metadata]
Title:Kago no Tori
TitleUnicode:籠の鳥
Artist:Yuzuki Risa
ArtistUnicode:柚木梨沙
Creator:A s h e m u
Version:Inner Oni
Source:
Tags:
BeatmapID:1320700
BeatmapSetID:626641

[Difficulty]
HPDrainRate:4
CircleSize:2
OverallDifficulty:5
ApproachRate:10
SliderMultiplier:1.6
SliderTickRate:1

[Events]
//Background and Video events
0,0,"__inaba_tewi_and_reisen_udongein_inaba_touhou_drawn_by_shirosato__sample-63d0fc5d4303fce12faaaf16c84cb70b.jpg",0,0
//Break Periods
//Storyboard Layer 0 (Background)
//Storyboard Layer 1 (Fail)
//Storyboard Layer 2 (Pass)
//Storyboard Layer 3 (Foreground)
//Storyboard Sound Samples

[TimingPoints]
2539,400,4,1,0,100,1,0
77739,-76.9230769230769,4,1,0,100,0,1
103339,-100,4,1,0,100,0,0
156139,-76.9230769230769,4,1,0,100,0,1
181739,-100,4,1,0,100,0,0
220539,-76.9230769230769,4,1,0,100,0,1
245739,-100,4,1,0,100,0,0

[HitObjects]
44,117,2539,5,0,0:0:0:0:
44,117,2939,1,8,0:0:0:0:
44,117,3339,1,0,0:0:0:0:
44,117,3539,1,0,0:0:0:0:
44,117,3739,1,8,0:0:0:0:
44,117,4139,1,0,0:0:0:0:
44,117,4539,1,0,0:0:0:0:
44,117,4739,1,8,0:0:0:0:
44,117,4939,1,0,0:0:0:0:
44,117,5139,1,0,0:0:0:0:
44,117,5339,1,8,0:0:0:0:
44,117,5739,5,0,0:0:0:0:
44,117,6139,1,0,0:0:0:0:
44,117,6339,1,0,0:0:0:0:
44,117,6539,1,8,0:0:0:0:
44,117,6939,1,0,0:0:0:0:
44,117,7139,1,0,0:0:0:0:
44,117,7339,1,8,0:0:0:0:
44,117,7739,1,0,0:0:0:0:
44,117,7939,1,0,0:0:0:0:
44,117,8139,1,8,0:0:0:0:
44,117,8339,1,0,0:0:0:0:
44,117,8539,1,8,0:0:0:0:
44,117,8939,5,8,0:0:0:0:
44,117,9139,1,0,0:0:0:0:
44,117,9339,1,8,0:0:0:0:
44,117,9539,1,8,0:0:0:0:
44,117,9739,1,0,0:0:0:0:
44,117,9939,1,0,0:0:0:0:
44,117,10139,1,8,0:0:0:0:
44,117,10539,5,8,0:0:0:0:
44,117,10639,1,0,0:0:0:0:
44,117,10739,1,0,0:0:0:0:
44,117,10839,1,0,0:0:0:0:
44,117,10939,1,8,0:0:0:0:
44,117,11039,1,0,0:0:0:0:
44,117,11139,1,0,0:0:0:0:
44,117,11239,1,0,0:0:0:0:
44,117,11339,1,8,0:0:0:0:
44,117,11439,1,8,0:0:0:0:
44,117,11539,1,0,0:0:0:0:
44,117,11639,1,8,0:0:0:0:
44,117,11739,1,8,0:0:0:0:
44,117,11805,1,0,0:0:0:0:
44,117,11872,1,0,0:0:0:0:
44,117,11939,1,8,0:0:0:0:
44,117,12005,1,0,0:0:0:0:
44,117,12072,1,0,0:0:0:0:
44,117,12139,5,0,0:0:0:0:
44,117,12339,1,0,0:0:0:0:
44,117,12439,1,0,0:0:0:0:
44,117,12539,1,8,0:0:0:0:
44,117,12739,1,0,0:0:0:0:
44,117,12839,1,0,0:0:0:0:
44,117,12939,1,8,0:0:0:0:
44,117,13039,1,0,0:0:0:0:
44,117,13139,1,8,0:0:0:0:
44,117,13239,1,8,0:0:0:0:
44,117,13339,1,8,0:0:0:0:
44,117,13539,1,8,0:0:0:0:
44,117,13639,1,0,0:0:0:0:
44,117,13739,5,8,0:0:0:0:
44,117,13839,1,0,0:0:0:0:
44,117,13939,1,0,0:0:0:0:
44,117,14039,1,8,0:0:0:0:
44,117,14139,1,0,0:0:0:0:
44,117,14239,1,0,0:0:0:0:
44,117,14339,1,8,0:0:0:0:
44,117,14439,1,0,0:0:0:0:
44,117,14539,1,8,0:0:0:0:
44,117,14639,1,8,0:0:0:0:
44,117,14739,1,8,0:0:0:0:
44,117,14839,1,0,0:0:0:0:
44,117,14939,1,8,0:0:0:0:
44,117,15039,1,8,0:0:0:0:
44,117,15139,1,8,0:0:0:0:
44,117,15239,1,0,0:0:0:0:
44,117,15339,5,0,0:0:0:0:
44,117,15539,1,0,0:0:0:0:
44,117,15639,1,8,0:0:0:0:
44,117,15739,1,0,0:0:0:0:
44,117,15839,1,8,0:0:0:0:
44,117,15939,1,8,0:0:0:0:
44,117,16039,1,0,0:0:0:0:
44,117,16139,1,0,0:0:0:0:
44,117,16239,1,8,0:0:0:0:
44,117,16339,1,8,0:0:0:0:
44,117,16439,1,8,0:0:0:0:
44,117,16539,1,0,0:0:0:0:
44,117,16639,1,8,0:0:0:0:
44,117,16739,1,8,0:0:0:0:
44,117,16939,5,0,0:0:0:0:
44,117,17039,1,0,0:0:0:0:
44,117,17139,1,8,0:0:0:0:
44,117,17239,1,8,0:0:0:0:
44,117,17339,1,0,0:0:0:0:
44,117,17439,1,0,0:0:0:0:
44,117,17539,1,8,0:0:0:0:
44,117,17639,1,0,0:0:0:0:
44,117,17739,1,0,0:0:0:0:
44,117,17839,1,0,0:0:0:0:
44,117,17939,1,8,0:0:0:0:
44,117,18039,1,8,0:0:0:0:
44,117,18139,1,0,0:0:0:0:
44,117,18239,1,0,0:0:0:0:
44,117,18339,1,8,0:0:0:0:
44,117,18439,1,0,0:0:0:0:
44,117,18539,5,0,0:0:0:0:
44,117,18739,1,8,0:0:0:0:
44,117,18839,1,8,0:0:0:0:
44,117,18939,1,0,0:0:0:0:
44,117,19039,1,0,0:0:0:0:
44,117,19139,1,0,0:0:0:0:
44,117,19239,1,8,0:0:0:0:
44,117,19339,1,0,0:0:0:0:
44,117,19439,1,0,0:0:0:0:
44,117,19539,1,8,0:0:0:0:
44,117,19639,1,8,0:0:0:0:
44,117,19739,1,0,0:0:0:0:
44,117,19839,1,8,0:0:0:0:
44,117,19939,1,8,0:0:0:0:
44,117,20039,1,8,0:0:0:0:
44,117,20139,5,0,0:0:0:0:
44,117,20239,1,0,0:0:0:0:
44,117,20339,1,8,0:0:0:0:
44,117,20439,1,0,0:0:0:0:
44,117,20539,1,0,0:0:0:0:
44,117,20639,1,0,0:0:0:0:
44,117,20739,1,8,0:0:0:0:
44,117,20839,1,0,0:0:0:0:
44,117,20939,1,8,0:0:0:0:
44,117,21039,1,0,0:0:0:0:
44,117,21139,1,8,0:0:0:0:
44,117,21239,1,0,0:0:0:0:
44,117,21339,1,8,0:0:0:0:
44,117,21439,1,8,0:0:0:0:
44,117,21539,1,8,0:0:0:0:
44,117,21739,5,0,0:0:0:0:
44,117,21839,1,8,0:0:0:0:
44,117,21939,1,8,0:0:0:0:
44,117,22039,1,8,0:0:0:0:
44,117,22139,1,0,0:0:0:0:
44,117,22239,1,8,0:0:0:0:
44,117,22339,1,8,0:0:0:0:
44,117,22439,1,8,0:0:0:0:
44,117,22539,1,0,0:0:0:0:
44,117,22639,1,0,0:0:0:0:
44,117,22739,1,8,0:0:0:0:
44,117,22839,1,0,0:0:0:0:
44,117,22939,1,0,0:0:0:0:
44,117,23039,1,8,0:0:0:0:
44,117,23139,1,8,0:0:0:0:
44,117,23239,1,8,0:0:0:0:
44,117,23339,5,0,0:0:0:0:
44,117,23439,1,0,0:0:0:0:
44,117,23539,1,0,0:0:0:0:
44,117,23639,1,8,0:0:0:0:
44,117,23739,1,0,0:0:0:0:
44,117,23839,1,0,0:0:0:0:
44,117,23939,1,8,0:0:0:0:
44,117,24139,1,0,0:0:0:0:
44,117,24239,1,0,0:0:0:0:
44,117,24339,1,8,0:0:0:0:
44,117,24439,1,0,0:0:0:0:
44,117,24539,1,8,0:0:0:0:
44,117,24639,1,0,0:0:0:0:
44,117,24739,1,0,0:0:0:0:
44,117,24805,1,0,0:0:0:0:
44,117,24872,1,0,0:0:0:0:
44,117,24939,5,0,0:0:0:0:
44,117,25039,1,0,0:0:0:0:
44,117,25139,1,8,0:0:0:0:
44,117,25239,1,8,0:0:0:0:
44,117,25339,1,0,0:0:0:0:
44,117,25439,1,0,0:0:0:0:
44,117,25539,1,8,0:0:0:0:
44,117,25639,1,0,0:0:0:0:
44,117,25739,1,8,0:0:0:0:
44,117,25839,1,8,0:0:0:0:
44,117,25939,1,8,0:0:0:0:
44,117,26039,1,0,0:0:0:0:
44,117,26139,1,8,0:0:0:0:
44,117,26239,1,8,0:0:0:0:
44,117,26339,1,8,0:0:0:0:
44,117,26539,5,0,0:0:0:0:
44,117,26639,1,0,0:0:0:0:
44,117,26739,1,8,0:0:0:0:
44,117,26839,1,0,0:0:0:0:
44,117,26939,1,8,0:0:0:0:
44,117,27039,1,8,0:0:0:0:
44,117,27139,1,8,0:0:0:0:
44,117,27239,1,0,0:0:0:0:
44,117,27339,1,8,0:0:0:0:
44,117,27439,1,8,0:0:0:0:
44,117,27539,1,8,0:0:0:0:
44,117,27639,1,0,0:0:0:0:
44,117,27739,1,8,0:0:0:0:
44,117,27839,1,8,0:0:0:0:
44,117,27939,1,8,0:0:0:0:
44,117,28039,1,8,0:0:0:0:
44,117,28139,5,0,0:0:0:0:
44,117,28239,1,8,0:0:0:0:
44,117,28339,1,8,0:0:0:0:
44,117,28439,1,0,0:0:0:0:
44,117,28539,1,8,0:0:0:0:
44,117,28639,1,8,0:0:0:0:
44,117,28739,1,0,0:0:0:0:
44,117,28839,1,0,0:0:0:0:
44,117,28939,1,8,0:0:0:0:
44,117,29039,1,0,0:0:0:0:
44,117,29139,1,8,0:0:0:0:
44,117,29239,1,0,0:0:0:0:
44,117,29339,1,8,0:0:0:0:
44,117,29439,1,8,0:0:0:0:
44,117,29539,1,8,0:0:0:0:
44,117,29739,5,0,0:0:0:0:
44,117,29839,1,8,0:0:0:0:
44,117,29939,1,8,0:0:0:0:
44,117,30039,1,8,0:0:0:0:
44,117,30139,1,0,0:0:0:0:
44,117,30239,1,0,0:0:0:0:
44,117,30339,1,8,0:0:0:0:
44,117,30439,1,8,0:0:0:0:
44,117,30539,1,0,0:0:0:0:
44,117,30639,1,8,0:0:0:0:
44,117,30739,1,8,0:0:0:0:
44,117,30839,1,8,0:0:0:0:
44,117,30939,1,0,0:0:0:0:
44,117,31039,1,0,0:0:0:0:
44,117,31139,1,8,0:0:0:0:
44,117,31339,5,0,0:0:0:0:
44,117,31439,1,0,0:0:0:0:
44,117,31539,1,8,0:0:0:0:
44,117,31639,1,0,0:0:0:0:
44,117,31739,1,8,0:0:0:0:
44,117,31839,1,0,0:0:0:0:
44,117,31939,1,8,0:0:0:0:
44,117,32039,1,0,0:0:0:0:
44,117,32139,1,0,0:0:0:0:
44,117,32239,1,0,0:0:0:0:
44,117,32339,1,8,0:0:0:0:
44,117,32439,1,0,0:0:0:0:
44,117,32539,1,0,0:0:0:0:
44,117,32639,1,0,0:0:0:0:
44,117,32739,1,8,0:0:0:0:
44,117,32939,5,0,0:0:0:0:
44,117,33039,1,0,0:0:0:0:
44,117,33139,1,8,0:0:0:0:
44,117,33239,1,8,0:0:0:0:
44,117,33339,1,0,0:0:0:0:
44,117,33439,1,0,0:0:0:0:
44,117,33539,1,8,0:0:0:0:
44,117,33639,1,8,0:0:0:0:
44,117,33739,1,0,0:0:0:0:
44,117,33839,1,0,0:0:0:0:
44,117,33939,1,0,0:0:0:0:
44,117,34039,1,8,0:0:0:0:
44,117,34139,1,8,0:0:0:0:
44,117,34239,1,8,0:0:0:0:
44,117,34339,1,8,0:0:0:0:
44,117,34539,5,0,0:0:0:0:
44,117,34639,1,0,0:0:0:0:
44,117,34739,1,8,0:0:0:0:
44,117,34839,1,0,0:0:0:0:
44,117,34939,1,8,0:0:0:0:
44,117,35039,1,0,0:0:0:0:
44,117,35139,1,8,0:0:0:0:
44,117,35239,1,8,0:0:0:0:
44,117,35339,1,0,0:0:0:0:
44,117,35439,1,0,0:0:0:0:
44,117,35539,1,8,0:0:0:0:
44,117,35639,1,0,0:0:0:0:
44,117,35739,1,8,0:0:0:0:
44,117,35839,1,8,0:0:0:0:
44,117,35939,1,8,0:0:0:0:
44,117,36139,5,0,0:0:0:0:
44,117,36239,1,0,0:0:0:0:
44,117,36339,1,8,0:0:0:0:
44,117,36439,1,8,0:0:0:0:
44,117,36539,1,0,0:0:0:0:
44,117,36639,1,0,0:0:0:0:
44,117,36739,1,8,0:0:0:0:
44,117,36839,1,8,0:0:0:0:
44,117,36939,5,0,0:0:0:0:
44,117,37005,1,0,0:0:0:0:
44,117,37072,1,0,0:0:0:0:
44,117,37139,1,0,0:0:0:0:
44,117,37205,1,0,0:0:0:0:
44,117,37272,1,0,0:0:0:0:
44,117,37339,1,0,0:0:0:0:
44,117,37405,1,0,0:0:0:0:
44,117,37472,1,0,0:0:0:0:
44,117,37539,1,0,0:0:0:0:
44,117,37605,1,0,0:0:0:0:
44,117,37672,1,0,0:0:0:0:
44,117,37739,5,0,0:0:0:0:
44,117,38139,1,0,0:0:0:0:
44,117,38339,1,0,0:0:0:0:
44,117,38539,1,8,0:0:0:0:
44,117,38939,1,0,0:0:0:0:
44,117,39139,1,0,0:0:0:0:
44,117,39339,5,8,0:0:0:0:
44,117,39739,1,0,0:0:0:0:
44,117,39939,1,8,0:0:0:0:
44,117,40339,1,0,0:0:0:0:
44,117,40539,1,8,0:0:0:0:
44,117,40939,5,0,0:0:0:0:
44,117,41339,1,0,0:0:0:0:
44,117,41539,1,8,0:0:0:0:
44,117,41939,1,8,0:0:0:0:
44,117,42139,1,0,0:0:0:0:
44,117,42339,1,8,0:0:0:0:
44,117,42739,1,8,0:0:0:0:
44,117,42939,1,0,0:0:0:0:
44,117,43139,1,8,0:0:0:0:
44,117,43339,1,8,0:0:0:0:
44,117,43739,1,0,0:0:0:0:
44,117,44139,5,0,0:0:0:0:
44,117,44339,1,0,0:0:0:0:
44,117,44539,1,8,0:0:0:0:
44,117,44739,1,8,0:0:0:0:
44,117,45139,1,0,0:0:0:0:
44,117,45339,1,8,0:0:0:0:
44,117,45739,5,0,0:0:0:0:
44,117,46139,1,0,0:0:0:0:
44,117,46339,1,8,0:0:0:0:
44,117,46739,1,0,0:0:0:0:
44,117,46939,1,8,0:0:0:0:
44,117,47339,5,0,0:0:0:0:
44,117,47739,1,8,0:0:0:0:
44,117,48139,1,0,0:0:0:0:
44,117,48339,1,8,0:0:0:0:
44,117,48539,1,8,0:0:0:0:
44,117,48739,1,0,0:0:0:0:
44,117,48939,5,8,0:0:0:0:
44,117,49139,1,0,0:0:0:0:
44,117,49339,1,8,0:0:0:0:
44,117,49739,1,4,0:0:0:0:
44,117,50139,1,12,0:0:0:0:
44,117,50339,1,0,0:0:0:0:
44,117,50539,5,12,0:0:0:0:
44,117,50739,1,0,0:0:0:0:
44,117,50939,1,0,0:0:0:0:
44,117,51139,1,0,0:0:0:0:
44,117,51339,1,8,0:0:0:0:
44,117,51639,1,0,0:0:0:0:
44,117,51739,1,8,0:0:0:0:
44,117,51939,1,8,0:0:0:0:
44,117,52139,5,0,0:0:0:0:
44,117,52539,1,8,0:0:0:0:
44,117,52739,1,0,0:0:0:0:
44,117,52939,1,8,0:0:0:0:
44,117,53139,1,8,0:0:0:0:
44,117,53339,1,0,0:0:0:0:
44,117,53539,1,0,0:0:0:0:
44,117,53739,5,8,0:0:0:0:
44,117,54039,1,8,0:0:0:0:
44,117,54139,1,0,0:0:0:0:
44,117,54339,1,0,0:0:0:0:
44,117,54539,1,0,0:0:0:0:
44,117,54739,1,8,0:0:0:0:
44,117,54939,1,0,0:0:0:0:
44,117,55139,1,8,0:0:0:0:
44,117,55339,5,0,0:0:0:0:
44,117,55639,1,0,0:0:0:0:
44,117,55739,1,8,0:0:0:0:
44,117,55939,1,8,0:0:0:0:
44,117,56139,1,0,0:0:0:0:
44,117,56339,1,8,0:0:0:0:
44,117,56539,1,0,0:0:0:0:
44,117,56739,1,0,0:0:0:0:
44,117,56939,5,12,0:0:0:0:
44,117,57239,1,8,0:0:0:0:
44,117,57339,1,0,0:0:0:0:
44,117,57539,1,0,0:0:0:0:
44,117,57739,1,8,0:0:0:0:
44,117,57939,1,0,0:0:0:0:
44,117,58139,1,8,0:0:0:0:
44,117,58339,1,8,0:0:0:0:
44,117,58539,5,4,0:0:0:0:
44,117,58839,1,8,0:0:0:0:
44,117,58939,1,0,0:0:0:0:
44,117,59139,1,0,0:0:0:0:
44,117,59339,1,8,0:0:0:0:
44,117,59539,1,8,0:0:0:0:
44,117,59639,1,0,0:0:0:0:
44,117,59739,1,8,0:0:0:0:
44,117,59939,1,0,0:0:0:0:
44,117,60139,5,4,0:0:0:0:
44,117,60339,1,8,0:0:0:0:
44,117,60439,1,0,0:0:0:0:
44,117,60539,1,8,0:0:0:0:
44,117,60739,1,8,0:0:0:0:
44,117,60939,1,4,0:0:0:0:
44,117,61139,1,8,0:0:0:0:
44,117,61239,1,0,0:0:0:0:
44,117,61339,1,8,0:0:0:0:
44,117,61539,1,8,0:0:0:0:
44,117,61739,5,0,0:0:0:0:
44,117,61839,1,0,0:0:0:0:
44,117,61939,1,0,0:0:0:0:
44,117,62039,1,8,0:0:0:0:
44,117,62139,1,0,0:0:0:0:
44,117,62239,1,0,0:0:0:0:
44,117,62339,1,8,0:0:0:0:
44,117,62405,1,0,0:0:0:0:
44,117,62472,1,0,0:0:0:0:
44,117,62539,5,0,0:0:0:0:
44,117,62605,1,0,0:0:0:0:
44,117,62672,1,0,0:0:0:0:
44,117,62739,1,0,0:0:0:0:
44,117,62805,1,0,0:0:0:0:
44,117,62872,1,0,0:0:0:0:
44,117,62939,1,0,0:0:0:0:
44,117,63005,1,0,0:0:0:0:
44,117,63072,1,0,0:0:0:0:
44,117,63139,1,0,0:0:0:0:
44,117,63205,1,0,0:0:0:0:
44,117,63272,1,0,0:0:0:0:
44,117,63339,5,0,0:0:0:0:
44,117,63539,1,0,0:0:0:0:
44,117,63639,1,0,0:0:0:0:
44,117,63739,1,8,0:0:0:0:
44,117,63839,1,8,0:0:0:0:
44,117,63939,1,0,0:0:0:0:
44,117,64139,1,0,0:0:0:0:
44,117,64239,1,0,0:0:0:0:
44,117,64339,1,8,0:0:0:0:
44,117,64539,1,8,0:0:0:0:
44,117,64639,1,0,0:0:0:0:
44,117,64739,1,8,0:0:0:0:
44,117,64839,1,8,0:0:0:0:
44,117,64939,5,0,0:0:0:0:
44,117,65139,1,8,0:0:0:0:
44,117,65339,1,0,0:0:0:0:
44,117,65439,1,0,0:0:0:0:
44,117,65539,1,8,0:0:0:0:
44,117,65639,1,8,0:0:0:0:
44,117,65739,1,0,0:0:0:0:
44,117,65839,1,0,0:0:0:0:
44,117,65939,1,8,0:0:0:0:
44,117,66139,1,0,0:0:0:0:
44,117,66239,1,8,0:0:0:0:
44,117,66339,1,8,0:0:0:0:
44,117,66439,1,0,0:0:0:0:
44,117,66539,5,8,0:0:0:0:
44,117,66739,1,0,0:0:0:0:
44,117,66839,1,8,0:0:0:0:
44,117,66939,1,8,0:0:0:0:
44,117,67039,1,0,0:0:0:0:
44,117,67139,1,0,0:0:0:0:
44,117,67239,1,0,0:0:0:0:
44,117,67339,1,8,0:0:0:0:
44,117,67439,1,0,0:0:0:0:
44,117,67539,1,8,0:0:0:0:
44,117,67739,1,8,0:0:0:0:
44,117,67839,1,0,0:0:0:0:
44,117,67939,1,0,0:0:0:0:
44,117,68139,5,8,0:0:0:0:
44,117,68239,1,0,0:0:0:0:
44,117,68339,1,0,0:0:0:0:
44,117,68439,1,8,0:0:0:0:
44,117,68539,1,8,0:0:0:0:
44,117,68639,1,0,0:0:0:0:
44,117,68739,1,8,0:0:0:0:
44,117,68939,1,0,0:0:0:0:
44,117,69139,1,8,0:0:0:0:
44,117,69239,1,8,0:0:0:0:
44,117,69339,1,0,0:0:0:0:
44,117,69439,1,8,0:0:0:0:
44,117,69539,1,8,0:0:0:0:
44,117,69639,1,0,0:0:0:0:
44,117,69739,5,8,0:0:0:0:
44,117,69939,1,0,0:0:0:0:
44,117,70039,1,0,0:0:0:0:
44,117,70139,1,8,0:0:0:0:
44,117,70439,1,8,0:0:0:0:
44,117,70539,1,0,0:0:0:0:
44,117,70739,1,0,0:0:0:0:
44,117,70939,1,8,0:0:0:0:
44,117,71139,1,0,0:0:0:0:
44,117,71239,1,0,0:0:0:0:
44,117,71339,5,8,0:0:0:0:
44,117,71539,1,0,0:0:0:0:
44,117,71639,1,0,0:0:0:0:
44,117,71739,1,8,0:0:0:0:
44,117,71939,1,8,0:0:0:0:
44,117,72039,1,0,0:0:0:0:
44,117,72139,1,8,0:0:0:0:
44,117,72339,1,8,0:0:0:0:
44,117,72439,1,0,0:0:0:0:
44,117,72539,1,8,0:0:0:0:
44,117,72639,1,8,0:0:0:0:
44,117,72739,1,0,0:0:0:0:
44,117,72939,5,0,0:0:0:0:
44,117,73139,5,0,0:0:0:0:
44,117,73239,1,8,0:0:0:0:
44,117,73339,1,0,0:0:0:0:
44,117,73405,1,0,0:0:0:0:
44,117,73472,1,0,0:0:0:0:
44,117,73539,1,0,0:0:0:0:
44,117,73639,1,8,0:0:0:0:
44,117,73739,1,0,0:0:0:0:
44,117,73839,1,0,0:0:0:0:
44,117,73939,1,8,0:0:0:0:
44,117,74039,1,0,0:0:0:0:
44,117,74139,1,0,0:0:0:0:
44,117,74205,1,0,0:0:0:0:
44,117,74272,1,0,0:0:0:0:
44,117,74339,1,0,0:0:0:0:
44,117,74439,1,8,0:0:0:0:
44,117,74539,5,0,0:0:0:0:
44,117,74605,1,0,0:0:0:0:
44,117,74672,1,0,0:0:0:0:
44,117,74739,1,0,0:0:0:0:
44,117,74839,1,8,0:0:0:0:
44,117,74939,1,0,0:0:0:0:
44,117,75005,1,0,0:0:0:0:
44,117,75072,1,0,0:0:0:0:
44,117,75139,1,0,0:0:0:0:
44,117,75239,1,8,0:0:0:0:
44,117,75339,1,0,0:0:0:0:
44,117,75405,1,0,0:0:0:0:
44,117,75472,1,0,0:0:0:0:
44,117,75539,1,0,0:0:0:0:
44,117,75639,1,8,0:0:0:0:
44,117,75739,1,0,0:0:0:0:
44,117,75839,1,0,0:0:0:0:
44,117,75939,1,8,0:0:0:0:
44,117,76039,1,0,0:0:0:0:
44,117,76139,5,8,0:0:0:0:
44,117,76339,1,8,0:0:0:0:
44,117,76439,1,0,0:0:0:0:
44,117,76639,1,0,0:0:0:0:
44,117,76739,1,8,0:0:0:0:
44,117,76939,1,0,0:0:0:0:
44,117,77039,1,0,0:0:0:0:
44,117,77139,1,8,0:0:0:0:
44,117,77239,1,0,0:0:0:0:
44,117,77339,1,0,0:0:0:0:
44,117,77539,1,8,0:0:0:0:
44,117,77605,1,8,0:0:0:0:
44,117,77672,1,0,0:0:0:0:
44,117,77739,5,8,0:0:0:0:
44,117,77839,1,0,0:0:0:0:
44,117,77939,1,8,0:0:0:0:
44,117,78039,1,0,0:0:0:0:
44,117,78139,1,8,0:0:0:0:
44,117,78239,1,8,0:0:0:0:
44,117,78339,1,0,0:0:0:0:
44,117,78439,1,8,0:0:0:0:
44,117,78539,1,8,0:0:0:0:
44,117,78639,1,0,0:0:0:0:
44,117,78739,1,8,0:0:0:0:
44,117,78839,1,0,0:0:0:0:
44,117,78939,1,8,0:0:0:0:
44,117,79039,1,8,0:0:0:0:
44,117,79139,1,8,0:0:0:0:
44,117,79239,1,0,0:0:0:0:
44,117,79339,5,8,0:0:0:0:
44,117,79439,1,0,0:0:0:0:
44,117,79539,1,8,0:0:0:0:
44,117,79639,1,8,0:0:0:0:
44,117,79739,1,0,0:0:0:0:
44,117,79839,1,0,0:0:0:0:
44,117,79939,1,8,0:0:0:0:
44,117,80039,1,0,0:0:0:0:
44,117,80139,1,8,0:0:0:0:
44,117,80239,1,0,0:0:0:0:
44,117,80339,1,8,0:0:0:0:
44,117,80439,1,8,0:0:0:0:
44,117,80539,1,8,0:0:0:0:
44,117,80639,1,0,0:0:0:0:
44,117,80739,1,8,0:0:0:0:
44,117,80939,5,8,0:0:0:0:
44,117,81039,1,8,0:0:0:0:
44,117,81139,1,8,0:0:0:0:
44,117,81239,1,0,0:0:0:0:
44,117,81339,1,8,0:0:0:0:
44,117,81439,1,8,0:0:0:0:
44,117,81539,1,8,0:0:0:0:
44,117,81639,1,0,0:0:0:0:
44,117,81739,1,8,0:0:0:0:
44,117,81839,1,0,0:0:0:0:
44,117,81939,1,0,0:0:0:0:
44,117,82039,1,0,0:0:0:0:
44,117,82139,1,8,0:0:0:0:
44,117,82239,1,8,0:0:0:0:
44,117,82339,1,0,0:0:0:0:
44,117,82439,1,0,0:0:0:0:
44,117,82539,5,8,0:0:0:0:
44,117,82639,1,0,0:0:0:0:
44,117,82739,1,0,0:0:0:0:
44,117,82839,1,8,0:0:0:0:
44,117,82939,1,8,0:0:0:0:
44,117,83039,1,0,0:0:0:0:
44,117,83139,1,8,0:0:0:0:
44,117,83239,1,0,0:0:0:0:
44,117,83339,1,8,0:0:0:0:
44,117,83439,1,0,0:0:0:0:
44,117,83539,1,8,0:0:0:0:
44,117,83639,1,8,0:0:0:0:
44,117,83739,1,0,0:0:0:0:
44,117,83839,1,8,0:0:0:0:
44,117,83939,1,8,0:0:0:0:
44,117,84139,5,8,0:0:0:0:
44,117,84239,1,8,0:0:0:0:
44,117,84339,1,0,0:0:0:0:
44,117,84439,1,8,0:0:0:0:
44,117,84539,1,8,0:0:0:0:
44,117,84639,1,0,0:0:0:0:
44,117,84739,1,8,0:0:0:0:
44,117,84839,1,0,0:0:0:0:
44,117,84939,1,8,0:0:0:0:
44,117,85039,1,8,0:0:0:0:
44,117,85139,1,0,0:0:0:0:
44,117,85239,1,8,0:0:0:0:
44,117,85339,1,8,0:0:0:0:
44,117,85439,1,0,0:0:0:0:
44,117,85539,1,8,0:0:0:0:
44,117,85639,1,0,0:0:0:0:
44,117,85739,5,8,0:0:0:0:
44,117,85839,1,0,0:0:0:0:
44,117,85939,1,8,0:0:0:0:
44,117,86039,1,8,0:0:0:0:
44,117,86139,1,8,0:0:0:0:
44,117,86239,1,0,0:0:0:0:
44,117,86339,1,8,0:0:0:0:
44,117,86439,1,0,0:0:0:0:
44,117,86539,1,8,0:0:0:0:
44,117,86639,1,8,0:0:0:0:
44,117,86739,1,8,0:0:0:0:
44,117,86839,1,8,0:0:0:0:
44,117,86939,1,0,0:0:0:0:
44,117,87039,1,8,0:0:0:0:
44,117,87139,1,8,0:0:0:0:
44,117,87339,5,0,0:0:0:0:
44,117,87439,1,0,0:0:0:0:
44,117,87539,1,8,0:0:0:0:
44,117,87639,1,0,0:0:0:0:
44,117,87739,1,0,0:0:0:0:
44,117,87839,1,0,0:0:0:0:
44,117,87939,1,8,0:0:0:0:
44,117,88039,1,0,0:0:0:0:
44,117,88139,1,0,0:0:0:0:
44,117,88239,1,0,0:0:0:0:
44,117,88339,1,8,0:0:0:0:
44,117,88439,1,0,0:0:0:0:
44,117,88539,1,8,0:0:0:0:
44,117,88639,1,8,0:0:0:0:
44,117,88739,1,8,0:0:0:0:
44,117,88939,5,8,0:0:0:0:
44,117,89039,1,8,0:0:0:0:
44,117,89139,1,8,0:0:0:0:
44,117,89239,1,0,0:0:0:0:
44,117,89339,1,8,0:0:0:0:
44,117,89439,1,8,0:0:0:0:
44,117,89539,1,0,0:0:0:0:
44,117,89639,1,8,0:0:0:0:
44,117,89739,1,8,0:0:0:0:
44,117,89839,1,0,0:0:0:0:
44,117,89939,1,8,0:0:0:0:
44,117,90039,1,0,0:0:0:0:
44,117,90139,1,8,0:0:0:0:
44,117,90239,1,0,0:0:0:0:
44,117,90339,1,8,0:0:0:0:
44,117,90405,1,8,0:0:0:0:
44,117,90472,1,0,0:0:0:0:
44,117,90539,5,8,0:0:0:0:
44,117,90639,1,8,0:0:0:0:
44,117,90739,1,0,0:0:0:0:
44,117,90839,1,0,0:0:0:0:
44,117,90939,1,8,0:0:0:0:
44,117,91039,1,0,0:0:0:0:
44,117,91139,1,8,0:0:0:0:
44,117,91239,1,8,0:0:0:0:
44,117,91339,1,0,0:0:0:0:
44,117,91439,1,8,0:0:0:0:
44,117,91539,1,0,0:0:0:0:
44,117,91639,1,8,0:0:0:0:
44,117,91739,1,8,0:0:0:0:
44,117,91839,1,0,0:0:0:0:
44,117,91939,1,0,0:0:0:0:
44,117,92039,1,8,0:0:0:0:
44,117,92139,5,8,0:0:0:0:
44,117,92239,1,0,0:0:0:0:
44,117,92339,1,0,0:0:0:0:
44,117,92439,1,0,0:0:0:0:
44,117,92539,1,8,0:0:0:0:
44,117,92639,1,0,0:0:0:0:
44,117,92739,1,8,0:0:0:0:
44,117,92839,1,0,0:0:0:0:
44,117,92939,1,8,0:0:0:0:
44,117,93039,1,8,0:0:0:0:
44,117,93139,1,8,0:0:0:0:
44,117,93239,1,0,0:0:0:0:
44,117,93339,1,8,0:0:0:0:
44,117,93439,1,8,0:0:0:0:
44,117,93539,1,8,0:0:0:0:
44,117,93739,5,0,0:0:0:0:
44,117,93839,1,0,0:0:0:0:
44,117,93939,1,0,0:0:0:0:
44,117,94039,1,8,0:0:0:0:
44,117,94139,1,0,0:0:0:0:
44,117,94239,1,0,0:0:0:0:
44,117,94339,1,8,0:0:0:0:
44,117,94439,1,8,0:0:0:0:
44,117,94539,1,0,0:0:0:0:
44,117,94639,1,8,0:0:0:0:
44,117,94739,1,8,0:0:0:0:
44,117,94839,1,8,0:0:0:0:
44,117,94939,1,0,0:0:0:0:
44,117,95039,1,8,0:0:0:0:
44,117,95139,1,8,0:0:0:0:
44,117,95239,1,8,0:0:0:0:
44,117,95339,5,0,0:0:0:0:
44,117,95439,1,0,0:0:0:0:
44,117,95539,1,0,0:0:0:0:
44,117,95639,1,8,0:0:0:0:
44,117,95739,1,0,0:0:0:0:
44,117,95839,1,8,0:0:0:0:
44,117,95939,1,8,0:0:0:0:
44,117,96039,1,0,0:0:0:0:
44,117,96139,1,8,0:0:0:0:
44,117,96239,1,8,0:0:0:0:
44,117,96339,1,0,0:0:0:0:
44,117,96439,1,0,0:0:0:0:
44,117,96539,1,0,0:0:0:0:
44,117,96639,1,8,0:0:0:0:
44,117,96739,1,8,0:0:0:0:
44,117,96939,5,0,0:0:0:0:
44,117,97139,1,8,0:0:0:0:
44,117,97239,1,0,0:0:0:0:
44,117,97339,1,8,0:0:0:0:
44,117,97439,1,8,0:0:0:0:
44,117,97539,1,0,0:0:0:0:
44,117,97739,1,0,0:0:0:0:
44,117,97839,1,8,0:0:0:0:
44,117,97939,1,8,0:0:0:0:
44,117,98039,1,0,0:0:0:0:
44,117,98139,1,8,0:0:0:0:
44,117,98239,1,8,0:0:0:0:
44,117,98339,1,0,0:0:0:0:
44,117,98439,1,0,0:0:0:0:
44,117,98539,5,8,0:0:0:0:
44,117,98739,1,0,0:0:0:0:
44,117,98839,1,0,0:0:0:0:
44,117,98939,1,8,0:0:0:0:
44,117,99039,1,0,0:0:0:0:
44,117,99139,1,0,0:0:0:0:
44,117,99239,1,0,0:0:0:0:
44,117,99339,1,8,0:0:0:0:
44,117,99439,1,0,0:0:0:0:
44,117,99539,1,0,0:0:0:0:
44,117,99639,1,8,0:0:0:0:
44,117,99739,1,0,0:0:0:0:
44,117,99839,1,0,0:0:0:0:
44,117,99939,1,8,0:0:0:0:
44,117,100039,1,0,0:0:0:0:
44,117,100139,1,8,0:0:0:0:
44,117,100339,1,0,0:0:0:0:
44,117,100439,1,0,0:0:0:0:
44,117,100539,1,8,0:0:0:0:
44,117,100639,1,8,0:0:0:0:
44,117,100739,1,8,0:0:0:0:
44,117,100839,1,0,0:0:0:0:
44,117,100939,1,8,0:0:0:0:
44,117,101039,1,8,0:0:0:0:
44,117,101139,1,0,0:0:0:0:
44,117,101239,1,0,0:0:0:0:
44,117,101339,1,8,0:0:0:0:
44,117,101439,1,0,0:0:0:0:
44,117,101539,1,0,0:0:0:0:
44,117,101639,1,0,0:0:0:0:
44,117,101739,1,8,0:0:0:0:
44,117,101939,1,0,0:0:0:0:
44,117,102039,1,0,0:0:0:0:
44,117,102139,1,8,0:0:0:0:
44,117,102239,1,0,0:0:0:0:
44,117,102339,1,0,0:0:0:0:
44,117,102439,1,8,0:0:0:0:
44,117,102539,1,0,0:0:0:0:
44,117,102605,1,0,0:0:0:0:
44,117,102672,1,0,0:0:0:0:
44,117,102739,1,0,0:0:0:0:
44,117,102805,1,0,0:0:0:0:
44,117,102872,1,0,0:0:0:0:
44,117,102939,1,0,0:0:0:0:
44,117,103005,1,0,0:0:0:0:
44,117,103072,1,0,0:0:0:0:
44,117,103139,1,0,0:0:0:0:
44,117,103205,1,0,0:0:0:0:
44,117,103272,1,0,0:0:0:0:
44,117,103339,5,0,0:0:0:0:
44,117,103539,1,0,0:0:0:0:
44,117,103639,1,0,0:0:0:0:
44,117,103739,1,8,0:0:0:0:
44,117,103839,1,8,0:0:0:0:
44,117,103939,1,0,0:0:0:0:
44,117,104039,1,0,0:0:0:0:
44,117,104139,1,8,0:0:0:0:
44,117,104239,1,0,0:0:0:0:
44,117,104339,1,0,0:0:0:0:
44,117,104439,1,0,0:0:0:0:
44,117,104539,1,8,0:0:0:0:
44,117,104639,1,8,0:0:0:0:
44,117,104739,1,0,0:0:0:0:
44,117,104939,5,0,0:0:0:0:
44,117,105139,1,0,0:0:0:0:
44,117,105239,1,0,0:0:0:0:
44,117,105339,1,8,0:0:0:0:
44,117,105539,1,8,0:0:0:0:
44,117,105639,1,8,0:0:0:0:
44,117,105739,1,0,0:0:0:0:
44,117,105839,1,8,0:0:0:0:
44,117,106039,1,8,0:0:0:0:
44,117,106139,1,0,0:0:0:0:
44,117,106239,1,0,0:0:0:0:
44,117,106339,1,8,0:0:0:0:
44,117,106439,1,8,0:0:0:0:
44,117,106539,5,0,0:0:0:0:
44,117,106639,1,0,0:0:0:0:
44,117,106739,1,0,0:0:0:0:
44,117,106839,1,8,0:0:0:0:
44,117,106939,1,0,0:0:0:0:
44,117,107039,1,0,0:0:0:0:
44,117,107139,1,8,0:0:0:0:
44,117,107239,1,8,0:0:0:0:
44,117,107339,1,0,0:0:0:0:
44,117,107539,1,8,0:0:0:0:
44,117,107639,1,0,0:0:0:0:
44,117,107739,1,0,0:0:0:0:
44,117,107839,1,8,0:0:0:0:
44,117,107939,1,8,0:0:0:0:
44,117,108039,1,8,0:0:0:0:
44,117,108139,5,0,0:0:0:0:
44,117,108239,1,0,0:0:0:0:
44,117,108339,1,8,0:0:0:0:
44,117,108439,1,0,0:0:0:0:
44,117,108539,1,8,0:0:0:0:
44,117,108639,1,8,0:0:0:0:
44,117,108739,1,0,0:0:0:0:
44,117,108839,1,0,0:0:0:0:
44,117,108939,1,8,0:0:0:0:
44,117,109039,1,8,0:0:0:0:
44,117,109139,1,8,0:0:0:0:
44,117,109239,1,8,0:0:0:0:
44,117,109339,1,0,0:0:0:0:
44,117,109439,1,0,0:0:0:0:
44,117,109539,1,8,0:0:0:0:
44,117,109739,5,0,0:0:0:0:
44,117,109939,1,8,0:0:0:0:
44,117,110039,1,8,0:0:0:0:
44,117,110239,1,0,0:0:0:0:
44,117,110339,1,8,0:0:0:0:
44,117,110439,1,8,0:0:0:0:
44,117,110539,1,0,0:0:0:0:
44,117,110739,1,8,0:0:0:0:
44,117,110839,1,8,0:0:0:0:
44,117,110939,1,0,0:0:0:0:
44,117,111039,1,8,0:0:0:0:
44,117,111139,1,8,0:0:0:0:
44,117,111339,5,0,0:0:0:0:
44,117,111439,1,8,0:0:0:0:
44,117,111539,1,0,0:0:0:0:
44,117,111739,1,8,0:0:0:0:
44,117,111839,1,0,0:0:0:0:
44,117,111939,1,0,0:0:0:0:
44,117,112039,1,0,0:0:0:0:
44,117,112139,1,8,0:0:0:0:
44,117,112339,1,8,0:0:0:0:
44,117,112439,1,0,0:0:0:0:
44,117,112539,1,8,0:0:0:0:
44,117,112639,1,8,0:0:0:0:
44,117,112739,1,8,0:0:0:0:
44,117,112939,5,0,0:0:0:0:
44,117,113039,1,0,0:0:0:0:
44,117,113139,1,0,0:0:0:0:
44,117,113239,1,0,0:0:0:0:
44,117,113339,1,8,0:0:0:0:
44,117,113439,1,0,0:0:0:0:
44,117,113539,1,8,0:0:0:0:
44,117,113739,1,8,0:0:0:0:
44,117,113839,1,8,0:0:0:0:
44,117,113939,1,0,0:0:0:0:
44,117,114039,1,8,0:0:0:0:
44,117,114139,1,8,0:0:0:0:
44,117,114239,1,8,0:0:0:0:
44,117,114339,1,0,0:0:0:0:
44,117,114439,1,0,0:0:0:0:
44,117,114539,5,8,0:0:0:0:
44,117,114739,1,8,0:0:0:0:
44,117,114839,1,8,0:0:0:0:
44,117,114939,1,0,0:0:0:0:
44,117,115139,1,0,0:0:0:0:
44,117,115239,1,8,0:0:0:0:
44,117,115339,5,0,0:0:0:0:
44,117,115405,1,0,0:0:0:0:
44,117,115472,1,0,0:0:0:0:
44,117,115539,1,0,0:0:0:0:
44,117,115605,1,0,0:0:0:0:
44,117,115672,1,0,0:0:0:0:
44,117,115739,1,0,0:0:0:0:
44,117,115805,1,0,0:0:0:0:
44,117,115872,1,0,0:0:0:0:
44,117,115939,1,0,0:0:0:0:
44,117,116005,1,0,0:0:0:0:
44,117,116072,1,0,0:0:0:0:
44,117,116139,5,0,0:0:0:0:
44,117,116439,1,0,0:0:0:0:
44,117,116539,1,8,0:0:0:0:
44,117,116739,1,8,0:0:0:0:
44,117,116839,1,0,0:0:0:0:
44,117,117039,1,0,0:0:0:0:
44,117,117139,1,0,0:0:0:0:
44,117,117239,1,8,0:0:0:0:
44,117,117339,1,8,0:0:0:0:
44,117,117439,1,0,0:0:0:0:
44,117,117539,1,8,0:0:0:0:
44,117,117739,5,8,0:0:0:0:
44,117,117839,1,0,0:0:0:0:
44,117,117939,1,0,0:0:0:0:
44,117,118039,1,8,0:0:0:0:
44,117,118239,1,0,0:0:0:0:
44,117,118339,1,8,0:0:0:0:
44,117,118539,1,8,0:0:0:0:
44,117,118639,1,0,0:0:0:0:
44,117,118739,1,8,0:0:0:0:
44,117,118939,1,8,0:0:0:0:
44,117,119039,1,0,0:0:0:0:
44,117,119139,1,8,0:0:0:0:
44,117,119339,5,0,0:0:0:0:
44,117,119539,1,8,0:0:0:0:
44,117,119639,1,0,0:0:0:0:
44,117,119739,1,8,0:0:0:0:
44,117,119939,1,0,0:0:0:0:
44,117,120039,1,8,0:0:0:0:
44,117,120239,1,8,0:0:0:0:
44,117,120339,1,0,0:0:0:0:
44,117,120439,1,0,0:0:0:0:
44,117,120539,1,8,0:0:0:0:
44,117,120739,1,8,0:0:0:0:
44,117,120939,5,0,0:0:0:0:
44,117,121139,1,0,0:0:0:0:
44,117,121239,1,0,0:0:0:0:
44,117,121339,1,8,0:0:0:0:
44,117,121539,1,0,0:0:0:0:
44,117,121639,1,0,0:0:0:0:
44,117,121839,1,0,0:0:0:0:
44,117,121939,1,0,0:0:0:0:
44,117,122039,1,8,0:0:0:0:
44,117,122139,1,0,0:0:0:0:
44,117,122239,1,0,0:0:0:0:
44,117,122339,1,8,0:0:0:0:
44,117,122439,1,8,0:0:0:0:
44,117,122539,5,0,0:0:0:0:
44,117,122739,1,0,0:0:0:0:
44,117,122839,1,0,0:0:0:0:
44,117,122939,1,8,0:0:0:0:
44,117,123139,1,8,0:0:0:0:
44,117,123239,1,8,0:0:0:0:
44,117,123439,1,0,0:0:0:0:
44,117,123539,1,8,0:0:0:0:
44,117,123739,1,8,0:0:0:0:
44,117,123839,1,0,0:0:0:0:
44,117,123939,1,8,0:0:0:0:
44,117,124139,5,0,0:0:0:0:
44,117,124239,1,0,0:0:0:0:
44,117,124439,1,0,0:0:0:0:
44,117,124539,1,8,0:0:0:0:
44,117,124739,1,8,0:0:0:0:
44,117,124839,1,0,0:0:0:0:
44,117,124939,1,8,0:0:0:0:
44,117,125139,1,0,0:0:0:0:
44,117,125239,1,0,0:0:0:0:
44,117,125339,1,8,0:0:0:0:
44,117,125439,1,8,0:0:0:0:
44,117,125539,1,0,0:0:0:0:
44,117,125739,5,0,0:0:0:0:
44,117,125939,1,8,0:0:0:0:
44,117,126039,1,0,0:0:0:0:
44,117,126139,1,8,0:0:0:0:
44,117,126339,1,0,0:0:0:0:
44,117,126439,1,8,0:0:0:0:
44,117,126539,1,8,0:0:0:0:
44,117,126639,1,0,0:0:0:0:
44,117,126839,1,8,0:0:0:0:
44,117,126939,1,0,0:0:0:0:
44,117,127039,1,0,0:0:0:0:
44,117,127139,1,8,0:0:0:0:
44,117,127339,5,0,0:0:0:0:
44,117,127439,1,0,0:0:0:0:
44,117,127539,1,8,0:0:0:0:
44,117,127639,1,0,0:0:0:0:
44,117,127839,1,0,0:0:0:0:
44,117,127939,1,8,0:0:0:0:
44,117,128139,1,0,0:0:0:0:
44,117,128239,1,8,0:0:0:0:
44,117,128339,1,8,0:0:0:0:
44,117,128439,1,8,0:0:0:0:
44,117,128539,1,0,0:0:0:0:
44,117,128639,1,0,0:0:0:0:
44,117,128739,1,8,0:0:0:0:
44,117,128839,1,8,0:0:0:0:
44,117,128939,5,0,0:0:0:0:
44,117,129139,1,8,0:0:0:0:
44,117,129239,1,8,0:0:0:0:
44,117,129339,1,0,0:0:0:0:
44,117,129539,1,8,0:0:0:0:
44,117,129639,1,8,0:0:0:0:
44,117,129739,1,0,0:0:0:0:
44,117,129839,1,0,0:0:0:0:
44,117,129939,1,8,0:0:0:0:
44,117,130039,1,0,0:0:0:0:
44,117,130139,1,8,0:0:0:0:
44,117,130239,1,8,0:0:0:0:
44,117,130339,1,8,0:0:0:0:
44,117,130539,5,0,0:0:0:0:
44,117,130639,1,0,0:0:0:0:
44,117,130739,1,8,0:0:0:0:
44,117,130839,1,0,0:0:0:0:
44,117,130939,1,8,0:0:0:0:
44,117,131039,1,8,0:0:0:0:
44,117,131139,1,0,0:0:0:0:
44,117,131239,1,0,0:0:0:0:
44,117,131339,1,8,0:0:0:0:
44,117,131439,1,8,0:0:0:0:
44,117,131539,1,0,0:0:0:0:
44,117,131739,1,8,0:0:0:0:
44,117,131839,1,0,0:0:0:0:
44,117,131939,1,0,0:0:0:0:
44,117,132039,1,0,0:0:0:0:
44,117,132139,5,8,0:0:0:0:
44,117,132339,1,0,0:0:0:0:
44,117,132439,1,8,0:0:0:0:
44,117,132639,1,0,0:0:0:0:
44,117,132739,1,8,0:0:0:0:
44,117,132939,1,0,0:0:0:0:
44,117,133039,1,0,0:0:0:0:
44,117,133139,1,8,0:0:0:0:
44,117,133239,1,0,0:0:0:0:
44,117,133339,1,0,0:0:0:0:
44,117,133439,1,0,0:0:0:0:
44,117,133539,1,8,0:0:0:0:
44,117,133739,5,0,0:0:0:0:
44,117,133839,1,0,0:0:0:0:
44,117,133939,1,0,0:0:0:0:
44,117,134039,1,0,0:0:0:0:
44,117,134139,1,8,0:0:0:0:
44,117,134339,1,0,0:0:0:0:
44,117,134439,1,0,0:0:0:0:
44,117,134539,1,8,0:0:0:0:
44,117,134639,1,8,0:0:0:0:
44,117,134739,1,8,0:0:0:0:
44,117,134839,1,8,0:0:0:0:
44,117,134939,1,0,0:0:0:0:
44,117,135039,1,0,0:0:0:0:
44,117,135139,1,8,0:0:0:0:
44,117,135339,5,0,0:0:0:0:
44,117,135539,1,0,0:0:0:0:
44,117,135639,1,0,0:0:0:0:
44,117,135739,1,8,0:0:0:0:
44,117,135939,1,0,0:0:0:0:
44,117,136039,1,0,0:0:0:0:
44,117,136139,1,8,0:0:0:0:
44,117,136239,1,8,0:0:0:0:
44,117,136339,1,0,0:0:0:0:
44,117,136539,1,8,0:0:0:0:
44,117,136639,1,0,0:0:0:0:
44,117,136739,1,8,0:0:0:0:
44,117,136939,5,0,0:0:0:0:
44,117,137039,1,0,0:0:0:0:
44,117,137139,1,0,0:0:0:0:
44,117,137239,1,8,0:0:0:0:
44,117,137339,1,0,0:0:0:0:
44,117,137539,1,8,0:0:0:0:
44,117,137739,1,0,0:0:0:0:
44,117,137839,1,8,0:0:0:0:
44,117,137939,1,8,0:0:0:0:
44,117,138039,1,0,0:0:0:0:
44,117,138139,1,0,0:0:0:0:
44,117,138239,1,0,0:0:0:0:
44,117,138339,1,8,0:0:0:0:
44,117,138539,5,8,0:0:0:0:
44,117,138639,1,0,0:0:0:0:
44,117,138739,1,0,0:0:0:0:
44,117,138839,1,0,0:0:0:0:
44,117,138939,1,8,0:0:0:0:
44,117,139039,1,0,0:0:0:0:
44,117,139139,1,8,0:0:0:0:
44,117,139239,1,0,0:0:0:0:
44,117,139339,1,8,0:0:0:0:
44,117,139439,1,0,0:0:0:0:
44,117,139539,1,0,0:0:0:0:
44,117,139639,1,8,0:0:0:0:
44,117,139739,1,0,0:0:0:0:
44,117,139839,1,8,0:0:0:0:
44,117,139939,1,8,0:0:0:0:
44,117,140039,1,8,0:0:0:0:
44,117,140139,5,0,0:0:0:0:
44,117,140339,1,8,0:0:0:0:
44,117,140439,1,8,0:0:0:0:
44,117,140639,1,0,0:0:0:0:
44,117,140739,1,8,0:0:0:0:
44,117,140839,1,8,0:0:0:0:
44,117,140939,5,0,0:0:0:0:
44,117,141005,1,0,0:0:0:0:
44,117,141072,1,0,0:0:0:0:
44,117,141139,1,0,0:0:0:0:
44,117,141205,1,0,0:0:0:0:
44,117,141272,1,0,0:0:0:0:
44,117,141339,1,0,0:0:0:0:
44,117,141405,1,0,0:0:0:0:
44,117,141472,1,0,0:0:0:0:
44,117,141539,1,0,0:0:0:0:
44,117,141605,1,0,0:0:0:0:
44,117,141672,1,0,0:0:0:0:
44,117,141739,5,0,0:0:0:0:
44,117,141939,1,8,0:0:0:0:
44,117,142039,1,8,0:0:0:0:
44,117,142139,1,0,0:0:0:0:
44,117,142239,1,0,0:0:0:0:
44,117,142339,1,8,0:0:0:0:
44,117,142539,1,0,0:0:0:0:
44,117,142639,1,0,0:0:0:0:
44,117,142739,1,8,0:0:0:0:
44,117,142839,1,0,0:0:0:0:
44,117,143039,1,0,0:0:0:0:
44,117,143139,1,8,0:0:0:0:
44,117,143339,1,0,0:0:0:0:
44,117,143439,1,0,0:0:0:0:
44,117,143539,1,8,0:0:0:0:
44,117,143739,5,0,0:0:0:0:
44,117,143839,1,8,0:0:0:0:
44,117,143939,1,0,0:0:0:0:
44,117,144039,1,0,0:0:0:0:
44,117,144139,1,8,0:0:0:0:
44,117,144339,1,8,0:0:0:0:
44,117,144439,1,8,0:0:0:0:
44,117,144539,1,0,0:0:0:0:
44,117,144639,1,8,0:0:0:0:
44,117,144739,1,8,0:0:0:0:
44,117,144839,1,8,0:0:0:0:
44,117,144939,5,0,0:0:0:0:
44,117,145139,1,8,0:0:0:0:
44,117,145239,1,8,0:0:0:0:
44,117,145339,1,0,0:0:0:0:
44,117,145539,1,8,0:0:0:0:
44,117,145639,1,0,0:0:0:0:
44,117,145739,1,0,0:0:0:0:
44,117,145839,1,0,0:0:0:0:
44,117,145939,1,8,0:0:0:0:
44,117,146039,1,0,0:0:0:0:
44,117,146139,1,8,0:0:0:0:
44,117,146239,1,8,0:0:0:0:
44,117,146339,1,0,0:0:0:0:
44,117,146539,5,0,0:0:0:0:
44,117,146739,1,8,0:0:0:0:
44,117,146839,1,8,0:0:0:0:
44,117,146939,1,0,0:0:0:0:
44,117,147139,1,8,0:0:0:0:
44,117,147239,1,8,0:0:0:0:
44,117,147339,1,0,0:0:0:0:
44,117,147439,1,0,0:0:0:0:
44,117,147539,1,0,0:0:0:0:
44,117,147639,1,8,0:0:0:0:
44,117,147739,1,0,0:0:0:0:
44,117,147839,1,0,0:0:0:0:
44,117,147939,1,8,0:0:0:0:
44,117,148139,5,0,0:0:0:0:
44,117,148339,1,0,0:0:0:0:
44,117,148439,1,8,0:0:0:0:
44,117,148639,1,0,0:0:0:0:
44,117,148739,1,8,0:0:0:0:
44,117,148839,1,8,0:0:0:0:
44,117,148939,1,0,0:0:0:0:
44,117,149139,1,8,0:0:0:0:
44,117,149239,1,0,0:0:0:0:
44,117,149439,1,0,0:0:0:0:
44,117,149539,1,8,0:0:0:0:
44,117,149739,5,0,0:0:0:0:
44,117,149839,1,8,0:0:0:0:
44,117,149939,1,8,0:0:0:0:
44,117,150039,1,8,0:0:0:0:
44,117,150139,1,0,0:0:0:0:
44,117,150339,1,8,0:0:0:0:
44,117,150439,1,0,0:0:0:0:
44,117,150539,1,8,0:0:0:0:
44,117,150739,1,8,0:0:0:0:
44,117,150839,1,8,0:0:0:0:
44,117,150939,1,0,0:0:0:0:
44,117,151039,1,0,0:0:0:0:
44,117,151139,1,8,0:0:0:0:
44,117,151239,1,0,0:0:0:0:
44,117,151339,5,0,0:0:0:0:
44,117,151539,1,0,0:0:0:0:
44,117,151639,1,8,0:0:0:0:
44,117,151739,1,0,0:0:0:0:
44,117,151805,1,0,0:0:0:0:
44,117,151872,1,0,0:0:0:0:
44,117,151939,1,0,0:0:0:0:
44,117,152039,1,8,0:0:0:0:
44,117,152139,1,0,0:0:0:0:
44,117,152239,1,8,0:0:0:0:
44,117,152339,1,0,0:0:0:0:
44,117,152439,1,0,0:0:0:0:
44,117,152539,1,0,0:0:0:0:
44,117,152605,1,0,0:0:0:0:
44,117,152672,1,0,0:0:0:0:
44,117,152739,1,0,0:0:0:0:
44,117,152939,5,0,0:0:0:0:
44,117,153005,1,0,0:0:0:0:
44,117,153072,1,0,0:0:0:0:
44,117,153139,1,0,0:0:0:0:
44,117,153239,1,8,0:0:0:0:
44,117,153339,1,0,0:0:0:0:
44,117,153405,1,0,0:0:0:0:
44,117,153472,1,0,0:0:0:0:
44,117,153539,1,0,0:0:0:0:
44,117,153639,1,8,0:0:0:0:
44,117,153739,5,0,0:0:0:0:
44,117,153805,1,0,0:0:0:0:
44,117,153872,1,0,0:0:0:0:
44,117,153939,1,0,0:0:0:0:
44,117,154039,1,8,0:0:0:0:
44,117,154139,1,8,0:0:0:0:
44,117,154239,1,0,0:0:0:0:
44,117,154339,1,8,0:0:0:0:
44,117,154439,1,0,0:0:0:0:
44,117,154539,5,8,0:0:0:0:
44,117,154739,1,8,0:0:0:0:
44,117,154839,1,0,0:0:0:0:
44,117,155039,1,0,0:0:0:0:
44,117,155139,1,8,0:0:0:0:
44,117,155339,1,0,0:0:0:0:
44,117,155439,1,8,0:0:0:0:
44,117,155539,1,8,0:0:0:0:
44,117,155639,1,8,0:0:0:0:
44,117,155739,1,0,0:0:0:0:
44,117,155939,1,8,0:0:0:0:
44,117,156005,1,8,0:0:0:0:
44,117,156072,1,0,0:0:0:0:
44,117,156139,5,8,0:0:0:0:
44,117,156239,1,0,0:0:0:0:
44,117,156339,1,8,0:0:0:0:
44,117,156439,1,0,0:0:0:0:
44,117,156539,1,8,0:0:0:0:
44,117,156639,1,8,0:0:0:0:
44,117,156739,1,0,0:0:0:0:
44,117,156839,1,8,0:0:0:0:
44,117,156939,1,8,0:0:0:0:
44,117,157039,1,0,0:0:0:0:
44,117,157139,1,8,0:0:0:0:
44,117,157239,1,0,0:0:0:0:
44,117,157339,1,8,0:0:0:0:
44,117,157439,1,8,0:0:0:0:
44,117,157539,1,8,0:0:0:0:
44,117,157639,1,0,0:0:0:0:
44,117,157739,5,8,0:0:0:0:
44,117,157839,1,0,0:0:0:0:
44,117,157939,1,8,0:0:0:0:
44,117,158039,1,8,0:0:0:0:
44,117,158139,1,0,0:0:0:0:
44,117,158239,1,0,0:0:0:0:
44,117,158339,1,8,0:0:0:0:
44,117,158439,1,0,0:0:0:0:
44,117,158539,1,8,0:0:0:0:
44,117,158639,1,0,0:0:0:0:
44,117,158739,1,8,0:0:0:0:
44,117,158839,1,8,0:0:0:0:
44,117,158939,1,0,0:0:0:0:
44,117,159039,1,0,0:0:0:0:
44,117,159139,1,8,0:0:0:0:
44,117,159339,5,8,0:0:0:0:
44,117,159439,1,8,0:0:0:0:
44,117,159539,1,0,0:0:0:0:
44,117,159639,1,8,0:0:0:0:
44,117,159739,1,0,0:0:0:0:
44,117,159839,1,8,0:0:0:0:
44,117,159939,1,8,0:0:0:0:
44,117,160039,1,0,0:0:0:0:
44,117,160139,1,8,0:0:0:0:
44,117,160239,1,8,0:0:0:0:
44,117,160339,1,0,0:0:0:0:
44,117,160439,1,8,0:0:0:0:
44,117,160539,1,0,0:0:0:0:
44,117,160639,1,8,0:0:0:0:
44,117,160739,1,8,0:0:0:0:
44,117,160839,1,0,0:0:0:0:
44,117,160939,5,0,0:0:0:0:
44,117,161039,1,0,0:0:0:0:
44,117,161139,1,8,0:0:0:0:
44,117,161239,1,8,0:0:0:0:
44,117,161339,1,0,0:0:0:0:
44,117,161439,1,8,0:0:0:0:
44,117,161539,1,8,0:0:0:0:
44,117,161639,1,8,0:0:0:0:
44,117,161739,1,0,0:0:0:0:
44,117,161839,1,0,0:0:0:0:
44,117,161939,1,8,0:0:0:0:
44,117,162039,1,0,0:0:0:0:
44,117,162139,1,8,0:0:0:0:
44,117,162239,1,8,0:0:0:0:
44,117,162339,1,8,0:0:0:0:
44,117,162539,5,8,0:0:0:0:
44,117,162639,1,8,0:0:0:0:
44,117,162739,1,0,0:0:0:0:
44,117,162839,1,8,0:0:0:0:
44,117,162939,1,8,0:0:0:0:
44,117,163039,1,8,0:0:0:0:
44,117,163139,1,0,0:0:0:0:
44,117,163239,1,8,0:0:0:0:
44,117,163339,1,8,0:0:0:0:
44,117,163439,1,0,0:0:0:0:
44,117,163539,1,8,0:0:0:0:
44,117,163639,1,8,0:0:0:0:
44,117,163739,1,0,0:0:0:0:
44,117,163839,1,8,0:0:0:0:
44,117,163939,1,8,0:0:0:0:
44,117,164039,1,8,0:0:0:0:
44,117,164139,5,8,0:0:0:0:
44,117,164239,1,0,0:0:0:0:
44,117,164339,1,8,0:0:0:0:
44,117,164439,1,8,0:0:0:0:
44,117,164539,1,8,0:0:0:0:
44,117,164639,1,0,0:0:0:0:
44,117,164739,1,8,0:0:0:0:
44,117,164839,1,0,0:0:0:0:
44,117,164939,1,8,0:0:0:0:
44,117,165039,1,8,0:0:0:0:
44,117,165139,1,8,0:0:0:0:
44,117,165239,1,8,0:0:0:0:
44,117,165339,1,0,0:0:0:0:
44,117,165439,1,8,0:0:0:0:
44,117,165539,1,8,0:0:0:0:
44,117,165739,5,0,0:0:0:0:
44,117,165839,1,0,0:0:0:0:
44,117,165939,1,8,0:0:0:0:
44,117,166039,1,0,0:0:0:0:
44,117,166139,1,0,0:0:0:0:
44,117,166239,1,0,0:0:0:0:
44,117,166339,1,8,0:0:0:0:
44,117,166439,1,0,0:0:0:0:
44,117,166539,1,0,0:0:0:0:
44,117,166639,1,0,0:0:0:0:
44,117,166739,1,8,0:0:0:0:
44,117,166839,1,0,0:0:0:0:
44,117,166939,1,8,0:0:0:0:
44,117,167039,1,8,0:0:0:0:
44,117,167139,1,8,0:0:0:0:
44,117,167339,5,8,0:0:0:0:
44,117,167439,1,8,0:0:0:0:
44,117,167539,1,8,0:0:0:0:
44,117,167639,1,0,0:0:0:0:
44,117,167739,1,8,0:0:0:0:
44,117,167839,1,8,0:0:0:0:
44,117,167939,1,0,0:0:0:0:
44,117,168039,1,8,0:0:0:0:
44,117,168139,1,8,0:0:0:0:
44,117,168239,1,0,0:0:0:0:
44,117,168339,1,8,0:0:0:0:
44,117,168439,1,0,0:0:0:0:
44,117,168539,1,8,0:0:0:0:
44,117,168639,1,0,0:0:0:0:
44,117,168739,1,8,0:0:0:0:
44,117,168805,1,8,0:0:0:0:
44,117,168872,1,0,0:0:0:0:
44,117,168939,5,8,0:0:0:0:
44,117,169039,1,8,0:0:0:0:
44,117,169139,1,8,0:0:0:0:
44,117,169239,1,0,0:0:0:0:
44,117,169339,1,8,0:0:0:0:
44,117,169439,1,8,0:0:0:0:
44,117,169539,1,8,0:0:0:0:
44,117,169639,1,0,0:0:0:0:
44,117,169739,1,0,0:0:0:0:
44,117,169839,1,0,0:0:0:0:
44,117,169939,1,8,0:0:0:0:
44,117,170039,1,8,0:0:0:0:
44,117,170139,1,0,0:0:0:0:
44,117,170239,1,0,0:0:0:0:
44,117,170339,1,8,0:0:0:0:
44,117,170539,5,8,0:0:0:0:
44,117,170639,1,0,0:0:0:0:
44,117,170739,1,0,0:0:0:0:
44,117,170839,1,0,0:0:0:0:
44,117,170939,1,8,0:0:0:0:
44,117,171039,1,0,0:0:0:0:
44,117,171139,1,8,0:0:0:0:
44,117,171239,1,0,0:0:0:0:
44,117,171339,1,8,0:0:0:0:
44,117,171439,1,8,0:0:0:0:
44,117,171539,1,8,0:0:0:0:
44,117,171639,1,0,0:0:0:0:
44,117,171739,1,8,0:0:0:0:
44,117,171839,1,8,0:0:0:0:
44,117,171939,1,8,0:0:0:0:
44,117,172139,5,0,0:0:0:0:
44,117,172239,1,0,0:0:0:0:
44,117,172339,1,8,0:0:0:0:
44,117,172439,1,0,0:0:0:0:
44,117,172539,1,8,0:0:0:0:
44,117,172639,1,8,0:0:0:0:
44,117,172739,1,0,0:0:0:0:
44,117,172839,1,8,0:0:0:0:
44,117,172939,1,0,0:0:0:0:
44,117,173039,1,0,0:0:0:0:
44,117,173139,1,8,0:0:0:0:
44,117,173239,1,0,0:0:0:0:
44,117,173339,1,8,0:0:0:0:
44,117,173439,1,8,0:0:0:0:
44,117,173539,1,0,0:0:0:0:
44,117,173639,1,8,0:0:0:0:
44,117,173739,5,0,0:0:0:0:
44,117,173839,1,0,0:0:0:0:
44,117,173939,1,0,0:0:0:0:
44,117,174039,1,8,0:0:0:0:
44,117,174139,1,0,0:0:0:0:
44,117,174239,1,8,0:0:0:0:
44,117,174339,1,8,0:0:0:0:
44,117,174439,1,0,0:0:0:0:
44,117,174539,1,8,0:0:0:0:
44,117,174639,1,0,0:0:0:0:
44,117,174739,1,8,0:0:0:0:
44,117,174839,1,8,0:0:0:0:
44,117,174939,1,0,0:0:0:0:
44,117,175039,1,8,0:0:0:0:
44,117,175139,1,8,0:0:0:0:
44,117,175339,5,0,0:0:0:0:
44,117,175539,1,8,0:0:0:0:
44,117,175639,1,0,0:0:0:0:
44,117,175739,1,8,0:0:0:0:
44,117,175839,1,8,0:0:0:0:
44,117,175939,1,0,0:0:0:0:
44,117,176039,1,0,0:0:0:0:
44,117,176139,1,0,0:0:0:0:
44,117,176239,1,8,0:0:0:0:
44,117,176339,1,8,0:0:0:0:
44,117,176439,1,0,0:0:0:0:
44,117,176539,1,8,0:0:0:0:
44,117,176639,1,8,0:0:0:0:
44,117,176739,1,0,0:0:0:0:
44,117,176839,1,0,0:0:0:0:
44,117,176939,5,8,0:0:0:0:
44,117,177139,1,0,0:0:0:0:
44,117,177239,1,0,0:0:0:0:
44,117,177339,1,8,0:0:0:0:
44,117,177439,1,0,0:0:0:0:
44,117,177539,1,0,0:0:0:0:
44,117,177639,1,0,0:0:0:0:
44,117,177739,1,8,0:0:0:0:
44,117,177839,1,0,0:0:0:0:
44,117,177939,1,0,0:0:0:0:
44,117,178039,1,8,0:0:0:0:
44,117,178139,1,0,0:0:0:0:
44,117,178239,1,0,0:0:0:0:
44,117,178339,1,8,0:0:0:0:
44,117,178439,1,0,0:0:0:0:
44,117,178539,1,8,0:0:0:0:
44,117,178739,1,0,0:0:0:0:
44,117,178839,1,0,0:0:0:0:
44,117,178939,1,8,0:0:0:0:
44,117,179039,1,8,0:0:0:0:
44,117,179139,1,8,0:0:0:0:
44,117,179239,1,0,0:0:0:0:
44,117,179339,1,8,0:0:0:0:
44,117,179439,1,8,0:0:0:0:
44,117,179539,1,0,0:0:0:0:
44,117,179639,1,0,0:0:0:0:
44,117,179739,1,8,0:0:0:0:
44,117,179839,1,0,0:0:0:0:
44,117,179939,1,0,0:0:0:0:
44,117,180039,1,0,0:0:0:0:
44,117,180139,1,8,0:0:0:0:
44,117,180339,1,0,0:0:0:0:
44,117,180439,1,0,0:0:0:0:
44,117,180539,1,8,0:0:0:0:
44,117,180639,1,0,0:0:0:0:
44,117,180739,1,8,0:0:0:0:
44,117,180839,1,8,0:0:0:0:
44,117,180939,1,0,0:0:0:0:
44,117,181005,1,0,0:0:0:0:
44,117,181072,1,0,0:0:0:0:
44,117,181139,1,0,0:0:0:0:
44,117,181205,1,0,0:0:0:0:
44,117,181272,1,0,0:0:0:0:
44,117,181339,1,0,0:0:0:0:
44,117,181405,1,0,0:0:0:0:
44,117,181472,1,0,0:0:0:0:
44,117,181539,1,0,0:0:0:0:
44,117,181605,1,0,0:0:0:0:
44,117,181672,1,0,0:0:0:0:
44,117,181739,5,0,0:0:0:0:
44,117,181939,1,8,0:0:0:0:
44,117,182039,1,8,0:0:0:0:
44,117,182139,1,0,0:0:0:0:
44,117,182339,1,0,0:0:0:0:
44,117,182439,1,8,0:0:0:0:
44,117,182539,1,0,0:0:0:0:
44,117,182639,1,0,0:0:0:0:
44,117,182739,1,8,0:0:0:0:
44,117,182939,1,8,0:0:0:0:
44,117,183039,1,0,0:0:0:0:
44,117,183139,1,0,0:0:0:0:
44,117,183239,1,8,0:0:0:0:
44,117,183339,5,0,0:0:0:0:
44,117,183539,1,8,0:0:0:0:
44,117,183639,1,8,0:0:0:0:
44,117,183739,1,0,0:0:0:0:
44,117,183839,1,0,0:0:0:0:
44,117,183939,1,8,0:0:0:0:
44,117,184139,1,0,0:0:0:0:
44,117,184239,1,0,0:0:0:0:
44,117,184339,1,8,0:0:0:0:
44,117,184439,1,0,0:0:0:0:
44,117,184639,1,0,0:0:0:0:
44,117,184739,1,8,0:0:0:0:
44,117,184939,5,0,0:0:0:0:
44,117,185039,1,0,0:0:0:0:
44,117,185139,1,0,0:0:0:0:
44,117,185239,1,0,0:0:0:0:
44,117,185339,1,8,0:0:0:0:
44,117,185539,1,0,0:0:0:0:
44,117,185639,1,0,0:0:0:0:
44,117,185739,1,8,0:0:0:0:
44,117,185839,1,8,0:0:0:0:
44,117,186039,1,0,0:0:0:0:
44,117,186139,1,8,0:0:0:0:
44,117,186339,1,8,0:0:0:0:
44,117,186439,1,0,0:0:0:0:
44,117,186539,5,8,0:0:0:0:
44,117,186739,1,8,0:0:0:0:
44,117,186839,1,8,0:0:0:0:
44,117,186939,1,0,0:0:0:0:
44,117,187039,1,0,0:0:0:0:
44,117,187139,1,8,0:0:0:0:
44,117,187239,1,8,0:0:0:0:
44,117,187339,1,0,0:0:0:0:
44,117,187439,1,8,0:0:0:0:
44,117,187539,1,8,0:0:0:0:
44,117,187639,1,0,0:0:0:0:
44,117,187739,1,8,0:0:0:0:
44,117,187839,1,0,0:0:0:0:
44,117,187939,1,8,0:0:0:0:
44,117,188039,1,8,0:0:0:0:
44,117,188139,5,0,0:0:0:0:
44,117,188339,1,0,0:0:0:0:
44,117,188439,1,0,0:0:0:0:
44,117,188539,1,8,0:0:0:0:
44,117,188639,1,0,0:0:0:0:
44,117,188739,1,8,0:0:0:0:
44,117,188939,1,8,0:0:0:0:
44,117,189039,1,8,0:0:0:0:
44,117,189139,1,0,0:0:0:0:
44,117,189239,1,8,0:0:0:0:
44,117,189439,1,0,0:0:0:0:
44,117,189539,1,8,0:0:0:0:
44,117,189739,5,0,0:0:0:0:
44,117,189839,1,0,0:0:0:0:
44,117,189939,1,8,0:0:0:0:
44,117,190039,1,0,0:0:0:0:
44,117,190139,1,8,0:0:0:0:
44,117,190339,1,0,0:0:0:0:
44,117,190439,1,8,0:0:0:0:
44,117,190639,1,0,0:0:0:0:
44,117,190739,1,0,0:0:0:0:
44,117,190839,1,8,0:0:0:0:
44,117,190939,1,0,0:0:0:0:
44,117,191039,1,0,0:0:0:0:
44,117,191139,1,8,0:0:0:0:
44,117,191239,1,0,0:0:0:0:
44,117,191339,5,8,0:0:0:0:
44,117,191539,1,8,0:0:0:0:
44,117,191639,1,8,0:0:0:0:
44,117,191739,1,0,0:0:0:0:
44,117,191939,1,0,0:0:0:0:
44,117,192039,1,8,0:0:0:0:
44,117,192139,1,0,0:0:0:0:
44,117,192239,1,0,0:0:0:0:
44,117,192339,1,8,0:0:0:0:
44,117,192439,1,0,0:0:0:0:
44,117,192639,1,0,0:0:0:0:
44,117,192739,1,8,0:0:0:0:
44,117,192839,1,8,0:0:0:0:
44,117,192939,5,0,0:0:0:0:
44,117,193039,1,0,0:0:0:0:
44,117,193139,1,0,0:0:0:0:
44,117,193239,1,0,0:0:0:0:
44,117,193339,1,8,0:0:0:0:
44,117,193439,1,8,0:0:0:0:
44,117,193539,1,0,0:0:0:0:
44,117,193639,1,0,0:0:0:0:
44,117,193739,1,8,0:0:0:0:
44,117,193839,1,8,0:0:0:0:
44,117,193939,1,0,0:0:0:0:
44,117,194039,1,8,0:0:0:0:
44,117,194239,1,0,0:0:0:0:
44,117,194339,1,8,0:0:0:0:
44,117,194405,1,8,0:0:0:0:
44,117,194472,1,8,0:0:0:0:
44,117,194539,5,8,0:0:0:0:
44,117,194739,1,0,0:0:0:0:
44,117,194839,1,0,0:0:0:0:
44,117,194939,1,8,0:0:0:0:
44,117,195139,1,8,0:0:0:0:
44,117,195239,1,8,0:0:0:0:
44,117,195339,1,0,0:0:0:0:
44,117,195439,1,8,0:0:0:0:
44,117,195539,1,8,0:0:0:0:
44,117,195739,1,0,0:0:0:0:
44,117,195839,1,0,0:0:0:0:
44,117,195939,1,8,0:0:0:0:
44,117,196039,1,0,0:0:0:0:
44,117,196139,5,0,0:0:0:0:
44,117,196339,1,8,0:0:0:0:
44,117,196439,1,0,0:0:0:0:
44,117,196539,1,0,0:0:0:0:
44,117,196639,1,0,0:0:0:0:
44,117,196739,1,8,0:0:0:0:
44,117,196939,1,8,0:0:0:0:
44,117,197039,1,8,0:0:0:0:
44,117,197139,1,0,0:0:0:0:
44,117,197239,1,8,0:0:0:0:
44,117,197439,1,0,0:0:0:0:
44,117,197539,1,8,0:0:0:0:
44,117,197739,5,8,0:0:0:0:
44,117,197839,1,0,0:0:0:0:
44,117,197939,1,0,0:0:0:0:
44,117,198039,1,8,0:0:0:0:
44,117,198239,1,0,0:0:0:0:
44,117,198339,1,8,0:0:0:0:
44,117,198539,1,8,0:0:0:0:
44,117,198639,1,0,0:0:0:0:
44,117,198739,1,0,0:0:0:0:
44,117,198839,1,8,0:0:0:0:
44,117,199039,1,0,0:0:0:0:
44,117,199139,1,8,0:0:0:0:
44,117,199339,5,0,0:0:0:0:
44,117,199439,1,0,0:0:0:0:
44,117,199539,1,8,0:0:0:0:
44,117,199639,1,8,0:0:0:0:
44,117,199739,1,0,0:0:0:0:
44,117,199839,1,0,0:0:0:0:
44,117,199939,1,8,0:0:0:0:
44,117,200139,1,0,0:0:0:0:
44,117,200239,1,0,0:0:0:0:
44,117,200339,1,0,0:0:0:0:
44,117,200439,1,8,0:0:0:0:
44,117,200539,1,0,0:0:0:0:
44,117,200639,1,0,0:0:0:0:
44,117,200739,1,8,0:0:0:0:
44,117,200839,1,0,0:0:0:0:
44,117,200939,5,8,0:0:0:0:
44,117,201139,1,0,0:0:0:0:
44,117,201239,1,0,0:0:0:0:
44,117,201339,1,8,0:0:0:0:
44,117,201539,1,8,0:0:0:0:
44,117,201639,1,0,0:0:0:0:
44,117,201739,1,8,0:0:0:0:
44,117,201839,1,8,0:0:0:0:
44,117,202039,1,0,0:0:0:0:
44,117,202139,1,8,0:0:0:0:
44,117,202239,1,8,0:0:0:0:
44,117,202339,1,0,0:0:0:0:
44,117,202539,5,0,0:0:0:0:
44,117,202639,1,0,0:0:0:0:
44,117,202739,1,8,0:0:0:0:
44,117,202839,1,0,0:0:0:0:
44,117,203039,1,0,0:0:0:0:
44,117,203139,1,8,0:0:0:0:
44,117,203339,1,0,0:0:0:0:
44,117,203439,1,0,0:0:0:0:
44,117,203539,1,8,0:0:0:0:
44,117,203639,1,0,0:0:0:0:
44,117,203739,1,0,0:0:0:0:
44,117,203839,1,0,0:0:0:0:
44,117,203939,1,8,0:0:0:0:
44,117,204139,5,0,0:0:0:0:
44,117,204239,1,0,0:0:0:0:
44,117,204339,1,0,0:0:0:0:
44,117,204439,1,0,0:0:0:0:
44,117,204539,1,8,0:0:0:0:
44,117,204639,1,0,0:0:0:0:
44,117,204739,1,0,0:0:0:0:
44,117,204839,1,0,0:0:0:0:
44,117,204939,1,8,0:0:0:0:
44,117,205039,1,0,0:0:0:0:
44,117,205139,1,0,0:0:0:0:
44,117,205239,1,0,0:0:0:0:
44,117,205339,1,8,0:0:0:0:
44,117,205439,1,0,0:0:0:0:
44,117,205539,1,0,0:0:0:0:
44,117,205639,1,0,0:0:0:0:
44,117,205739,5,8,0:0:0:0:
44,117,205839,1,0,0:0:0:0:
44,117,205939,1,8,0:0:0:0:
44,117,206039,1,8,0:0:0:0:
44,117,206139,1,0,0:0:0:0:
44,117,206239,1,8,0:0:0:0:
44,117,206339,1,8,0:0:0:0:
44,117,206439,1,8,0:0:0:0:
44,117,206539,5,0,0:0:0:0:
44,117,206605,1,0,0:0:0:0:
44,117,206672,1,0,0:0:0:0:
44,117,206739,1,0,0:0:0:0:
44,117,206805,1,0,0:0:0:0:
44,117,206872,1,0,0:0:0:0:
44,117,206939,1,0,0:0:0:0:
44,117,207005,1,0,0:0:0:0:
44,117,207072,1,0,0:0:0:0:
44,117,207139,1,0,0:0:0:0:
44,117,207205,1,0,0:0:0:0:
44,117,207272,1,0,0:0:0:0:
44,117,207339,5,0,0:0:0:0:
44,117,207739,1,8,0:0:0:0:
44,117,208139,1,0,0:0:0:0:
44,117,208539,1,8,0:0:0:0:
44,117,208939,1,0,0:0:0:0:
44,117,209339,1,0,0:0:0:0:
44,117,209739,1,8,0:0:0:0:
44,117,210539,5,0,0:0:0:0:
44,117,210939,1,8,0:0:0:0:
44,117,211139,1,0,0:0:0:0:
44,117,211339,1,8,0:0:0:0:
44,117,211739,1,0,0:0:0:0:
44,117,211939,1,8,0:0:0:0:
44,117,212139,1,0,0:0:0:0:
44,117,212539,1,0,0:0:0:0:
44,117,212739,1,8,0:0:0:0:
44,117,212939,1,0,0:0:0:0:
44,117,213139,1,0,0:0:0:0:
44,117,213339,1,8,0:0:0:0:
44,117,213739,5,0,0:0:0:0:
44,117,213939,1,8,0:0:0:0:
44,117,214039,1,8,0:0:0:0:
44,117,214139,1,0,0:0:0:0:
44,117,214239,1,0,0:0:0:0:
44,117,214339,1,8,0:0:0:0:
44,117,214539,1,0,0:0:0:0:
44,117,214739,1,8,0:0:0:0:
44,117,214839,1,0,0:0:0:0:
44,117,214939,1,0,0:0:0:0:
44,117,215039,1,8,0:0:0:0:
44,117,215139,1,8,0:0:0:0:
44,117,215339,5,0,0:0:0:0:
44,117,215439,1,0,0:0:0:0:
44,117,215539,1,8,0:0:0:0:
44,117,215739,1,0,0:0:0:0:
44,117,215839,1,0,0:0:0:0:
44,117,215939,1,8,0:0:0:0:
44,117,216139,1,0,0:0:0:0:
44,117,216339,1,8,0:0:0:0:
44,117,216439,1,8,0:0:0:0:
44,117,216539,1,0,0:0:0:0:
44,117,216639,1,8,0:0:0:0:
44,117,216739,1,8,0:0:0:0:
44,117,216939,5,0,0:0:0:0:
44,117,217039,1,8,0:0:0:0:
44,117,217239,1,0,0:0:0:0:
44,117,217339,1,8,0:0:0:0:
44,117,217439,1,8,0:0:0:0:
44,117,217539,1,0,0:0:0:0:
44,117,217739,1,0,0:0:0:0:
44,117,217839,1,0,0:0:0:0:
44,117,217939,1,8,0:0:0:0:
44,117,218039,1,0,0:0:0:0:
44,117,218239,1,0,0:0:0:0:
44,117,218339,1,8,0:0:0:0:
44,117,218539,5,0,0:0:0:0:
44,117,218639,1,0,0:0:0:0:
44,117,218739,1,0,0:0:0:0:
44,117,218839,1,0,0:0:0:0:
44,117,218939,1,8,0:0:0:0:
44,117,219039,1,8,0:0:0:0:
44,117,219139,1,0,0:0:0:0:
44,117,219239,1,0,0:0:0:0:
44,117,219339,5,8,0:0:0:0:
44,117,219539,1,0,0:0:0:0:
44,117,219639,1,8,0:0:0:0:
44,117,219739,1,0,0:0:0:0:
44,117,219805,1,0,0:0:0:0:
44,117,219872,1,0,0:0:0:0:
44,117,219939,1,0,0:0:0:0:
44,117,220005,1,0,0:0:0:0:
44,117,220072,1,0,0:0:0:0:
44,117,220139,5,12,0:0:0:0:
44,117,220339,1,0,0:0:0:0:
44,117,220439,1,0,0:0:0:0:
44,117,220539,5,12,0:0:0:0:
44,117,220639,1,8,0:0:0:0:
44,117,220739,1,8,0:0:0:0:
44,117,220839,1,0,0:0:0:0:
44,117,220939,1,8,0:0:0:0:
44,117,221039,1,8,0:0:0:0:
44,117,221139,1,0,0:0:0:0:
44,117,221239,1,0,0:0:0:0:
44,117,221339,1,8,0:0:0:0:
44,117,221439,1,8,0:0:0:0:
44,117,221539,1,8,0:0:0:0:
44,117,221739,5,0,0:0:0:0:
44,117,221839,1,0,0:0:0:0:
44,117,221939,1,8,0:0:0:0:
44,117,222039,1,0,0:0:0:0:
44,117,222139,1,8,0:0:0:0:
44,117,222239,1,8,0:0:0:0:
44,117,222339,1,8,0:0:0:0:
44,117,222439,1,0,0:0:0:0:
44,117,222539,1,0,0:0:0:0:
44,117,222639,1,0,0:0:0:0:
44,117,222739,1,8,0:0:0:0:
44,117,222839,1,0,0:0:0:0:
44,117,222939,1,8,0:0:0:0:
44,117,223039,1,8,0:0:0:0:
44,117,223139,1,8,0:0:0:0:
44,117,223339,5,0,0:0:0:0:
44,117,223439,1,0,0:0:0:0:
44,117,223539,1,8,0:0:0:0:
44,117,223639,1,0,0:0:0:0:
44,117,223739,5,8,0:0:0:0:
44,117,223839,1,8,0:0:0:0:
44,117,223939,1,8,0:0:0:0:
44,117,224039,1,0,0:0:0:0:
44,117,224139,1,8,0:0:0:0:
44,117,224239,1,8,0:0:0:0:
44,117,224339,1,8,0:0:0:0:
44,117,224439,1,0,0:0:0:0:
44,117,224539,1,8,0:0:0:0:
44,117,224639,1,0,0:0:0:0:
44,117,224739,1,0,0:0:0:0:
44,117,224839,1,0,0:0:0:0:
44,117,224939,5,8,0:0:0:0:
44,117,225039,1,8,0:0:0:0:
44,117,225139,1,0,0:0:0:0:
44,117,225239,1,0,0:0:0:0:
44,117,225339,5,8,0:0:0:0:
44,117,225439,1,8,0:0:0:0:
44,117,225539,1,0,0:0:0:0:
44,117,225639,1,8,0:0:0:0:
44,117,225739,1,0,0:0:0:0:
44,117,225839,1,0,0:0:0:0:
44,117,225939,1,8,0:0:0:0:
44,117,226039,1,8,0:0:0:0:
44,117,226139,1,0,0:0:0:0:
44,117,226239,1,8,0:0:0:0:
44,117,226339,1,8,0:0:0:0:
44,117,226539,5,0,0:0:0:0:
44,117,226639,1,0,0:0:0:0:
44,117,226739,1,8,0:0:0:0:
44,117,226839,1,8,0:0:0:0:
44,117,226939,5,0,0:0:0:0:
44,117,227039,1,8,0:0:0:0:
44,117,227139,1,0,0:0:0:0:
44,117,227239,1,0,0:0:0:0:
44,117,227339,1,8,0:0:0:0:
44,117,227439,1,8,0:0:0:0:
44,117,227539,1,0,0:0:0:0:
44,117,227639,1,8,0:0:0:0:
44,117,227739,1,8,0:0:0:0:
44,117,227839,1,8,0:0:0:0:
44,117,227939,1,0,0:0:0:0:
44,117,228039,1,0,0:0:0:0:
44,117,228139,5,8,0:0:0:0:
44,117,228239,1,8,0:0:0:0:
44,117,228339,1,8,0:0:0:0:
44,117,228439,1,0,0:0:0:0:
44,117,228539,5,8,0:0:0:0:
44,117,228639,1,8,0:0:0:0:
44,117,228739,1,8,0:0:0:0:
44,117,228839,1,8,0:0:0:0:
44,117,228939,1,0,0:0:0:0:
44,117,229039,1,8,0:0:0:0:
44,117,229139,1,8,0:0:0:0:
44,117,229239,1,0,0:0:0:0:
44,117,229339,1,8,0:0:0:0:
44,117,229439,1,8,0:0:0:0:
44,117,229539,1,8,0:0:0:0:
44,117,229739,5,0,0:0:0:0:
44,117,229939,1,0,0:0:0:0:
44,117,230039,1,8,0:0:0:0:
44,117,230139,1,0,0:0:0:0:
44,117,230239,1,0,0:0:0:0:
44,117,230339,1,8,0:0:0:0:
44,117,230439,1,8,0:0:0:0:
44,117,230539,5,0,0:0:0:0:
44,117,230739,1,8,0:0:0:0:
44,117,230839,1,8,0:0:0:0:
44,117,230939,1,0,0:0:0:0:
44,117,231039,1,8,0:0:0:0:
44,117,231139,1,8,0:0:0:0:
44,117,231239,1,8,0:0:0:0:
44,117,231339,5,0,0:0:0:0:
44,117,231539,1,8,0:0:0:0:
44,117,231639,1,8,0:0:0:0:
44,117,231739,5,0,0:0:0:0:
44,117,231839,1,8,0:0:0:0:
44,117,231939,1,0,0:0:0:0:
44,117,232039,1,0,0:0:0:0:
44,117,232139,1,8,0:0:0:0:
44,117,232239,1,8,0:0:0:0:
44,117,232339,1,0,0:0:0:0:
44,117,232439,1,8,0:0:0:0:
44,117,232539,1,8,0:0:0:0:
44,117,232639,1,0,0:0:0:0:
44,117,232739,1,8,0:0:0:0:
44,117,232805,1,8,0:0:0:0:
44,117,232872,1,0,0:0:0:0:
44,117,232939,5,8,0:0:0:0:
44,117,233039,1,8,0:0:0:0:
44,117,233139,1,0,0:0:0:0:
44,117,233239,1,0,0:0:0:0:
44,117,233339,1,8,0:0:0:0:
44,117,233439,1,0,0:0:0:0:
44,117,233539,1,8,0:0:0:0:
44,117,233639,1,8,0:0:0:0:
44,117,233739,1,0,0:0:0:0:
44,117,233839,1,8,0:0:0:0:
44,117,233939,1,0,0:0:0:0:
44,117,234039,1,8,0:0:0:0:
44,117,234139,1,8,0:0:0:0:
44,117,234239,1,0,0:0:0:0:
44,117,234339,1,0,0:0:0:0:
44,117,234439,1,8,0:0:0:0:
44,117,234539,5,8,0:0:0:0:
44,117,234639,1,0,0:0:0:0:
44,117,234739,1,0,0:0:0:0:
44,117,234839,1,0,0:0:0:0:
44,117,234939,1,8,0:0:0:0:
44,117,235039,1,0,0:0:0:0:
44,117,235139,1,8,0:0:0:0:
44,117,235239,1,0,0:0:0:0:
44,117,235339,1,8,0:0:0:0:
44,117,235439,1,8,0:0:0:0:
44,117,235539,1,8,0:0:0:0:
44,117,235639,1,0,0:0:0:0:
44,117,235739,1,8,0:0:0:0:
44,117,235839,1,8,0:0:0:0:
44,117,235939,1,8,0:0:0:0:
44,117,236139,5,0,0:0:0:0:
44,117,236239,1,0,0:0:0:0:
44,117,236339,1,0,0:0:0:0:
44,117,236439,1,8,0:0:0:0:
44,117,236539,1,0,0:0:0:0:
44,117,236639,1,0,0:0:0:0:
44,117,236739,1,8,0:0:0:0:
44,117,236839,1,8,0:0:0:0:
44,117,236939,1,0,0:0:0:0:
44,117,237039,1,8,0:0:0:0:
44,117,237139,1,8,0:0:0:0:
44,117,237239,1,8,0:0:0:0:
44,117,237339,1,0,0:0:0:0:
44,117,237439,1,8,0:0:0:0:
44,117,237539,1,8,0:0:0:0:
44,117,237639,1,8,0:0:0:0:
44,117,237739,5,0,0:0:0:0:
44,117,237839,1,0,0:0:0:0:
44,117,237939,1,0,0:0:0:0:
44,117,238039,1,8,0:0:0:0:
44,117,238139,1,0,0:0:0:0:
44,117,238239,1,8,0:0:0:0:
44,117,238339,1,8,0:0:0:0:
44,117,238439,1,0,0:0:0:0:
44,117,238539,1,8,0:0:0:0:
44,117,238639,1,8,0:0:0:0:
44,117,238739,1,0,0:0:0:0:
44,117,238839,1,0,0:0:0:0:
44,117,238939,1,8,0:0:0:0:
44,117,239039,1,8,0:0:0:0:
44,117,239139,1,8,0:0:0:0:
44,117,239339,5,0,0:0:0:0:
44,117,239539,1,8,0:0:0:0:
44,117,239639,1,0,0:0:0:0:
44,117,239739,1,8,0:0:0:0:
44,117,239839,1,8,0:0:0:0:
44,117,239939,1,0,0:0:0:0:
44,117,240139,1,0,0:0:0:0:
44,117,240239,1,8,0:0:0:0:
44,117,240339,1,8,0:0:0:0:
44,117,240439,1,0,0:0:0:0:
44,117,240539,1,8,0:0:0:0:
44,117,240639,1,8,0:0:0:0:
44,117,240739,1,0,0:0:0:0:
44,117,240839,1,0,0:0:0:0:
44,117,240939,5,8,0:0:0:0:
44,117,241139,1,0,0:0:0:0:
44,117,241239,1,0,0:0:0:0:
44,117,241339,1,8,0:0:0:0:
44,117,241439,1,0,0:0:0:0:
44,117,241539,1,0,0:0:0:0:
44,117,241639,1,0,0:0:0:0:
44,117,241739,1,8,0:0:0:0:
44,117,241839,1,0,0:0:0:0:
44,117,241939,1,0,0:0:0:0:
44,117,242039,1,8,0:0:0:0:
44,117,242139,1,0,0:0:0:0:
44,117,242239,1,0,0:0:0:0:
44,117,242339,1,8,0:0:0:0:
44,117,242439,1,0,0:0:0:0:
44,117,242539,5,8,0:0:0:0:
44,117,242739,1,0,0:0:0:0:
44,117,242839,1,0,0:0:0:0:
44,117,242939,1,8,0:0:0:0:
44,117,243039,1,8,0:0:0:0:
44,117,243139,1,8,0:0:0:0:
44,117,243239,1,0,0:0:0:0:
44,117,243339,1,8,0:0:0:0:
44,117,243439,1,8,0:0:0:0:
44,117,243539,1,0,0:0:0:0:
44,117,243639,1,0,0:0:0:0:
44,117,243739,1,8,0:0:0:0:
44,117,243839,1,0,0:0:0:0:
44,117,243939,1,0,0:0:0:0:
44,117,244039,1,0,0:0:0:0:
44,117,244139,5,8,0:0:0:0:
44,117,244339,1,0,0:0:0:0:
44,117,244439,1,0,0:0:0:0:
44,117,244539,1,8,0:0:0:0:
44,117,244639,1,0,0:0:0:0:
44,117,244739,1,0,0:0:0:0:
44,117,244839,1,0,0:0:0:0:
44,117,244939,5,0,0:0:0:0:
44,117,245005,1,0,0:0:0:0:
44,117,245072,1,0,0:0:0:0:
44,117,245139,1,0,0:0:0:0:
44,117,245205,1,0,0:0:0:0:
44,117,245272,1,0,0:0:0:0:
44,117,245339,1,0,0:0:0:0:
44,117,245405,1,0,0:0:0:0:
44,117,245472,1,0,0:0:0:0:
44,117,245539,1,0,0:0:0:0:
44,117,245605,1,0,0:0:0:0:
44,117,245672,1,0,0:0:0:0:
44,117,245739,5,0,0:0:0:0:
44,117,246539,1,8,0:0:0:0:
44,117,247339,1,0,0:0:0:0:
44,117,248139,1,0,0:0:0:0:
44,117,248239,1,8,0:0:0:0:
44,117,248439,1,0,0:0:0:0:
44,117,248539,1,0,0:0:0:0:
44,117,248605,1,0,0:0:0:0:
44,117,248672,1,0,0:0:0:0:
44,117,248739,1,0,0:0:0:0:
44,117,248805,1,0,0:0:0:0:
44,117,248872,1,0,0:0:0:0:
44,117,248939,1,0,0:0:0:0:
