osu file format v14

[General]
AudioFilename: audio.mp3
AudioLeadIn: 0
PreviewTime: 177784
Countdown: 0
SampleSet: Soft
StackLeniency: 0.7
Mode: 0
LetterboxInBreaks: 0
WidescreenStoryboard: 0

[Editor]
Bookmarks: 12414,23442,34470,56526,78583,100639,111667,122695,199892,210920,221948,232977
DistanceSpacing: 0.9
BeatDivisor: 4
GridSize: 4
TimelineZoom: 2

[Metadata]
Title:Dear You (DJ Genericname DnB Remix)
TitleUnicode:Dear You (DJ Genericname DnB Remix)
Artist:Yuzuki
ArtistUnicode:Yuzuki
Creator:Luscent
Version:Dear You
Source:ひぐらしのなく頃に
Tags:higurashi no naku koro ni when they cry 07th expansion drum and bass dnb remix dj genericname yuduki extended japanese pop
BeatmapID:3589616
BeatmapSetID:1754051

[Difficulty]
HPDrainRate:5
CircleSize:4
OverallDifficulty:8
ApproachRate:9
SliderMultiplier:1.6
SliderTickRate:1

[Events]
//Background and Video events
0,0,"3.jpg",0,0
//Break Periods
2,100839,111067
2,144951,155180
//Storyboard Layer 0 (Background)
//Storyboard Layer 1 (Fail)
//Storyboard Layer 2 (Pass)
//Storyboard Layer 3 (Foreground)
//Storyboard Layer 4 (Overlay)
//Storyboard Sound Samples

[TimingPoints]
1386,344.629523262493,4,2,0,30,1,0
1386,-133.333333333333,4,2,0,30,0,0
12414,-250,4,2,0,40,0,0
23442,-125,4,2,0,50,0,0
34470,-100,4,2,0,70,0,0
56526,-90.9090909090909,4,2,0,80,0,0
78583,-100,4,2,0,70,0,0
89611,-111.111111111111,4,2,0,70,0,0
111667,-100,4,2,0,70,0,0
117181,-83.3333333333333,4,2,0,70,0,0
118215,-100,4,2,0,70,0,0
118560,-83.3333333333333,4,2,0,70,0,0
119593,-100,4,2,0,70,0,0
119938,-100,4,2,0,80,0,0
122695,-90.9090909090909,4,1,0,90,0,1
144751,-90.9090909090909,4,1,0,70,0,0
155780,-125,4,2,0,50,0,0
166808,-100,4,2,0,70,0,0
172322,-76.9230769230769,4,2,0,70,0,0
173356,-100,4,2,0,70,0,0
173700,-76.9230769230769,4,2,0,70,0,0
174734,-100,4,2,0,70,0,0
175079,-100,4,2,0,80,0,0
177836,-90.9090909090909,4,1,0,100,0,1
199892,-100,4,2,0,80,0,0
210920,-200,4,2,0,50,0,0
221948,-142.857142857143,4,2,0,50,0,0
227462,-142.857142857143,4,2,0,40,0,0
230220,-142.857142857143,4,2,0,30,0,0
231598,-142.857142857143,4,2,0,45,0,0
231770,-142.857142857143,4,2,0,30,0,0
231943,-142.857142857143,4,2,0,45,0,0
232115,-142.857142857143,4,2,0,30,0,0
232287,-142.857142857143,4,2,0,45,0,0
232459,-142.857142857143,4,2,0,30,0,0
232632,-142.857142857143,4,2,0,45,0,0
232804,-142.857142857143,4,2,0,60,0,0

[Colours]
Combo1 : 255,0,128
Combo2 : 0,128,255
Combo3 : 128,0,255

[HitObjects]
45,284,1386,6,0,P|104:274|175:268,1,120.000004577637,6|2,0:2|0:0,0:0:0:0:
291,289,1902,1,0,0:0:0:0:
311,165,2075,1,0,0:0:0:0:
190,144,2247,1,0,0:0:0:0:
163,268,2419,1,2,0:0:0:0:
406,223,2592,6,0,P|400:177|400:132,1,60.0000022888184
406,223,2936,2,0,P|412:269|412:314,1,60.0000022888184,0|2,0:0|0:0,0:0:0:0:
364,359,3281,1,0,0:0:0:0:
278,352,3453,1,0,0:0:0:0:
126,267,3626,1,0,0:0:0:0:
212,274,3798,1,2,0:0:0:0:
71,341,3970,1,0,0:0:0:0:
102,244,4143,6,0,P|95:202|94:164,1,60.0000022888184
76,33,4487,1,2,0:0:0:0:
9,126,4659,1,0,0:0:0:0:
105,52,4832,2,0,P|143:48|184:38,1,60.0000022888184
318,98,5176,2,0,P|280:102|239:112,1,60.0000022888184,2|0,0:0|0:0,0:0:0:0:
436,1,5521,5,0,0:0:0:0:
318,98,5693,1,0,0:0:0:0:
468,78,5866,1,2,0:0:0:0:
350,8,6038,1,0,0:0:0:0:
401,144,6210,1,0,0:0:0:0:
370,34,6383,1,0,0:0:0:0:
435,242,6555,1,2,0:0:0:0:
493,165,6727,1,0,0:0:0:0:
334,208,6900,6,0,P|338:259|345:321,1,90.0000034332277
345,320,7244,1,2,0:0:0:0:
228,287,7417,1,0,0:0:0:0:
262,184,7589,1,0,0:0:0:0:
367,211,7761,1,0,0:0:0:0:
174,163,7933,2,0,P|135:155|102:149,1,60.0000022888184,2|0,0:0|0:0,0:0:0:0:
26,36,8278,6,0,P|39:78|42:108,1,60.0000022888184
17,180,8623,1,2,0:0:0:0:
17,180,8795,1,0,0:0:0:0:
115,151,8967,1,0,0:0:0:0:
41,93,9140,1,0,0:0:0:0:
90,240,9312,1,2,0:0:0:0:
198,198,9484,1,0,0:0:0:0:
294,236,9657,6,0,P|323:243|351:252,1,60.0000022888184
228,169,10001,1,2,0:0:0:0:
169,92,10174,2,0,P|139:84|111:75,1,60.0000022888184
258,140,10518,1,0,0:0:0:0:
351,178,10690,2,0,P|380:185|408:194,1,60.0000022888184,2|0,0:0|0:0,0:0:0:0:
489,129,11035,5,0,0:0:0:0:
451,41,11207,1,0,0:0:0:0:
378,98,11380,1,2,0:0:0:0:
408,194,11552,5,0,0:0:0:0:
438,290,11724,1,0,0:0:0:0:
314,246,11897,1,0,0:0:0:0:
492,155,12069,1,2,0:0:0:0:
311,220,12241,1,2,0:0:0:0:
191,53,12414,6,0,P|200:120|206:194,1,128,6|0,0:0|0:0,0:0:0:0:
205,180,13275,1,0,0:0:0:0:
205,180,13448,1,0,0:0:0:0:
45,320,13792,2,0,P|87:314|132:313,1,64,2|0,0:0|0:0,0:0:0:0:
187,358,14309,1,0,0:0:0:0:
300,273,14481,2,0,P|301:257|304:241,1,32
392,256,14826,2,0,P|390:271|387:287,1,32
321,164,15171,6,0,P|274:208|208:207,1,128,2|0,0:0|0:0,0:0:0:0:
213,208,16032,1,0,0:0:0:0:
213,208,16205,1,0,0:0:0:0:
169,145,16549,1,2,0:0:0:0:
212,75,16894,1,0,0:0:0:0:
291,86,17238,1,2,0:0:0:0:
27,28,17928,6,0,P|37:99|43:157,1,128,6|0,0:0|0:0,0:0:0:0:
42,154,18789,1,0,0:0:0:0:
42,154,18962,1,0,0:0:0:0:
211,139,19306,2,0,P|251:133|301:127,1,64,2|0,0:0|0:0,0:0:0:0:
359,149,19823,1,0,0:0:0:0:
453,71,19995,2,0,P|433:74|411:79,1,32
481,146,20340,2,0,P|501:143|523:138,1,32
389,0,20685,6,0,P|345:45|346:107,1,128,2|0,0:0|0:0,0:0:0:0:
346,107,21546,1,0,0:0:0:0:
346,107,21719,1,0,0:0:0:0:
346,107,21891,1,2,0:0:0:0:
463,232,22236,1,2,0:0:0:0:
443,229,22408,1,2,0:0:0:0:
423,226,22580,1,0,0:0:0:0:
299,313,22925,1,2,0:0:0:0:
295,300,23097,1,0,0:0:0:0:
291,287,23269,1,2,0:0:0:0:
199,258,23442,6,0,P|215:203|219:127,1,128,4|0,0:2|0:0,0:0:0:0:
210,6,23959,1,0,0:0:0:0:
249,147,24131,1,2,0:0:0:0:
314,58,24303,1,0,0:0:0:0:
138,102,24476,2,0,P|106:107|75:116,1,64,2|0,0:0|0:0,0:0:0:0:
5,257,24820,5,2,0:0:0:0:
149,201,24993,1,0,0:0:0:0:
3,168,25165,1,2,0:0:0:0:
97,283,25337,1,0,0:0:0:0:
75,115,25510,5,2,0:0:0:0:
97,283,25682,2,0,P|109:328|114:370,1,64,0|2,0:0|0:0,0:0:0:0:
318,272,26027,1,2,0:0:0:0:
318,272,26199,2,0,B|252:270|184:306,1,128,2|0,0:0|0:0,0:0:0:0:
399,188,26716,1,0,0:0:0:0:
399,188,26888,2,0,P|445:205|494:210,1,64,2|0,0:0|0:0,0:0:0:0:
253,136,27233,1,2,0:0:0:0:
355,201,27405,1,0,0:0:0:0:
446,123,27577,6,0,P|461:85|470:35,1,64,2|0,0:0|0:0,0:0:0:0:
467,248,27922,2,0,P|441:306|424:367,1,128,2|2,0:0|0:0,0:0:0:0:
287,350,28439,1,0,0:0:0:0:
157,325,28611,1,2,0:0:0:0:
157,325,28956,6,0,P|89:338|23:369,2,128,6|2|0,0:0|0:0|0:0,0:0:0:0:
235,286,29817,1,2,0:0:0:0:
314,231,29990,2,0,P|321:199|325:168,1,64,2|0,0:0|0:0,0:0:0:0:
326,268,30334,2,0,P|338:301|367:346,1,64,2|0,0:0|0:0,0:0:0:0:
167,196,30679,2,0,P|107:169|44:159,1,128,2|2,0:0|0:0,0:0:0:0:
45,159,31196,1,2,0:0:0:0:
206,99,31368,2,0,P|243:107|283:113,1,64
25,32,31713,6,0,L|50:184,1,128,2|0,0:0|0:0,0:0:0:0:
60,241,32230,1,2,0:0:0:0:
94,370,32402,2,0,P|108:327|127:295,1,64,2|0,0:0|0:0,0:0:0:0:
216,312,32747,1,2,0:0:0:0:
432,218,33091,6,0,P|435:146|414:75,2,128,2|0|0,0:0|0:0|0:0,0:0:0:0:
427,256,33953,1,2,0:0:0:0:
230,222,34125,1,0,1:0:0:0:
229,221,34470,6,0,P|190:230|151:236,1,80,6|0,1:2|0:0,0:0:0:0:
0,152,34815,2,0,P|62:169|110:159,1,80,0|2,1:0|0:0,0:0:0:0:
96,165,35073,1,0,0:0:0:0:
115,160,35159,1,2,0:0:0:0:
238,297,35332,1,0,1:0:0:0:
195,89,35504,2,0,P|188:48|181:-2,1,80,0|2,1:0|0:0,0:0:0:0:
320,139,35848,6,0,P|369:129|413:125,1,80,0|0,1:0|0:0,0:0:0:0:
169,331,36193,2,0,P|238:337|315:356,1,120,0|0,1:0|0:0,0:0:0:0:
315,354,36538,1,0,0:0:0:0:
333,213,36710,1,2,1:2:0:0:
188,192,36882,1,2,1:2:0:0:
169,331,37055,1,2,0:0:0:0:
394,291,37227,6,0,P|408:240|435:182,1,80,4|0,1:0|0:0,0:0:0:0:
261,160,37572,1,0,1:0:0:0:
430,25,37744,1,2,0:0:0:0:
430,25,37830,1,0,0:0:0:0:
430,25,37916,2,0,P|441:79|445:134,1,80,2|0,0:0|1:0,0:0:0:0:
394,291,38261,1,2,1:2:0:0:
261,160,38433,1,2,0:0:0:0:
106,271,38605,6,0,P|67:275|28:284,1,80,2|0,1:2|1:0,0:0:0:0:
300,250,38950,1,2,1:2:0:0:
89,157,39122,2,0,B|49:111|53:45,1,120,2|0,1:2|0:0,0:0:0:0:
61,20,39467,1,2,1:2:0:0:
283,162,39639,2,0,P|246:147|191:139,1,80,0|2,1:0|0:0,0:0:0:0:
418,173,39984,6,0,P|424:248|399:341,1,160,4|0,1:2|1:0,0:0:0:0:
404,329,40673,2,0,P|351:317|299:314,1,80,2|0,0:0|1:0,0:0:0:0:
69,317,41018,2,0,P|137:335|189:369,1,120,2|0,1:2|0:0,0:0:0:0:
198,383,41363,1,2,1:2:0:0:
296,240,41535,1,0,0:0:0:0:
128,231,41707,1,2,1:2:0:0:
298,207,41879,6,0,P|303:147|310:93,1,80,0|2,1:0|0:0,0:0:0:0:
307,107,42138,1,0,0:0:0:0:
310,87,42224,1,2,1:2:0:0:
414,278,42396,2,0,P|464:288|504:303,1,80,0|2,1:0|0:0,0:0:0:0:
128,231,42741,6,0,P|129:136|162:27,2,160,0|0|0,1:0|1:0|0:0,0:0:0:0:
255,347,43603,1,0,1:0:0:0:
375,239,43775,2,0,P|336:245|296:245,1,80,0|0,1:0|0:0,0:0:0:0:
26,325,44120,5,2,1:2:0:0:
150,306,44292,1,2,1:2:0:0:
7,150,44464,2,0,P|17:210|22:255,1,80,0|2,1:0|0:0,0:0:0:0:
269,309,44809,1,2,0:0:0:0:
269,309,44895,1,0,0:0:0:0:
269,309,44981,2,0,P|321:323|366:351,1,80,2|0,1:2|1:0,0:0:0:0:
112,160,45326,5,2,0:0:0:0:
112,160,45412,1,0,0:0:0:0:
112,160,45498,2,0,P|108:100|127:43,1,120,6|0,1:2|0:0,0:0:0:0:
142,22,45843,1,0,1:0:0:0:
266,148,46015,1,0,0:0:0:0:
131,243,46187,2,0,P|93:259|55:263,2,80,0|2|2,0:0|1:2|1:2,0:0:0:0:
282,175,46704,1,0,0:0:0:0:
182,26,46877,6,0,P|163:61|158:100,1,80,2|0,1:2|0:0,0:0:0:0:
249,305,47221,2,0,P|280:254|280:168,1,120,2|0,1:2|0:0,0:0:0:0:
282,175,47566,1,0,0:0:0:0:
386,214,47738,1,2,1:2:0:0:
288,87,47910,1,2,1:2:0:0:
164,185,48083,1,0,0:0:0:0:
249,305,48255,6,0,P|339:313|421:325,1,160,0|0,1:0|1:0,0:0:0:0:
507,199,48772,1,0,0:0:0:0:
406,73,48944,2,0,P|389:108|383:148,1,80,0|2,0:0|1:2,0:0:0:0:
174,268,49289,1,0,1:0:0:0:
277,365,49461,5,2,0:0:0:0:
277,365,49547,1,0,0:0:0:0:
277,365,49634,2,0,P|288:315|293:271,1,80,2|0,1:2|1:0,0:0:0:0:
171,160,49978,1,2,1:2:0:0:
20,216,50151,2,0,P|60:235|112:239,1,80,2|0,1:2|0:0,0:0:0:0:
205,258,50495,1,2,1:2:0:0:
290,83,50668,2,0,P|273:126|269:171,1,80,2|2,1:2|0:0,0:0:0:0:
273,178,50926,1,0,0:0:0:0:
281,195,51012,5,6,1:2:0:0:
62,143,51184,2,0,P|114:132|175:127,1,80,0|0,0:0|1:0,0:0:0:0:
262,0,51529,2,0,P|204:15|108:28,1,120,2|0,0:0|0:0,0:0:0:0:
126,29,51874,1,2,1:2:0:0:
346,152,52046,2,0,P|394:138|441:131,1,80,0|0,1:0|0:0,0:0:0:0:
153,216,52391,5,0,1:0:0:0:
303,245,52563,1,2,0:0:0:0:
303,245,52649,1,0,0:0:0:0:
303,245,52735,1,2,1:2:0:0:
240,149,52908,1,0,0:0:0:0:
215,305,53080,1,2,0:2:0:0:
367,328,53252,1,0,1:0:0:0:
391,172,53424,1,2,1:2:0:0:
203,327,53597,1,0,0:0:0:0:
39,266,53769,6,0,P|77:254|116:244,1,80,0|2,1:0|0:0,0:0:0:0:
308,94,54114,2,0,P|269:105|230:115,1,80,0|0,1:0|0:0,0:0:0:0:
39,40,54458,1,0,0:0:0:0:
26,143,54631,1,2,1:2:0:0:
137,155,54803,1,2,1:2:0:0:
150,52,54976,1,0,0:0:0:0:
26,143,55148,5,0,1:0:0:0:
126,260,55320,1,0,1:0:0:0:
244,170,55492,1,0,1:0:0:0:
150,52,55665,1,0,1:0:0:0:
237,277,55837,5,2,0:0:0:0:
237,277,55923,1,0,0:0:0:0:
237,277,56009,2,0,P|288:287|334:294,1,80,2|0,1:2|1:0,0:0:0:0:
437,60,56354,5,2,0:2:0:0:
437,60,56440,1,0,0:0:0:0:
437,61,56526,2,0,P|396:123|410:194,1,132.00000402832,6|0,1:2|0:0,0:0:0:0:
401,177,56871,2,0,L|508:201,1,88.000002685547,0|0,1:0|0:0,0:0:0:0:
234,100,57215,2,0,L|127:76,1,88.000002685547,0|2,0:0|1:2,0:0:0:0:
291,252,57560,5,2,1:2:0:0:
234,100,57732,1,2,0:2:0:0:
261,276,57905,2,0,P|271:322|277:373,1,88.000002685547,0|0,1:0|0:0,0:0:0:0:
56,300,58249,2,0,P|34:244|41:159,1,132.00000402832,0|0,1:0|0:0,0:0:0:0:
36,173,58594,1,2,0:0:0:0:
184,202,58766,1,2,1:2:0:0:
154,351,58939,1,0,1:0:0:0:
9,321,59111,1,0,0:0:0:0:
206,222,59283,6,0,P|249:229|292:235,1,88.000002685547,2|0,1:2|0:0,0:0:0:0:
392,169,59628,1,0,1:0:0:0:
458,310,59800,1,0,0:0:0:0:
374,141,59973,2,0,P|378:90|393:35,1,88.000002685547,2|0,0:0|1:0,0:0:0:0:
323,312,60317,1,2,1:2:0:0:
323,312,60489,1,0,0:0:0:0:
93,147,60662,6,0,P|98:193|99:252,1,88.000002685547,4|0,1:0|1:0,0:0:0:0:
269,369,61006,1,0,1:0:0:0:
194,194,61179,1,2,0:0:0:0:
53,345,61351,1,2,0:0:0:0:
53,345,61437,1,0,0:0:0:0:
53,345,61523,2,0,P|116:333|159:312,1,88.000002685547,6|0,1:2|1:2,0:0:0:0:
422,156,61868,5,2,0:0:0:0:
422,156,61954,1,2,0:0:0:0:
422,156,62040,2,0,B|313:131|276:228,1,176.000005371094,4|0,0:2|1:0,0:0:0:0:
252,24,62557,1,2,0:0:0:0:
180,104,62730,2,0,P|138:111|69:114,2,88.000002685547,2|0|0,0:0|1:0|1:0,0:0:0:0:
369,239,63246,1,2,0:0:0:0:
493,132,63419,6,0,P|406:120|329:101,1,132.00000402832,2|0,1:2|0:0,0:0:0:0:
362,110,63763,1,0,1:2:0:0:
323,330,63936,1,2,0:0:0:0:
323,330,64022,1,0,0:0:0:0:
323,330,64108,1,2,0:0:0:0:
456,230,64280,1,0,1:0:0:0:
231,172,64453,5,0,1:0:0:0:
243,259,64625,1,0,0:0:0:0:
426,303,64797,6,0,P|479:316|528:333,1,88.000002685547,2|0,1:2|0:0,0:0:0:0:
318,173,65142,1,0,1:0:0:0:
163,278,65314,2,0,P|110:265|61:248,1,88.000002685547,0|2,0:0|0:0,0:0:0:0:
64,236,65573,1,0,0:0:0:0:
57,215,65659,1,2,1:2:0:0:
127,361,65831,1,0,1:0:0:0:
143,190,66004,1,2,0:2:0:0:
23,308,66176,5,4,1:2:0:0:
196,275,66348,1,0,1:0:0:0:
315,162,66520,2,0,P|307:118|297:75,1,88.000002685547,0|2,1:0|0:0,0:0:0:0:
289,54,66779,1,0,0:0:0:0:
277,36,66865,1,2,0:0:0:0:
293,267,67037,1,4,1:2:0:0:
162,157,67210,1,4,1:0:0:0:
479,246,67382,5,2,0:0:0:0:
479,246,67468,1,0,0:0:0:0:
479,246,67554,2,0,B|422:190|336:201,1,132.00000402832,6|0,1:2|0:0,0:0:0:0:
359,199,67899,2,0,P|329:149|318:93,1,88.000002685547,0|0,1:0|0:0,0:0:0:0:
143,356,68244,2,0,P|179:332|221:318,1,88.000002685547,0|2,0:0|1:2,0:0:0:0:
7,264,68588,1,0,1:2:0:0:
143,356,68761,5,2,0:0:0:0:
143,356,68847,1,0,0:0:0:0:
143,356,68933,2,0,P|152:303|135:242,1,88.000002685547,2|0,1:2|0:0,0:0:0:0:
14,68,69278,2,0,P|20:137|61:193,1,132.00000402832,0|0,1:0|0:0,0:0:0:0:
54,187,69622,2,0,P|104:175|152:175,1,88.000002685547,0|2,0:0|1:2,0:0:0:0:
331,219,69967,1,0,1:0:0:0:
236,119,70139,5,2,0:0:0:0:
236,119,70225,1,0,0:0:0:0:
236,119,70311,2,0,P|241:67|255:13,1,88.000002685547,2|0,1:2|0:0,0:0:0:0:
509,276,70656,2,0,P|430:289|353:324,1,132.00000402832,0|0,1:0|0:0,0:0:0:0:
381,307,71001,1,2,0:2:0:0:
386,117,71173,1,2,1:2:0:0:
510,168,71345,1,0,1:2:0:0:
302,217,71518,6,0,P|256:212|190:208,1,88.000002685547,2|4,0:0|1:2,0:0:0:0:
137,272,71862,1,0,1:0:0:0:
0,57,72035,2,0,P|10:126|16:211,1,132.00000402832,0|0,1:0|0:0,0:0:0:0:
18,212,72379,1,2,0:0:0:0:
207,187,72551,1,4,1:2:0:0:
24,241,72724,1,2,1:2:0:0:
174,92,72896,5,2,0:0:0:0:
174,92,72982,1,0,0:0:0:0:
174,92,73068,2,0,P|231:103|277:117,1,88.000002685547,4|0,1:0|0:0,0:0:0:0:
421,35,73413,2,0,P|413:94|416:182,1,132.00000402832,4|0,1:2|0:0,0:0:0:0:
416,195,73758,1,2,0:2:0:0:
251,265,73930,1,2,1:2:0:0:
259,111,74102,1,2,1:2:0:0:
432,280,74275,5,2,0:0:0:0:
432,280,74361,1,0,0:0:0:0:
432,280,74447,2,0,P|424:334|417:386,1,88.000002685547,2|0,1:2|0:0,0:0:0:0:
113,321,74792,2,0,P|182:327|264:354,1,132.00000402832,4|0,1:2|0:0,0:0:0:0:
267,354,75136,1,2,0:0:0:0:
320,158,75309,1,2,1:2:0:0:
134,219,75481,1,0,1:0:0:0:
246,256,75653,1,2,0:0:0:0:
207,117,75825,6,0,P|197:71|184:24,1,88.000002685547,0|0,1:0|0:0,0:0:0:0:
376,341,76170,2,0,P|389:277|411:215,1,132.00000402832,4|0,1:2|0:0,0:0:0:0:
411,215,76515,2,0,P|405:171|391:130,1,88.000002685547,2|0,0:0|1:0,0:0:0:0:
40,239,76859,2,0,B|79:329|196:292,1,176.000005371094,0|4,1:0|1:0,0:0:0:0:
314,191,77376,1,0,1:0:0:0:
161,79,77549,2,0,P|157:122|161:166,1,88.000002685547,0|0,1:0|0:0,0:0:0:0:
269,350,77893,5,2,0:0:0:0:
298,323,77979,1,0,0:0:0:0:
337,308,78066,1,2,1:2:0:0:
377,305,78152,1,0,0:0:0:0:
416,308,78238,1,2,1:2:0:0:
243,153,78410,5,2,0:0:0:0:
243,153,78496,1,0,0:0:0:0:
243,153,78583,2,0,B|260:218|341:220,1,120,6|0,1:2|0:0,0:0:0:0:
332,219,78927,2,0,L|401:169,1,80,0|0,1:0|0:0,0:0:0:0:
134,282,79272,2,0,L|91:366,1,80,2|2,0:2|1:2,0:0:0:0:
1,93,79616,2,0,B|-18:157|22:212,1,120,2|0,1:2|0:0,0:0:0:0:
36,228,79961,5,2,1:2:0:0:
158,143,80133,1,0,0:0:0:0:
212,301,80306,1,2,1:2:0:0:
124,249,80478,1,0,0:0:0:0:
262,206,80650,5,2,0:2:0:0:
262,206,80736,1,0,0:0:0:0:
262,206,80823,1,2,1:2:0:0:
365,267,80995,1,0,1:0:0:0:
419,161,81167,1,2,0:0:0:0:
290,86,81340,6,0,P|243:98|191:100,1,80,2|0,1:2|0:0,0:0:0:0:
89,14,81684,2,0,B|42:64|60:126,1,120,0|0,1:0|0:0,0:0:0:0:
62,150,82029,1,2,0:2:0:0:
189,237,82201,1,2,1:2:0:0:
202,86,82373,1,2,1:2:0:0:
114,289,82546,5,0,0:0:0:0:
270,215,82718,1,2,1:2:0:0:
138,142,82890,1,0,1:0:0:0:
246,328,83063,2,0,P|244:276|252:230,1,80,2|0,1:2|0:0,0:0:0:0:
469,248,83407,1,2,0:2:0:0:
469,248,83493,1,0,0:0:0:0:
469,248,83580,2,0,P|425:273|373:282,1,80,0|0,1:0|1:0,0:0:0:0:
358,25,83924,5,2,0:0:0:0:
358,25,84010,1,0,0:0:0:0:
358,25,84097,2,0,B|411:56|401:151,1,120,4|0,1:0|0:0,0:0:0:0:
394,154,84441,1,0,1:0:0:0:
186,187,84614,2,0,P|232:178|292:179,1,80,0|2,0:0|0:2,0:0:0:0:
137,287,84958,1,2,1:2:0:0:
31,236,85130,2,0,P|14:185|11:131,1,80,2|0,1:2|0:0,0:0:0:0:
241,278,85475,6,0,P|230:329|217:378,1,80,0|0,1:0|0:0,0:0:0:0:
99,156,85820,2,0,P|110:91|140:7,1,120,0|0,1:0|0:0,0:0:0:0:
133,20,86164,1,2,0:2:0:0:
275,57,86337,1,2,1:2:0:0:
231,199,86509,1,2,1:2:0:0:
99,156,86681,1,0,0:0:0:0:
307,153,86854,6,0,P|359:158|414:171,1,80,0|0,1:0|0:0,0:0:0:0:
427,254,87198,2,0,P|441:312|447:364,1,80,0|0,1:0|0:0,0:0:0:0:
240,239,87543,2,0,P|188:247|142:255,1,80,2|2,0:0|1:2,0:0:0:0:
90,173,87888,2,0,P|76:124|73:68,1,80,0|2,1:0|0:0,0:0:0:0:
256,192,88232,12,0,89266,1:0:0:0:
141,38,89611,6,0,P|135:114|178:175,1,143.999995605469,6|0,1:2|1:0,0:0:0:0:
252,253,90128,1,0,0:0:0:0:
381,170,90300,2,0,P|341:166|306:170,1,71.9999978027344,2|0,0:0|1:0,0:0:0:0:
381,170,90645,2,0,P|421:174|456:170,1,71.9999978027344,0|0,1:0|0:0,0:0:0:0:
321,85,90989,5,0,1:0:0:0:
323,244,91161,1,0,1:0:0:0:
445,247,91334,1,0,0:0:0:0:
441,81,91506,1,0,1:0:0:0:
258,189,91678,6,0,P|222:195|187:204,2,71.9999978027344,2|0|0,0:0|1:0|1:0,0:0:0:0:
381,170,92195,1,0,0:0:0:0:
203,111,92368,2,0,B|148:86|130:35,1,107.999996704102,0|0,1:0|0:0,0:0:0:0:
124,12,92712,1,2,1:2:0:0:
17,160,92885,2,0,B|49:209|43:291,1,107.999996704102,0|0,1:0|0:0,0:0:0:0:
41,286,93229,1,2,1:2:0:0:
138,206,93402,1,0,1:0:0:0:
17,160,93574,1,0,0:0:0:0:
130,333,93746,6,0,P|177:326|224:326,1,71.9999978027344,0|0,1:0|1:0,0:0:0:0:
354,358,94091,1,2,1:2:0:0:
222,244,94263,1,2,1:2:0:0:
354,358,94435,1,0,0:0:0:0:
452,230,94608,5,0,1:0:0:0:
353,258,94780,1,0,1:0:0:0:
452,230,94952,1,2,0:0:0:0:
309,162,95125,6,0,P|269:163|230:169,1,71.9999978027344,4|0,1:0|0:0,0:0:0:0:
394,45,95469,1,0,1:0:0:0:
240,67,95642,2,0,P|165:80|82:87,1,143.999995605469,0|0,1:0|1:0,0:0:0:0:
0,50,96159,2,0,P|8:108|10:143,1,71.9999978027344,0|0,1:0|0:0,0:0:0:0:
0,218,96503,5,0,1:0:0:0:
88,206,96676,1,0,1:0:0:0:
242,261,96848,1,0,1:0:0:0:
154,273,97021,1,0,1:0:0:0:
238,229,97193,5,2,0:0:0:0:
326,217,97366,1,0,1:0:0:0:
364,89,97537,1,0,1:0:0:0:
417,203,97709,1,0,0:0:0:0:
478,61,97882,6,0,B|462:100|464:145,1,71.9999978027344,0|0,1:0|0:0,0:0:0:0:
390,339,98226,2,0,B|440:273|413:192,1,143.999995605469,0|2,1:0|0:0,0:0:0:0:
409,185,98657,1,0,0:0:0:0:
398,170,98743,1,2,1:2:0:0:
198,260,98916,2,0,P|252:264|290:272,1,71.9999978027344,0|2,1:0|0:0,0:0:0:0:
31,238,99260,5,6,1:2:0:0:
53,261,99346,1,0,0:0:0:0:
72,287,99433,1,2,1:2:0:0:
84,316,99519,1,0,0:0:0:0:
92,347,99605,1,0,1:0:0:0:
195,169,99777,1,2,1:2:0:0:
184,199,99863,1,0,0:0:0:0:
184,231,99950,1,0,0:0:0:0:
279,308,100122,5,2,1:2:0:0:
311,311,100208,1,0,0:0:0:0:
343,314,100294,1,4,1:1:0:0:
375,317,100380,1,0,0:0:0:0:
407,320,100466,1,2,0:2:0:0:
439,323,100553,1,0,0:0:0:0:
470,329,100639,1,6,1:2:0:0:
184,319,111667,6,0,P|147:334|107:336,1,80,4|0,1:2|0:0,0:0:0:0:
211,163,112012,2,0,P|231:203|231:254,1,80,0|0,1:2|0:2,0:2:0:0:
42,243,112356,2,0,P|27:206|31:166,1,80,2|0,0:0|1:0,0:0:0:0:
178,291,112701,2,0,L|192:388,1,80,0|0,1:0|0:0,0:0:0:0:
113,171,113045,6,0,B|81:75|153:7,1,160,0|0,1:0|1:0,0:0:0:0:
270,72,113562,1,2,0:0:0:0:
280,84,113649,1,0,0:0:0:0:
290,96,113735,2,0,P|343:109|392:105,1,80,2|0,0:0|1:0,0:0:0:0:
249,254,114079,2,0,P|204:272|168:308,1,80,0|2,1:0|0:0,0:0:0:0:
172,306,114338,1,0,0:0:0:0:
167,321,114424,1,2,1:2:0:0:
352,272,114596,5,2,0:0:0:0:
191,186,114769,2,0,P|170:151|158:113,1,80,0|0,1:0|0:0,0:0:0:0:
268,345,115113,1,2,0:0:0:0:
302,160,115286,1,0,1:0:0:0:
150,280,115458,2,0,P|113:293|74:302,1,80,0|0,1:0|0:0,0:0:0:0:
5,108,115803,5,2,1:2:0:0:
2,123,115889,1,0,0:0:0:0:
0,138,115975,2,0,P|10:192|15:232,1,80,2|0,1:2|0:0,0:0:0:0:
133,25,116319,1,2,1:2:0:0:
130,40,116405,1,0,0:0:0:0:
128,55,116492,2,0,P|138:109|143:149,1,80,2|0,1:2|1:0,0:0:0:0:
221,250,116836,1,2,1:2:0:0:
259,239,116923,1,0,0:0:0:0:
298,234,117009,1,2,0:0:0:0:
337,235,117095,1,0,0:0:0:0:
376,241,117181,6,0,P|393:153|404:43,1,191.999994140625,2|6,1:2|1:2,0:0:0:0:
403,51,118043,1,0,1:0:0:0:
475,259,118215,2,0,P|462:302|455:348,1,80,0|0,1:0|0:0,0:0:0:0:
140,235,118560,6,0,P|229:265|338:263,1,191.999994140625,0|6,1:0|1:2,0:0:0:0:
326,265,119421,1,0,1:0:0:0:
512,114,119593,2,0,P|472:119|432:121,1,80,0|0,1:0|0:0,0:0:0:0:
287,23,119938,5,4,1:2:0:0:
227,160,120110,1,0,1:0:0:0:
367,254,120283,1,0,1:0:0:0:
432,120,120455,1,0,1:0:0:0:
287,23,120627,6,0,B|274:67|295:104,1,80,4|0,1:2|1:0,0:0:0:0:
367,254,120972,2,0,B|380:210|359:173,1,80,0|0,1:0|1:0,0:0:0:0:
353,287,121317,5,4,1:2:0:0:
332,321,121403,1,0,1:0:0:0:
298,342,121489,1,0,1:0:0:0:
259,352,121575,1,0,1:0:0:0:
219,356,121661,1,0,1:0:0:0:
180,346,121747,1,0,1:0:0:0:
141,335,121834,1,0,1:0:0:0:
101,333,121920,1,0,1:0:0:0:
64,348,122006,1,4,1:2:0:0:
48,311,122092,1,0,1:0:0:0:
70,278,122178,1,0,1:0:0:0:
107,263,122264,1,0,1:0:0:0:
146,260,122350,5,4,1:2:0:0:
177,223,122437,1,0,1:0:0:0:
186,176,122523,1,0,1:0:0:0:
175,129,122609,1,0,1:0:0:0:
131,99,122695,6,2,B|72:137|-3:124,1,132.00000402832,6|0,0:2|0:0,0:0:0:0:
4,125,123040,2,0,P|2:63|7:16,1,88.000002685547,8|0,1:0|0:0,0:0:0:0:
186,176,123384,1,2,0:0:0:0:
4,125,123557,1,0,0:0:0:0:
186,176,123729,2,0,P|237:184|279:192,1,88.000002685547,10|0,0:0|0:0,0:0:0:0:
327,12,124074,6,0,P|306:50|307:107,1,88.000002685547,2|0,0:0|0:0,0:0:0:0:
401,300,124418,2,2,B|436:235|414:163,1,132.00000402832,10|0,0:0|0:0,0:0:0:0:
405,147,124763,1,0,0:0:0:0:
478,345,124935,1,2,0:0:0:0:
261,294,125107,1,10,0:0:0:0:
379,274,125280,1,0,0:0:0:0:
242,328,125452,6,2,P|173:316|89:306,1,132.00000402832,2|0,0:0|0:0,0:0:0:0:
82,305,125797,1,8,0:0:0:0:
230,249,125969,1,2,0:0:0:0:
230,249,126055,1,0,0:0:0:0:
230,249,126141,1,0,0:0:0:0:
262,100,126314,1,2,0:0:0:0:
322,297,126486,2,0,P|326:348|334:399,1,88.000002685547,10|0,0:0|0:0,0:0:0:0:
122,216,126831,6,0,P|75:226|23:231,2,88.000002685547,6|0|8,0:0|0:0|0:0,0:0:0:0:
334,158,127348,2,2,B|403:136|464:185|467:252,1,176.000005371094,6|2,0:0|0:0,0:0:0:0:
187,131,127865,2,0,B|165:68|177:16,1,88.000002685547,14|0,0:0|0:0,0:0:0:0:
175,22,128123,1,0,0:0:0:0:
181,0,128209,5,4,0:2:0:0:
341,119,128381,1,2,0:0:0:0:
161,215,128554,2,0,P|113:216|62:207,1,88.000002685547,8|2,0:0|0:0,0:0:0:0:
317,284,128898,1,2,0:0:0:0:
161,215,129071,1,0,0:0:0:0:
317,284,129243,2,2,P|377:307|421:332,1,88.000002685547,10|0,0:0|0:0,0:0:0:0:
508,153,129588,6,2,B|437:224|341:191,1,176.000005371094,2|10,0:0|0:0,0:0:0:0:
229,259,130105,1,0,0:0:0:0:
23,204,130277,2,0,B|72:204|112:232,1,88.000002685547,2|0,0:0|0:0,0:0:0:0:
228,104,130622,2,0,P|204:70|189:14,1,88.000002685547,10|0,0:0|0:0,0:0:0:0:
41,288,130966,5,2,0:0:0:0:
247,183,131139,1,0,0:0:0:0:
99,143,131311,1,10,0:0:0:0:
197,330,131483,1,2,0:0:0:0:
197,330,131569,1,0,0:0:0:0:
197,330,131655,2,0,P|244:318|297:311,1,88.000002685547,0|2,0:0|0:0,0:0:0:0:
432,231,132000,1,10,0:0:0:0:
247,183,132172,1,0,0:0:0:0:
394,193,132345,5,6,0:0:0:0:
426,273,132517,1,0,0:0:0:0:
478,210,132689,1,8,0:0:0:0:
342,23,132862,1,2,0:0:0:0:
334,33,132948,1,0,0:0:0:0:
328,45,133034,2,0,B|307:93|309:145,1,88.000002685547,4|0,0:0|0:0,0:0:0:0:
212,306,133379,1,10,0:0:0:0:
172,310,133465,1,0,0:0:0:0:
133,317,133551,1,0,0:0:0:0:
93,318,133637,1,0,0:0:0:0:
62,293,133723,6,2,P|53:204|49:111,1,176.000005371094,6|10,0:2|0:0,0:0:0:0:
153,45,134240,1,0,0:0:0:0:
258,118,134412,2,0,P|309:130|361:139,1,88.000002685547,2|0,0:0|0:0,0:0:0:0:
472,292,134757,2,0,P|454:238|451:186,1,88.000002685547,10|0,0:0|0:0,0:0:0:0:
451,193,135016,1,0,0:0:0:0:
453,180,135102,5,2,0:0:0:0:
351,384,135274,1,0,0:0:0:0:
189,318,135446,2,0,P|146:306|103:300,1,88.000002685547,8|2,0:0|0:0,0:0:0:0:
416,248,135791,1,2,0:0:0:0:
254,215,135963,1,0,0:0:0:0:
416,248,136136,2,0,P|458:259|501:265,1,88.000002685547,10|0,0:0|0:0,0:0:0:0:
162,202,136480,6,2,B|112:152|120:65,1,132.00000402832,2|0,0:0|0:0,0:0:0:0:
127,51,136825,1,8,0:0:0:0:
20,208,136997,1,0,0:0:0:0:
190,187,137170,1,2,0:0:0:0:
320,305,137342,1,2,0:0:0:0:
307,169,137514,5,8,0:0:0:0:
205,314,137686,1,2,0:0:0:0:
307,169,137859,2,0,P|296:114|294:61,1,88.000002685547,4|2,0:0|0:0,0:0:0:0:
398,361,138203,1,10,0:0:0:0:
205,314,138376,1,0,0:0:0:0:
205,314,138462,1,0,0:0:0:0:
205,314,138548,2,2,P|150:311|59:324,1,132.00000402832,6|2,0:0|0:0,0:0:0:0:
73,320,138893,2,0,P|51:268|44:219,1,88.000002685547,8|2,0:0|0:0,0:0:0:0:
129,27,139237,5,6,0:1:0:0:
219,106,139410,1,0,0:2:0:0:
198,225,139582,1,8,0:0:0:0:
107,145,139755,1,2,0:0:0:0:
320,33,139927,2,0,L|411:82,1,88.000002685547,0|4,0:0|0:0,0:0:0:0:
397,74,140185,1,0,0:0:0:0:
397,74,140271,2,0,P|416:123|405:187,1,88.000002685547,10|0,0:0|0:0,0:0:0:0:
363,295,140616,6,2,B|304:277|269:220|304:144,1,176.000005371094,6|10,0:0|0:0,0:0:0:0:
299,154,141133,1,0,0:0:0:0:
209,348,141305,1,0,0:0:0:0:
0,261,141477,2,2,P|46:254|107:242,1,88.000002685547,6|10,0:0|0:0,0:0:0:0:
86,246,141822,1,0,0:0:0:0:
192,34,141994,6,2,B|179:109|205:95|192:180,1,132.00000402832,6|0,0:0|0:0,0:0:0:0:
194,165,142339,2,0,P|236:177|276:195,1,88.000002685547,8|2,0:0|0:0,0:0:0:0:
41,162,142684,2,0,P|13:117|3:52,1,88.000002685547,0|2,0:0|0:0,0:0:0:0:
313,99,143028,2,2,B|380:86|435:160|393:228,1,176.000005371094,12|6,0:0|0:0,0:0:0:0:
256,192,143545,12,4,144751,0:0:0:0:
40,236,155780,6,0,P|105:230|171:217,1,128,6|0,0:2|0:0,0:0:0:0:
245,265,156296,1,2,0:0:0:0:
347,137,156469,2,0,P|352:173|360:211,1,64,2|0,0:0|0:0,0:0:0:0:
347,137,156813,2,0,P|342:101|334:63,1,64,2|0,0:0|0:0,0:0:0:0:
266,7,157158,1,0,0:0:0:0:
173,30,157330,1,0,0:0:0:0:
146,122,157503,1,2,0:0:0:0:
240,106,157675,1,0,0:0:0:0:
173,30,157847,6,0,B|162:67|164:93,1,64
277,245,158192,2,0,B|288:208|285:181,1,64,2|0,0:0|0:0,0:0:0:0:
206,279,158537,2,0,B|270:281|330:306,1,128,2|2,0:0|0:0,0:0:0:0:
383,225,159054,2,0,P|413:217|445:212,2,64,2|0|0,0:0|0:0|0:0,0:0:0:0:
240,106,159570,2,0,P|220:145|216:176,1,64,2|0,0:0|0:0,0:0:0:0:
43,330,159915,6,0,P|74:334|106:334,1,64,2|0,0:0|0:0,0:0:0:0:
201,368,160260,2,0,P|203:284|188:205,1,128,2|0,0:0|0:0,0:0:0:0:
125,170,160777,1,2,0:0:0:0:
96,267,160949,1,2,0:0:0:0:
197,241,161121,1,0,0:0:0:0:
266,162,161294,6,0,P|263:130|258:98,1,64,2|0,0:0|0:0,0:0:0:0:
368,206,161638,2,0,P|386:260|389:364,1,128,2|0,0:0|0:0,0:0:0:0:
392,330,162155,1,2,0:0:0:0:
485,241,162327,2,0,P|489:210|496:179,1,64,2|0,0:0|0:0,0:0:0:0:
384,172,162672,6,0,P|352:164|323:151,1,64
254,25,163017,2,0,P|197:73|206:148,1,128,2|0,0:0|0:0,0:0:0:0:
137,184,163534,1,2,0:0:0:0:
237,276,163706,2,0,P|287:263|343:257,1,64,2|0,0:0|0:0,0:0:0:0:
129,318,164051,6,0,P|157:351|182:371,1,64,2|0,0:0|0:0,0:0:0:0:
34,195,164395,2,0,P|33:239|40:277,1,64,2|0,0:0|0:0,0:0:0:0:
176,67,164740,2,0,P|142:118|144:207,1,128,2|0,0:0|0:0,0:0:0:0:
199,250,165257,1,0,0:0:0:0:
366,191,165429,6,0,P|327:196|280:199,2,64,2|0|0,0:0|0:0|0:0,0:0:0:0:
432,44,165946,2,0,P|372:68|309:73,1,128,2|0,0:0|0:0,0:0:0:0:
505,144,166463,1,2,1:2:0:0:
505,144,166808,6,0,P|498:183|493:223,1,80,4|0,1:2|0:0,0:0:0:0:
442,355,167152,1,0,1:0:0:0:
341,306,167325,1,2,0:0:0:0:
341,306,167411,1,0,0:0:0:0:
341,306,167497,2,0,P|292:311|240:322,1,80,2|0,0:0|1:0,0:0:0:0:
18,209,167842,2,0,B|68:251|137:240,1,120,0|0,1:0|0:0,0:0:0:0:
159,219,168186,5,0,1:0:0:0:
84,136,168359,1,0,1:0:0:0:
139,321,168531,1,0,1:0:0:0:
294,237,168703,1,2,0:0:0:0:
294,237,168789,1,0,0:0:0:0:
294,237,168875,2,0,P|305:176|317:133,1,80,2|0,0:0|1:0,0:0:0:0:
431,36,169220,2,0,B|454:73|451:117,1,80,0|2,1:0|0:0,0:0:0:0:
446,136,169479,1,0,0:0:0:0:
435,157,169565,5,2,1:2:0:0:
294,237,169737,1,0,0:0:0:0:
141,130,169909,2,0,P|186:134|232:146,1,80,0|0,1:0|0:0,0:0:0:0:
360,316,170254,5,2,0:0:0:0:
208,231,170427,1,0,1:0:0:0:
346,114,170599,2,0,P|360:151|365:190,1,80,0|0,1:0|0:0,0:0:0:0:
16,317,170943,6,0,P|61:306|131:305,2,80,0|0|0,1:0|1:0|1:0,0:0:0:0:
56,143,171460,2,0,B|105:221|201:189,1,160,0|0,1:0|1:0,0:0:0:0:
372,225,171977,1,2,1:2:0:0:
400,197,172063,1,0,0:0:0:0:
415,160,172149,1,2,0:2:0:0:
416,119,172236,1,0,0:0:0:0:
402,77,172322,6,0,B|325:4|236:84|268:148,1,207.999990478516,2|6,1:2|1:2,0:0:0:0:
264,139,173183,1,0,1:0:0:0:
484,237,173356,2,0,P|491:175|498:136,1,80,0|0,1:0|0:0,0:0:0:0:
153,239,173700,6,0,B|134:323|241:377|289:324,1,207.999990478516,0|6,1:0|1:2,0:0:0:0:
286,327,174562,1,0,1:0:0:0:
343,133,174734,2,0,P|303:133|263:139,1,80,0|0,1:0|0:0,0:0:0:0:
126,244,175079,5,4,1:2:0:0:
56,111,175251,1,0,1:0:0:0:
189,7,175424,1,0,1:0:0:0:
264,139,175596,1,0,1:0:0:0:
126,244,175768,6,0,B|113:200|134:163,1,80,4|0,1:2|1:0,0:0:0:0:
189,7,176113,2,0,B|202:51|181:88,1,80,0|0,1:0|1:0,0:0:0:0:
142,278,176457,5,4,1:2:0:0:
173,302,176543,1,0,1:0:0:0:
211,313,176630,1,0,1:0:0:0:
250,310,176716,1,0,1:0:0:0:
286,293,176802,1,0,1:0:0:0:
324,282,176888,1,0,1:0:0:0:
363,278,176974,1,0,1:0:0:0:
401,286,177060,1,0,1:0:0:0:
436,304,177147,1,4,1:2:0:0:
420,267,177233,1,0,1:0:0:0:
422,227,177319,1,0,1:0:0:0:
439,191,177405,1,0,1:0:0:0:
458,156,177491,5,4,1:2:0:0:
446,109,177577,1,0,1:0:0:0:
412,73,177664,1,0,1:0:0:0:
365,61,177750,1,0,1:0:0:0:
319,76,177836,6,2,B|241:88|258:62|180:73,1,132.00000402832,6|0,0:2|0:0,0:0:0:0:
147,33,178180,2,0,P|154:88|156:141,1,88.000002685547,8|0,1:0|0:0,0:0:0:0:
195,356,178525,1,2,0:0:0:0:
270,130,178697,1,0,0:0:0:0:
22,262,178870,2,0,P|67:267|118:279,1,88.000002685547,10|0,0:0|0:0,0:0:0:0:
292,155,179214,6,2,B|340:207|331:285,1,132.00000402832,2|0,0:0|0:0,0:0:0:0:
331,276,179559,2,2,P|280:268|235:267,1,88.000002685547,10|0,0:0|0:0,0:0:0:0:
30,131,179904,1,0,0:0:0:0:
214,189,180076,1,2,0:0:0:0:
30,131,180248,1,10,0:0:0:0:
135,43,180421,1,0,0:0:0:0:
64,242,180593,6,2,P|134:218|223:220,1,132.00000402832,2|0,0:0|0:0,0:0:0:0:
214,189,180937,2,0,P|267:211|315:222,1,88.000002685547,8|2,0:0|0:0,0:0:0:0:
322,213,181196,1,0,0:0:0:0:
346,202,181282,1,0,0:0:0:0:
418,86,181454,1,2,0:0:0:0:
258,20,181627,2,0,P|264:80|276:123,1,88.000002685547,10|0,0:0|0:0,0:0:0:0:
462,333,181971,6,2,P|468:263|484:181,1,132.00000402832,6|0,0:0|0:0,0:0:0:0:
478,202,182316,2,0,P|425:214|373:208,1,88.000002685547,8|6,0:0|0:0,0:0:0:0:
114,297,182661,2,2,B|206:291|277:358,1,176.000005371094,2|14,0:0|0:0,0:0:0:0:
102,152,183178,5,0,0:0:0:0:
102,152,183264,1,0,0:0:0:0:
102,152,183350,2,0,B|135:183|187:188,1,88.000002685547,4|2,0:2|0:0,0:0:0:0:
350,50,183695,2,0,P|309:26|259:15,1,88.000002685547,8|2,0:0|0:0,0:0:0:0:
317,221,184039,1,2,0:0:0:0:
350,50,184211,1,0,0:0:0:0:
317,221,184384,2,2,P|329:279|335:331,1,88.000002685547,10|0,0:0|0:0,0:0:0:0:
83,341,184728,6,2,P|70:298|66:255,1,88.000002685547,2|0,0:0|0:0,0:0:0:0:
58,95,185073,2,2,B|117:48|194:102|175:168,1,176.000005371094,10|2,0:0|0:0,0:0:0:0:
66,255,185590,1,2,0:0:0:0:
58,95,185762,1,8,0:0:0:0:
241,213,185935,1,2,0:0:0:0:
433,197,186107,6,2,P|414:279|403:380,1,176.000005371094,2|10,0:0|0:0,0:0:0:0:
471,105,186624,1,2,0:0:0:0:
471,105,186796,2,0,P|480:48|480:-8,1,88.000002685547,0|2,0:0|0:0,0:0:0:0:
326,140,187141,2,0,P|278:128|220:123,1,88.000002685547,10|0,0:0|0:0,0:0:0:0:
218,126,187399,1,0,0:0:0:0:
197,133,187485,1,6,0:0:0:0:
339,55,187658,5,0,0:0:0:0:
178,144,187830,1,8,1:0:0:0:
296,273,188002,1,2,0:0:0:0:
450,195,188175,1,4,0:0:0:0:
450,195,188261,1,0,0:0:0:0:
450,195,188347,1,0,0:0:0:0:
296,273,188519,2,0,P|255:260|211:253,1,88.000002685547,10|4,0:0|0:0,0:0:0:0:
38,303,188864,6,2,P|125:311|211:329,1,176.000005371094,6|10,0:2|0:0,0:0:0:0:
398,384,189381,1,0,0:0:0:0:
338,206,189553,1,2,0:0:0:0:
338,206,189639,1,0,0:0:0:0:
338,206,189726,2,0,P|349:152|365:102,1,88.000002685547,0|10,0:0|0:0,0:0:0:0:
265,49,190070,1,0,0:0:0:0:
434,228,190242,6,0,P|481:244|523:276,1,88.000002685547,2|0,0:0|0:0,0:0:0:0:
195,200,190587,2,2,B|122:229|61:163|85:99,1,176.000005371094,10|2,0:0|0:0,0:0:0:0:
169,15,191104,1,0,0:0:0:0:
279,94,191276,1,10,0:0:0:0:
195,200,191449,1,0,0:0:0:0:
81,113,191621,6,2,P|69:70|65:26,1,88.000002685547,2|0,0:0|0:0,0:0:0:0:
9,297,191966,2,0,P|50:282|94:276,1,88.000002685547,8|0,0:0|0:0,0:0:0:0:
116,275,192224,1,0,0:0:0:0:
137,277,192310,1,2,0:0:0:0:
36,175,192483,1,2,0:0:0:0:
114,373,192655,1,8,0:0:0:0:
263,285,192827,1,2,0:0:0:0:
350,334,193000,6,0,P|393:338|436:347,2,88.000002685547,4|2|10,0:0|0:0|0:0,0:0:0:0:
274,80,193516,2,2,B|335:120|323:204,1,132.00000402832,6|0,0:0|0:0,0:0:0:0:
316,223,193861,1,2,0:0:0:0:
211,343,194033,1,8,0:0:0:0:
435,208,194206,5,2,0:0:0:0:
435,208,194292,1,0,0:0:0:0:
435,207,194378,2,0,P|439:163|448:120,1,88.000002685547,6|0,0:2|0:0,0:0:0:0:
210,206,194723,2,0,P|203:162|192:119,1,88.000002685547,8|2,0:0|0:0,0:0:0:0:
211,343,195067,1,2,0:0:0:0:
17,308,195240,1,0,0:0:0:0:
211,343,195412,2,0,P|253:353|295:368,1,88.000002685547,10|0,0:0|0:0,0:0:0:0:
103,98,195757,6,2,B|75:138|86:188,1,88.000002685547,6|0,0:0|0:0,0:0:0:0:
310,280,196101,2,2,B|350:221|336:143,1,132.00000402832,10|0,0:0|0:0,0:0:0:0:
323,125,196446,1,0,0:0:0:0:
446,55,196618,1,2,0:0:0:0:
391,206,196790,1,10,0:0:0:0:
512,288,196963,1,0,0:0:0:0:
293,210,197135,6,2,P|201:198|113:188,1,176.000005371094,6|8,0:0|0:0,0:0:0:0:
163,11,197652,1,2,0:0:0:0:
163,11,197738,1,0,0:0:0:0:
163,11,197824,2,0,B|202:40|196:98,1,88.000002685547,0|2,0:0|0:0,0:0:0:0:
50,294,198169,2,2,B|-25:228|9:126,1,176.000005371094,12|6,0:0|1:0,0:0:0:0:
256,192,198600,12,0,199547,0:0:0:0:
286,278,199892,6,0,P|312:218|367:167,1,120,4|0,1:2|0:0,0:0:0:0:
349,178,200237,2,0,P|364:141|364:102,1,80,0|0,1:0|0:0,0:0:0:0:
173,34,200581,1,2,0:0:0:0:
153,189,200754,1,0,1:0:0:0:
291,124,200926,1,0,1:0:0:0:
185,210,201098,1,2,0:0:0:0:
53,158,201271,6,0,P|50:198|57:240,1,80,0|0,1:0|0:0,0:0:0:0:
1,346,201615,2,0,B|90:335|63:361|160:351,1,160,0|0,1:0|0:0,0:0:0:0:
318,256,202132,2,0,P|278:260|239:270,2,80,0|0|0,1:0|1:0|0:0,0:0:0:0:
429,290,202649,6,0,P|444:191|445:91,1,160,0|0,1:0|1:0,0:0:0:0:
275,28,203166,1,2,0:0:0:0:
275,28,203252,1,0,0:0:0:0:
275,28,203338,2,0,P|272:78|287:123,1,80,2|0,0:0|1:0,0:0:0:0:
318,256,203683,1,0,1:0:0:0:
446,131,203855,1,0,0:0:0:0:
219,201,204028,6,0,P|177:208|125:223,1,80,4|0,1:0|1:0,0:0:0:0:
78,84,204372,1,2,0:0:0:0:
243,225,204545,2,0,P|309:212|418:194,1,160,4|0,1:0|1:0,0:0:0:0:
168,336,205062,2,0,P|128:344|90:354,1,80,0|0,1:0|0:0,0:0:0:0:
23,179,205406,6,0,B|88:135|162:198|126:267,1,160,4|0,1:2|0:0,0:0:0:0:
240,37,205922,1,2,0:0:0:0:
240,37,206008,1,0,0:0:0:0:
240,37,206095,2,0,B|205:71|213:114,1,80,2|0,0:0|1:0,0:0:0:0:
383,200,206440,2,0,B|418:166|410:123,1,80,0|0,1:0|0:0,0:0:0:0:
206,191,206785,6,0,P|213:236|228:288,1,80,0|0,1:0|0:0,0:0:0:0:
411,128,207129,2,0,P|395:51|387:6,1,120,0|0,1:0|0:0,0:0:0:0:
387,10,207474,1,2,0:0:0:0:
427,220,207646,1,0,1:0:0:0:
427,220,207819,2,0,P|437:268|440:317,1,80,0|0,1:0|0:0,0:0:0:0:
257,346,208163,6,0,B|294:364|342:364,1,80,0|0,1:0|0:0,0:0:0:0:
157,237,208508,2,0,B|79:212|36:273|52:328,1,160,0|2,1:0|0:0,0:0:0:0:
49,313,208939,1,0,0:0:0:0:
49,313,209025,1,2,0:0:0:0:
275,255,209197,2,0,P|278:199|273:151,1,80,0|0,1:0|0:0,0:0:0:0:
84,32,209542,5,4,1:2:0:0:
199,171,209714,1,0,1:0:0:0:
199,171,209800,1,2,0:0:0:0:
199,171,209886,1,0,1:2:0:0:
368,138,210059,1,4,1:2:0:0:
398,313,210231,1,2,0:0:0:0:
402,119,210403,1,0,1:0:0:0:
402,119,210489,1,2,0:0:0:0:
402,119,210576,1,4,1:0:0:0:
255,272,210748,5,2,0:0:0:0:
255,272,210834,1,2,0:0:0:0:
255,272,210920,2,0,P|141:260|65:255,1,160,4|2,1:2|0:0,0:0:0:0:
95,256,211782,1,0,0:0:0:0:
0,146,211954,2,0,P|5:178|10:201,1,40,2|0,0:0|0:0,0:0:0:0:
0,378,212299,6,0,P|73:361|166:350,1,160,2|0,0:0|0:0,0:0:0:0:
157,350,213160,1,2,0:0:0:0:
308,276,213333,2,0,P|280:271|259:268,1,40,2|0,0:0|0:0,0:0:0:0:
431,300,213677,6,0,P|464:228|452:136,1,160,2|2,0:0|0:0,0:0:0:0:
457,149,214539,1,2,0:0:0:0:
457,149,214711,1,2,0:0:0:0:
414,91,215056,1,2,0:0:0:0:
344,110,215400,1,2,0:0:0:0:
327,180,215745,1,2,0:0:0:0:
125,31,216434,6,0,P|135:69|137:109,1,80,6|0,0:2|0:0,0:0:0:0:
110,185,216951,1,2,0:0:0:0:
110,185,217124,2,0,P|84:187|44:192,1,40,2|0,0:0|0:0,0:0:0:0:
176,236,217468,2,0,P|213:238|240:243,1,40,2|0,0:0|0:0,0:0:0:0:
295,245,217813,2,0,P|281:305|277:356,2,80,2|0|2,0:0|0:0|0:0,0:0:0:0:
325,173,218674,1,0,0:0:0:0:
325,173,218847,1,2,0:0:0:0:
210,31,219191,6,0,B|113:9|69:92,1,160,2|2,0:0|0:0,0:0:0:0:
57,164,220053,1,0,0:0:0:0:
57,164,220225,1,2,0:0:0:0:
57,304,220570,2,0,P|19:308|-10:314,1,40,2|0,0:0|0:0,0:0:0:0:
131,351,220915,1,2,0:0:0:0:
208,308,221087,2,0,P|219:269|223:230,1,80,2|0,0:0|0:0,0:0:0:0:
139,179,221604,1,2,0:0:0:0:
254,37,221948,6,0,P|302:64|357:69,1,111.999996582031,6|0,0:2|0:0,0:0:0:0:
413,134,222465,1,0,0:0:0:0:
501,44,222638,2,0,P|493:71|489:98,1,55.9999982910157,2|0,0:0|0:0,0:0:0:0:
454,224,222982,2,0,P|420:217|391:211,1,55.9999982910157,2|0,0:0|0:0,0:0:0:0:
247,201,223327,6,0,P|209:193|176:183,2,55.9999982910157,2|0|0,0:0|0:0|0:0,0:0:0:0:
384,230,223844,2,0,P|410:286|405:358,1,111.999996582031,2|0,0:0|0:0,0:0:0:0:
346,153,224361,2,0,P|340:105|340:64,1,55.9999982910157,2|0,0:0|0:0,0:0:0:0:
195,116,224705,6,0,P|157:122|122:130,1,55.9999982910157,2|0,0:0|0:0,0:0:0:0:
53,138,225050,1,0,0:0:0:0:
68,233,225222,1,2,0:0:0:0:
173,272,225395,2,0,P|166:221|159:180,1,55.9999982910157
173,272,225739,2,0,P|180:323|187:364,1,55.9999982910157,2|0,0:0|0:0,0:0:0:0:
275,276,226084,6,0,P|302:280|329:289,1,55.9999982910157,2|0,0:0|0:0,0:0:0:0:
434,212,226429,2,0,P|406:207|379:198,1,55.9999982910157,2|0,0:0|0:0,0:0:0:0:
262,77,226773,1,0,0:0:0:0:
219,155,226946,1,2,0:0:0:0:
297,198,227118,1,2,0:0:0:0:
339,119,227291,1,0,0:0:0:0:
202,183,227462,6,0,P|207:223|216:255,1,55.9999982910157,2|0,0:0|0:0,0:0:0:0:
126,375,227807,2,0,P|118:313|102:232,1,111.999996582031,2|0,0:0|0:0,0:0:0:0:
19,233,228324,1,2,0:0:0:0:
19,233,228496,1,2,0:0:0:0:
183,144,228841,6,0,P|229:153|274:162,1,55.9999982910157,2|0,0:0|0:0,0:0:0:0:
318,93,229186,2,0,B|385:97|408:162,1,111.999996582031,2|0,0:0|0:0,0:0:0:0:
424,243,229703,1,2,0:0:0:0:
424,243,229875,1,2,0:0:0:0:
162,270,230220,6,0,P|159:230|168:188,1,55.9999982910157,2|0,0:0|0:0,0:0:0:0:
326,209,230564,2,0,P|332:261|323:340,1,111.999996582031,2|0,0:0|0:0,0:0:0:0:
246,358,231081,1,2,0:0:0:0:
246,358,231253,1,2,0:0:0:0:
19,174,231598,5,2,0:0:0:0:
74,245,231770,1,0,0:0:0:0:
88,137,231943,1,2,0:0:0:0:
95,234,232115,1,0,0:0:0:0:
164,135,232287,1,2,0:0:0:0:
117,224,232460,1,0,0:0:0:0:
235,173,232632,1,2,0:0:0:0:
170,316,232804,5,6,0:2:0:0:
