osu file format v14

[General]
AudioFilename: audio.mp3
AudioLeadIn: 0
PreviewTime: -1
Countdown: 1
SampleSet: Soft
StackLeniency: 0.7
Mode: 0
LetterboxInBreaks: 0
WidescreenStoryboard: 1

[Editor]
DistanceSpacing: 0.8
BeatDivisor: 4
GridSize: 8
TimelineZoom: 1.3

[Metadata]
Title:Nadeshiko Sensation
TitleUnicode:Nadeshiko Sensation
Artist:Yuzu Akaneki
ArtistUnicode:Yuzu Akaneki
Creator:Itslan316hd
Version:Easy
Source:
Tags:2
BeatmapID:1336273
BeatmapSetID:631528

[Difficulty]
HPDrainRate:10
CircleSize:4
OverallDifficulty:10
ApproachRate:8
SliderMultiplier:1.4
SliderTickRate:1

[Events]
//Background and Video events
0,0,"images.jpg",0,0
//Break Periods
//Storyboard Layer 0 (Background)
//Storyboard Layer 1 (Fail)
//Storyboard Layer 2 (Pass)
//Storyboard Layer 3 (Foreground)
//Storyboard Sound Samples

[TimingPoints]
1171,300,4,2,0,100,1,0
69598,300,4,2,0,100,1,0

[HitObjects]
143,124,1246,5,0,0:0:0:0:
276,153,2371,1,0,0:0:0:0:
172,137,3646,1,0,0:0:0:0:
227,148,4771,1,0,0:0:0:0:
187,153,5971,1,0,0:0:0:0:
315,257,7246,1,0,0:0:0:0:
193,120,8446,1,0,0:0:0:0:
326,128,9046,1,0,0:0:0:0:
205,198,9646,1,0,0:0:0:0:
307,257,10846,1,0,0:0:0:0:
199,165,11446,1,0,0:0:0:0:
300,172,12046,1,0,0:0:0:0:
209,223,12571,1,0,0:0:0:0:
275,189,13321,5,0,0:0:0:0:
146,134,13921,1,0,0:0:0:0:
294,154,14521,1,0,0:0:0:0:
183,207,14971,1,0,0:0:0:0:
315,207,15646,5,0,0:0:0:0:
205,158,16246,1,0,0:0:0:0:
319,169,16921,1,0,0:0:0:0:
230,237,17446,1,0,0:0:0:0:
222,162,18271,5,0,0:0:0:0:
285,186,18646,1,0,0:0:0:0:
342,230,18946,1,0,0:0:0:0:
196,268,19246,1,0,0:0:0:0:
177,174,19546,1,0,0:0:0:0:
256,145,19771,1,0,0:0:0:0:
281,183,20446,5,0,0:0:0:0:
139,178,21046,1,0,0:0:0:0:
294,115,21646,1,0,0:0:0:0:
356,173,21871,1,0,0:0:0:0:
239,253,22171,1,0,0:0:0:0:
247,151,22996,5,0,0:0:0:0:
335,167,23371,1,0,0:0:0:0:
332,210,23671,1,0,0:0:0:0:
173,237,23971,1,0,0:0:0:0:
164,139,24271,1,0,0:0:0:0:
286,125,24496,1,0,0:0:0:0:
219,154,25246,5,0,0:0:0:0:
335,164,25846,1,0,0:0:0:0:
198,210,26446,1,0,0:0:0:0:
334,177,27046,1,0,0:0:0:0:
133,153,27721,1,0,0:0:0:0:
289,221,28021,1,0,0:0:0:0:
366,160,28246,1,0,0:0:0:0:
127,103,28546,1,0,0:0:0:0:
201,278,28921,1,0,0:0:0:0:
279,285,29446,1,0,0:0:0:0:
211,202,30721,5,0,0:0:0:0:
311,194,31246,1,0,0:0:0:0:
280,199,31846,1,0,0:0:0:0:
86,160,32446,1,0,0:0:0:0:
324,155,33046,1,0,0:0:0:0:
179,240,33646,1,0,0:0:0:0:
339,295,34246,1,0,0:0:0:0:
181,189,35221,5,0,0:0:0:0:
306,182,36046,1,0,0:0:0:0:
213,275,37246,1,0,0:0:0:0:
337,277,38446,1,0,0:0:0:0:
251,171,38746,1,0,0:0:0:0:
325,160,39046,1,0,0:0:0:0:
282,265,39346,1,0,0:0:0:0:
174,156,39721,1,0,0:0:0:0:
310,132,40846,1,0,0:0:0:0:
134,132,42046,1,0,0:0:0:0:
285,157,42646,1,0,0:0:0:0:
337,220,43246,1,0,0:0:0:0:
339,227,43921,5,0,0:0:0:0:
261,162,44446,1,0,0:0:0:0:
131,136,45646,1,0,0:0:0:0:
225,156,46846,1,0,0:0:0:0:
320,181,47521,1,0,0:0:0:0:
174,238,48121,1,0,0:0:0:0:
265,151,49246,1,0,0:0:0:0:
226,192,50596,5,0,0:0:0:0:
322,171,51646,1,0,0:0:0:0:
244,226,52846,1,0,0:0:0:0:
149,158,53446,1,0,0:0:0:0:
320,133,53971,1,0,0:0:0:0:
114,122,55246,1,0,0:0:0:0:
271,122,56371,1,0,0:0:0:0:
358,167,56746,1,0,0:0:0:0:
267,252,56971,1,0,0:0:0:0:
211,280,57271,1,0,0:0:0:0:
194,133,57571,1,0,0:0:0:0:
350,158,57946,1,0,0:0:0:0:
313,247,58171,1,0,0:0:0:0:
196,168,58546,1,0,0:0:0:0:
169,100,58846,1,0,0:0:0:0:
359,128,59446,1,0,0:0:0:0:
166,130,60046,1,0,0:0:0:0:
234,287,60646,1,0,0:0:0:0:
285,176,61471,1,0,0:0:0:0:
192,163,61771,1,0,0:0:0:0:
219,231,62071,1,0,0:0:0:0:
312,252,62371,1,0,0:0:0:0:
287,157,62671,1,0,0:0:0:0:
131,132,63046,1,0,0:0:0:0:
151,240,63346,1,0,0:0:0:0:
296,269,63571,1,0,0:0:0:0:
189,106,64246,1,0,0:0:0:0:
331,92,64846,1,0,0:0:0:0:
176,191,65446,1,0,0:0:0:0:
256,192,66796,12,0,69496,0:0:0:0:
188,151,71998,5,0,0:0:0:0:
231,114,73273,1,0,0:0:0:0:
241,138,74398,5,0,0:0:0:0:
197,107,75673,5,0,0:0:0:0:
246,150,76273,1,0,0:0:0:0:
292,128,76948,1,0,0:0:0:0:
165,111,77998,1,0,0:0:0:0:
234,118,79198,1,0,0:0:0:0:
333,116,80398,1,0,0:0:0:0:
185,151,81673,1,0,0:0:0:0:
342,232,82798,1,0,0:0:0:0:
263,126,83173,1,0,0:0:0:0:
186,129,83473,1,0,0:0:0:0:
194,262,83773,1,0,0:0:0:0:
336,182,84073,1,0,0:0:0:0:
317,122,84373,1,0,0:0:0:0:
182,105,84673,1,0,0:0:0:0:
206,219,84973,1,0,0:0:0:0:
317,263,85273,1,0,0:0:0:0:
358,166,85573,1,0,0:0:0:0:
143,126,85873,1,0,0:0:0:0:
189,267,86098,1,0,0:0:0:0:
322,174,86473,1,0,0:0:0:0:
211,127,87523,1,0,0:0:0:0:
191,127,88723,5,0,0:0:0:0:
294,106,89998,1,0,0:0:0:0:
190,131,90598,1,0,0:0:0:0:
318,191,91198,1,0,0:0:0:0:
182,155,92398,1,0,0:0:0:0:
331,233,93598,1,0,0:0:0:0:
291,140,94723,5,0,0:0:0:0:
173,147,95398,1,0,0:0:0:0:
240,247,95998,1,0,0:0:0:0:
288,169,96298,1,0,0:0:0:0:
178,169,96598,1,0,0:0:0:0:
221,262,96898,1,0,0:0:0:0:
225,164,97498,5,0,0:0:0:0:
215,154,98473,1,0,0:0:0:0:
290,124,99673,1,0,0:0:0:0:
185,148,100198,1,0,0:0:0:0:
289,263,100798,1,0,0:0:0:0:
169,246,101998,1,0,0:0:0:0:
271,145,103198,1,0,0:0:0:0:
86,135,104473,1,0,0:0:0:0:
256,192,104998,12,0,107098,0:0:0:0:
202,139,107623,5,0,0:0:0:0:
342,118,107923,1,0,0:0:0:0:
297,192,108223,1,0,0:0:0:0:
196,217,108448,1,0,0:0:0:0:
195,82,108823,1,0,0:0:0:0:
376,98,109123,1,0,0:0:0:0:
330,196,109723,1,0,0:0:0:0:
165,128,110398,1,0,0:0:0:0:
185,238,110998,1,0,0:0:0:0:
340,265,111598,1,0,0:0:0:0:
301,106,111973,1,0,0:0:0:0:
197,101,112273,1,0,0:0:0:0:
171,219,112498,1,0,0:0:0:0:
337,259,112798,1,0,0:0:0:0:
343,143,113098,1,0,0:0:0:0:
177,150,113398,1,0,0:0:0:0:
190,224,113623,1,0,0:0:0:0:
339,161,113923,1,0,0:0:0:0:
173,137,114598,1,0,0:0:0:0:
344,275,115198,1,0,0:0:0:0:
335,149,115498,1,0,0:0:0:0:
186,207,115798,1,0,0:0:0:0:
161,273,116023,1,0,0:0:0:0:
181,109,116323,1,0,0:0:0:0:
344,264,116623,1,0,0:0:0:0:
351,101,116923,1,0,0:0:0:0:
149,186,117298,1,0,0:0:0:0:
201,321,117598,1,0,0:0:0:0:
292,66,118123,1,0,0:0:0:0:
91,93,118498,1,0,0:0:0:0:
283,204,118798,1,0,0:0:0:0:
406,276,119098,1,0,0:0:0:0:
382,94,119398,1,0,0:0:0:0:
119,113,119923,5,0,0:0:0:0:
284,163,120223,1,0,0:0:0:0:
393,104,120523,1,0,0:0:0:0:
350,190,120823,1,0,0:0:0:0:
217,129,121348,5,0,0:0:0:0:
311,163,121648,1,0,0:0:0:0:
411,115,121873,1,0,0:0:0:0:
366,220,122173,1,0,0:0:0:0:
171,207,122473,1,0,0:0:0:0:
204,105,122773,1,0,0:0:0:0:
363,102,123073,1,0,0:0:0:0:
333,235,123373,1,0,0:0:0:0:
153,202,123598,1,0,0:0:0:0:
168,82,123823,1,0,0:0:0:0:
436,152,124123,1,0,0:0:0:0:
314,273,124348,1,0,0:0:0:0:
159,239,124498,1,0,0:0:0:0:
