osu file format v14

[General]
AudioFilename: audio.mp3
AudioLeadIn: 0
PreviewTime: 60033
Countdown: 0
SampleSet: Soft
StackLeniency: 0.7
Mode: 0
LetterboxInBreaks: 0
WidescreenStoryboard: 1

[Editor]
Bookmarks: 12830,36830,60830
DistanceSpacing: 1.4
BeatDivisor: 4
GridSize: 4
TimelineZoom: 1.2

[Metadata]
Title:Yukibana Kirameku Ieji nite (TV Size)
TitleUnicode:雪華煌めく家路にて (TV Size)
Artist:Yuzu (CV: Oono Yuuko), Satsuki (CV: Hata Sawako)
ArtistUnicode:柚 (CV: 大野柚布子)、皐 (CV: 秦佐和子)
Creator:Garden
Version:Yoshino's Hard
Source:このはな綺譚
Tags:此花亭の四季 此花亭仲居の会 konohana-tei no shiki nakai no kai Konohana Kitan ending ed4 anime japanese pop short cut version Yorita Yoshino
BeatmapID:3985216
BeatmapSetID:1927976

[Difficulty]
HPDrainRate:5
CircleSize:4
OverallDifficulty:6
ApproachRate:7
SliderMultiplier:1.4
SliderTickRate:1

[Events]
//Background and Video events
0,0,"ed4.jpg",0,0
Video,0,"ED4.flv"
//Break Periods
//Storyboard Layer 0 (Background)
//Storyboard Layer 1 (Fail)
//Storyboard Layer 2 (Pass)
//Storyboard Layer 3 (Foreground)
//Storyboard Layer 4 (Overlay)
//Storyboard Sound Samples

[TimingPoints]
830,750,4,2,1,40,1,0
11330,-100,4,2,1,10,0,0
12455,-100,4,2,1,40,0,0
33830,-83.3333333333333,4,2,1,40,0,0
36830,-62.5,4,2,1,55,0,0
58486,-62.5,4,2,1,5,0,0
58580,-62.5,4,2,1,55,0,0
58861,-62.5,4,2,1,5,0,0
58955,-62.5,4,2,1,55,0,0
59236,-62.5,4,2,1,5,0,0
59330,-62.5,4,2,1,55,0,0
59892,-62.5,4,2,1,45,0,0
60080,-62.5,4,2,1,55,0,0
60501,-62.5,4,2,1,35,0,0
60830,-50,4,2,1,70,0,1
69830,-45.4545454545455,4,2,1,70,0,1
70955,-90.9090909090909,4,2,1,70,0,1
72455,-62.5,4,2,1,70,0,1
72830,-50,4,2,1,70,0,1
78080,-40,4,2,1,70,0,1
78267,-62.5,4,2,1,70,0,1
84830,-62.5,4,2,1,60,0,0
85580,-62.5,4,2,1,50,0,0
86330,-62.5,4,2,1,40,0,0
87080,-62.5,4,2,1,30,0,0
87830,-62.5,4,2,1,20,0,0
88580,-62.5,4,2,1,10,0,0
89330,-62.5,4,2,1,5,0,0

[Colours]
Combo1 : 128,128,255
Combo2 : 255,207,142

[HitObjects]
190,316,830,6,0,B|231:318|254:289|254:289|278:259|314:264,1,140,2|0,0:0|0:0,0:0:0:0:
357,284,1767,1,2,0:0:0:0:
357,284,1955,2,0,L|351:331,1,35,2|0,0:0|0:0,0:0:0:0:
383,356,2330,1,2,0:0:0:0:
466,304,2705,1,0,0:0:0:0:
466,304,2892,2,0,L|449:221,1,70,2|2,0:0|0:0,0:0:0:0:
471,139,3642,5,2,0:0:0:0:
471,139,3830,2,0,P|444:78|341:111,1,175,2|2,0:0|0:0,0:0:0:0:
318,130,4955,2,0,L|327:174,1,35,2|0,0:0|0:0,0:0:0:0:
296,204,5330,5,2,0:0:0:0:
207,162,5705,1,2,0:0:0:0:
198,64,6080,1,2,0:0:0:0:
287,23,6455,1,2,0:0:0:0:
287,23,6642,6,0,P|292:87|273:125,1,105,2|0,0:0|0:0,0:0:0:0:
234,153,7392,2,0,B|194:137|153:171|153:171|110:211|51:173,1,175,2|2,0:0|0:0,0:0:0:0:
74,162,9080,5,2,0:0:0:0:
11,305,9455,2,0,L|21:361,1,35,2|2,0:0|0:0,0:0:0:0:
26,384,9830,5,2,0:0:0:0:
116,345,10205,2,0,B|145:327|145:327|273:365,1,140,2|2,0:0|0:0,0:0:0:0:
379,151,12455,6,0,L|344:146,1,35,2|2,0:0|0:0,0:0:0:0:
317,105,12830,2,0,P|365:41|434:70,1,140,2|0,0:0|0:0,0:0:0:0:
432,246,14330,6,0,P|414:275|414:310,1,70,2|2,0:0|0:0,0:0:0:0:
334,367,15080,2,0,P|317:336|287:319,1,70,2|2,0:0|0:0,0:0:0:0:
197,280,15830,2,0,P|167:297|132:296,1,70,2|0,0:0|0:0,0:0:0:0:
85,282,16392,2,0,B|92:223|49:183|49:183|25:154|37:106,1,175,2|2,0:0|0:0,0:0:0:0:
176,32,18080,6,0,L|211:38,1,35,2|2,0:0|0:0,0:0:0:0:
235,80,18455,2,0,L|269:85,1,35,2|0,0:0|0:0,0:0:0:0:
303,120,18830,2,0,B|318:151|318:151|304:194,1,70,2|0,0:0|0:0,0:0:0:0:
292,231,19392,2,0,L|412:220,1,105,2|0,0:0|0:0,0:0:0:0:
396,319,20330,6,0,P|346:323|329:345,1,70,2|0,0:0|0:0,0:0:0:0:
292,361,20892,2,0,P|240:360|205:302,1,105,2|0,0:0|0:0,0:0:0:0:
177,227,21830,6,0,B|118:252|101:300|101:300|73:258|11:262,1,210,2|2,0:0|0:0,0:0:0:0:
0,213,23142,1,2,0:0:0:0:
0,213,23330,2,0,L|12:122,2,70,2|0|2,0:0|0:0|0:0,0:0:0:0:
29,306,24455,1,2,0:0:0:0:
129,309,24830,6,0,P|162:306|211:331,1,70,2|0,0:0|0:0,0:0:0:0:
235,348,25392,2,0,L|338:331,1,105,2|2,0:0|0:0,0:0:0:0:
433,355,26330,2,0,L|410:273,1,70,2|0,0:0|0:0,0:0:0:0:
437,244,26892,1,2,0:0:0:0:
469,100,27455,1,0,0:0:0:0:
396,33,27830,6,0,P|335:43|321:21,1,70,2|2,0:0|0:0,0:0:0:0:
297,10,28392,2,0,L|201:27,2,70,2|2|2,0:0|0:0|0:0,0:0:0:0:
334,42,29330,2,0,B|360:82|360:82|334:181,1,140,2|2,0:0|0:0,0:0:0:0:
264,238,30455,1,2,0:0:0:0:
219,217,30642,1,2,0:0:0:0:
181,233,30830,6,0,L|189:329,1,70,2|0,0:0|0:0,0:0:0:0:
105,357,31580,2,0,P|73:324|28:317,1,70,2|0,0:0|0:0,0:0:0:0:
14,225,32330,2,0,L|62:232,3,35,2|2|2|2,0:0|0:0|0:0|0:0,0:0:0:0:
91,205,33080,2,0,L|84:146,1,35,2|0,0:0|0:0,0:0:0:0:
110,126,33455,2,0,L|103:67,1,35,2|0,0:0|0:0,0:0:0:0:
136,52,33830,6,0,B|186:50|215:82|215:82|244:114|293:106,1,167.999994873047,2|0,0:0|0:0,0:0:0:0:
402,76,34955,1,2,0:0:0:0:
310,0,35330,2,0,L|337:271,1,251.999992309571,2|2,0:0|0:0,0:0:0:0:
256,359,36830,6,0,P|207:329|222:260,1,112,4|0,3:2|0:0,0:0:0:0:
334,250,37580,1,2,1:2:0:0:
191,275,37955,2,0,P|163:276|136:285,1,56,2|0,0:0|3:0,0:0:0:0:
58,272,38330,5,2,3:2:0:0:
14,144,38705,1,2,3:2:0:0:
94,36,39080,1,2,1:2:0:0:
226,55,39455,2,0,L|289:47,1,56,2|0,0:0|0:0,0:0:0:0:
339,100,39830,6,0,L|465:121,2,112,2|2|2,3:2|0:0|1:2,0:0:0:0:
283,246,40955,1,2,0:2:0:0:
283,246,41142,1,0,3:0:0:0:
322,313,41330,2,0,L|377:308,2,56,2|2|2,3:2|0:0|3:2,0:0:0:0:
421,151,42080,6,0,P|416:104|361:73,1,112,2|2,1:2|0:0,0:0:0:0:
289,97,42642,1,0,0:0:0:0:
289,97,42830,2,0,L|143:70,1,112,2|0,3:2|0:0,0:0:0:0:
114,121,43392,1,2,0:0:0:0:
114,121,43580,2,0,B|96:180|96:180|128:245,1,112,0|2,1:0|0:0,0:0:0:0:
188,352,44330,6,0,P|234:325|267:336,1,56,2|0,3:2|0:0,0:0:0:0:
305,291,44705,2,0,L|307:171,2,112,2|0|2,3:2|1:0|0:0,0:0:0:0:
364,341,45642,1,0,0:0:0:0:
364,341,45830,6,0,P|421:344|453:291,1,112,2|0,3:2|0:0,0:0:0:0:
491,175,46580,1,2,1:2:0:0:
361,210,46955,1,2,0:0:0:0:
361,210,47142,1,0,3:0:0:0:
312,148,47330,1,2,3:2:0:0:
304,75,47517,2,0,B|253:78|228:109|228:109|192:166|129:144,1,168,2|2,0:0|1:2,0:0:0:0:
95,27,48455,6,0,L|103:105,1,56,2|0,0:0|3:0,0:0:0:0:
161,150,48830,2,0,L|146:278,1,112,2|0,3:2|0:0,0:0:0:0:
30,365,49580,1,0,1:0:0:0:
186,358,49955,2,0,P|235:363|256:388,1,56,2|0,0:0|0:0,0:0:0:0:
343,384,50330,5,2,3:2:0:0:
375,253,50705,1,2,3:2:0:0:
509,209,51080,1,0,1:0:0:0:
375,253,51455,2,0,L|364:180,1,56,2|0,0:0|0:0,0:0:0:0:
316,137,51830,6,0,L|332:19,2,112,2|2|0,3:2|0:2|1:0,0:0:0:0:
164,176,52955,1,2,0:0:0:0:
164,176,53142,1,2,3:2:0:0:
102,126,53330,2,0,L|112:60,2,56,2|2|2,3:2|0:0|3:2,0:0:0:0:
31,266,54080,1,2,1:2:0:0:
145,372,54455,2,0,L|217:362,1,56,2|0,0:2|0:0,0:0:0:0:
237,295,54830,6,0,P|296:298|331:243,1,112,2|2,3:2|0:0,0:0:0:0:
468,192,55580,2,0,P|409:195|374:140,1,112,0|0,1:0|0:0,0:0:0:0:
396,82,56142,1,2,3:2:0:0:
396,82,56330,1,2,3:2:0:0:
246,128,56705,1,2,3:2:0:0:
96,174,57080,1,2,1:2:0:0:
246,128,57455,5,2,1:2:0:0:
341,168,57642,1,2,1:2:0:0:
341,168,58205,5,4,3:2:0:0:
273,353,58580,1,4,1:2:0:0:
88,285,58955,1,4,1:2:0:0:
156,100,59330,1,4,1:2:0:0:
288,136,59892,5,0,3:0:0:0:
285,145,59986,1,0,3:0:0:0:
282,154,60080,1,0,1:0:0:0:
204,163,60267,1,0,1:0:0:0:
156,100,60455,2,0,P|113:103|86:61,1,84,2|2,1:2|0:0,0:0:0:0:
73,27,60830,6,0,B|90:78|52:120|52:120|15:171|48:235,1,210,4|0,3:2|0:0,0:0:0:0:
67,318,61580,2,0,P|107:348|170:286,1,140,2|2,1:2|0:0,0:0:0:0:
242,235,62142,1,2,3:2:0:0:
242,235,62330,2,0,L|310:248,1,70,2|0,3:2|0:0,0:0:0:0:
360,332,62705,2,0,L|428:319,1,70,2|0,3:2|0:0,0:0:0:0:
480,235,63080,2,0,B|502:169|502:169|462:104,1,140,2|2,1:2|0:0,0:0:0:0:
411,21,63642,1,0,3:0:0:0:
272,137,63830,6,0,P|331:165|372:114,1,140,2|2,3:2|0:0,0:0:0:0:
301,45,64392,1,0,3:0:0:0:
301,45,64580,2,0,B|251:15|251:15|113:79,1,210,2|0,1:2|3:0,0:0:0:0:
114,177,65330,2,0,L|209:195,1,70,2|0,3:2|0:0,0:0:0:0:
220,280,65705,1,2,3:2:0:0:
23,371,66080,6,0,P|17:322|42:290,1,70,2|2,1:2|0:0,0:0:0:0:
95,236,66455,1,2,0:0:0:0:
171,174,66642,1,2,0:0:0:0:
171,174,66830,2,0,P|179:107|139:35,1,140,4|0,3:2|0:0,0:0:0:0:
65,127,67392,1,2,0:0:0:0:
65,127,67486,1,2,0:0:0:0:
65,127,67580,6,0,P|21:177|33:208,1,70,2|2,1:2|0:0,0:0:0:0:
97,231,67955,1,2,0:0:0:0:
179,283,68142,1,2,3:2:0:0:
179,283,68330,2,0,B|216:292|243:269|243:269|288:233|337:262,1,140,2|2,3:2|3:2,0:0:0:0:
397,207,68892,1,0,0:0:0:0:
471,270,69080,2,0,P|476:307|470:339,2,70,2|0|2,1:2|0:0|0:0,0:0:0:0:
253,142,69830,6,0,L|85:173,1,154.000004699707,4|2,3:2|0:0,0:0:0:0:
27,248,70392,1,0,3:0:0:0:
95,331,70580,2,0,P|135:319|149:284,1,77.0000023498536,4|0,1:2|0:0,0:0:0:0:
274,355,70955,6,0,B|243:310|243:310|257:247,1,115.50000352478,4|0,3:2|1:0,0:0:0:0:
283,153,71705,1,2,3:2:0:0:
352,226,71892,1,0,1:0:0:0:
350,234,71986,1,0,1:0:0:0:
347,241,72080,1,2,1:2:0:0:
437,183,72267,5,2,1:2:0:0:
430,277,72455,2,0,P|477:283|484:337,1,84,2|0,3:2|0:0,0:0:0:0:
481,330,72830,6,0,B|411:372|411:372|271:315,1,210,4|0,3:2|0:0,0:0:0:0:
202,364,73580,2,0,P|180:300|116:280,1,140,2|2,1:2|0:0,0:0:0:0:
19,291,74142,1,2,3:2:0:0:
19,291,74330,2,0,P|36:251|32:223,1,70,2|0,3:2|0:0,0:0:0:0:
39,128,74705,2,0,P|79:143|98:166,1,70,2|0,3:2|0:0,0:0:0:0:
158,87,75080,2,0,B|196:83|220:103|220:103|254:135|292:123,1,140,2|2,1:2|0:0,0:0:0:0:
343,44,75642,1,0,0:0:0:0:
502,51,75830,6,0,P|479:113|413:117,1,140,2|2,3:2|0:0,0:0:0:0:
336,180,76392,2,0,P|341:223|351:248,1,70,2|0,0:0|1:0,0:0:0:0:
372,344,76767,2,0,P|332:327|305:323,1,70,2|2,0:0|0:0,0:0:0:0:
212,293,77142,1,0,3:0:0:0:
212,293,77236,1,0,3:0:0:0:
212,293,77330,5,4,3:2:0:0:
55,334,77517,1,2,0:0:0:0:
158,208,77705,1,2,0:0:0:0:
148,369,77892,1,4,1:2:0:0:
60,234,78080,6,0,L|70:176,1,43.75,2|0,1:2|0:0,0:0:0:0:
73,163,78267,6,0,L|55:53,1,112,4|0,3:2|3:0,0:0:0:0:
142,3,78830,6,0,P|195:4|225:49,1,112,4|2,3:2|0:0,0:0:0:0:
270,139,79392,1,2,0:0:0:0:
348,76,79580,2,0,P|396:95|461:79,1,112,0|2,1:0|0:0,0:0:0:0:
445,285,80330,6,0,B|397:294|397:294|349:351|349:351|289:360,1,168,2|2,3:2|0:0,0:0:0:0:
225,295,81080,1,2,1:2:0:0:
17,384,81455,2,0,L|21:281,1,56,2|2,0:0|0:0,0:0:0:0:
66,239,81830,6,0,P|41:220|13:221,1,56,4|0,3:2|1:0,0:0:0:0:
96,156,82205,2,0,P|121:137|148:138,1,56,2|2,3:2|3:2,0:0:0:0:
67,70,82580,2,0,P|42:51|14:52,2,56,0|0|2,1:2|1:2|3:2,0:0:0:0:
161,34,83142,1,0,1:0:0:0:
161,34,83236,1,0,1:0:0:0:
161,34,83330,2,0,B|196:41|214:28|214:28|245:6|271:19,1,112,4|2,3:2|1:2,0:0:0:0:
365,43,83892,1,0,3:0:0:0:
365,43,83986,1,0,3:0:0:0:
365,43,84080,5,2,1:2:0:0:
417,128,84267,1,0,1:0:0:0:
371,218,84455,2,0,L|315:211,1,56,12|4,3:0|3:0,0:0:0:0:
241,279,84830,1,4,3:2:0:0:
256,192,85017,12,0,89330,0:0:0:0:
