osu file format v14

[General]
AudioFilename: audio.mp3
AudioLeadIn: 0
PreviewTime: 59851
Countdown: 0
SampleSet: Normal
StackLeniency: 0.7
Mode: 0
LetterboxInBreaks: 0
WidescreenStoryboard: 0

[Editor]
DistanceSpacing: 2.8
BeatDivisor: 4
GridSize: 4
TimelineZoom: 1.8

[Metadata]
Title:Attack the Barbarian
TitleUnicode:Attack the Barbarian
Artist:Yuzo Koshiro
ArtistUnicode:Yuzo Koshiro
Creator:Ora
Version:STAGE 5
Source:Streets of Rage
Tags:CaffeAmericano Pereira006 video game sega ベア・ナックル Bare Knuckle Kyoji Kato
BeatmapID:1074393
BeatmapSetID:502187

[Difficulty]
HPDrainRate:5
CircleSize:4.5
OverallDifficulty:8
ApproachRate:9
SliderMultiplier:1.6
SliderTickRate:1

[Events]
//Background and Video events
0,0,"maxresdefault (1).jpg",0,0
//Break Periods
//Storyboard Layer 0 (Background)
//Storyboard Layer 1 (Fail)
//Storyboard Layer 2 (Pass)
//Storyboard Layer 3 (Foreground)
//Storyboard Sound Samples

[TimingPoints]
120,466.653704063776,4,1,1,50,1,0
15052,-90.9090909090909,4,1,1,70,0,1
29052,-90.9090909090909,4,1,1,50,0,0
29985,-90.9090909090909,4,1,1,70,0,1
43985,-90.9090909090909,4,1,1,60,0,0
67318,-133.333333333333,4,1,1,35,0,0
69184,-147.058823529412,4,1,1,35,0,0
70001,-166.666666666667,4,1,1,5,0,0
70118,-166.666666666667,4,1,1,35,0,0
71051,-133.333333333333,4,1,1,35,0,0
72917,-90.9090909090909,4,1,1,60,0,0
74784,-133.333333333333,4,1,1,35,0,0
76651,-147.058823529412,4,1,1,35,0,0
77467,-166.666666666667,4,1,1,5,0,0
77584,-166.666666666667,4,1,1,35,0,0
78517,-133.333333333333,4,1,1,35,0,0
80384,-111.111111111111,4,1,1,50,0,0
82017,-83.3333333333333,4,1,1,50,0,0
82367,-90.9090909090909,4,1,1,10,0,0

[Colours]
Combo1 : 255,0,0
Combo2 : 43,187,230
Combo3 : 241,214,54
Combo4 : 192,192,192

[HitObjects]
256,192,120,12,0,3619,0:0:0:0:
100,285,3853,5,0,0:0:0:0:
48,50,4086,1,0,0:0:0:0:
180,166,4320,2,0,L|192:113,1,40,8|0,0:0|0:0,0:0:0:0:
284,68,4553,2,0,L|292:107,1,40,0|8,0:0|0:0,0:0:0:0:
315,217,4786,1,0,0:0:0:0:
320,256,4902,1,0,0:0:0:0:
321,296,5019,2,0,L|319:333,4,20,0|0|0|0|8,0:0|0:0|0:0|0:0|0:0,0:0:0:0:
100,285,5486,1,0,0:0:0:0:
315,217,5720,5,0,0:0:0:0:
141,358,5953,1,0,0:0:0:0:
230,197,6186,2,0,L|240:254,1,40,8|0,0:0|0:0,0:0:0:0:
271,112,6419,2,0,L|277:72,1,40,0|8,0:0|0:0,0:0:0:0:
315,217,6652,1,0,0:0:0:0:
350,235,6768,1,0,0:0:0:0:
387,250,6886,6,0,P|433:254|459:251,1,40,0|0,0:0|0:0,0:0:0:0:
442,142,7119,2,0,P|415:179|405:203,1,40,8|0,0:0|0:0,0:0:0:0:
508,241,7352,2,0,P|488:199|472:178,1,40
376,92,7585,6,0,P|334:80|265:85,1,80,0|0,0:0|0:0,0:0:0:0:
90,162,8053,1,8,0:0:0:0:
78,204,8169,1,0,0:0:0:0:
76,248,8286,1,0,0:0:0:0:
83,291,8403,1,8,0:0:0:0:
102,331,8519,2,0,L|148:337,1,40
227,284,8753,2,0,L|265:278,4,20,0|0|0|0|8,0:0|0:0|0:0|0:0|0:0,0:0:0:0:
90,162,9219,1,0,0:0:0:0:
203,354,9453,6,0,P|244:355|283:332,1,80
435,177,9919,2,0,P|476:166|492:167,1,40,8|0,0:0|0:0,0:0:0:0:
367,92,10153,2,0,P|326:81|310:82,1,40,0|8,0:0|0:0,0:0:0:0:
200,75,10386,2,0,P|241:86|257:85,1,40
367,92,10619,2,0,L|394:74,4,20,0|0|0|0|8,0:0|0:0|0:0|0:0|0:0,0:0:0:0:
165,192,11086,2,0,L|152:144,1,40
123,45,11319,5,0,0:0:0:0:
304,176,11553,1,0,0:0:0:0:
110,288,11786,2,0,P|81:264|73:246,1,40,8|0,0:0|0:0,0:0:0:0:
165,192,12019,2,0,P|194:216|202:234,1,40,0|8,0:0|0:0,0:0:0:0:
245,317,12252,2,0,P|264:322|283:324,1,40,0|0,0:0|0:0,0:0:0:0:
397,325,12486,2,0,P|416:323|432:317,4,20,0|0|0|0|8,0:0|0:0|0:0|0:0|0:0,0:0:0:0:
468,112,12952,1,0,0:0:0:0:
276,227,13186,5,0,0:0:0:0:
474,201,13419,2,0,P|493:198|512:190,1,40,8|0,0:0|0:0,0:0:0:0:
404,72,13652,2,0,P|384:69|365:61,1,40,8|0,0:0|0:0,0:0:0:0:
265,188,13886,2,0,P|268:210|280:233,1,40,0|8,0:0|0:0,0:0:0:0:
343,314,14119,1,0,0:0:0:0:
382,321,14236,1,0,0:0:0:0:
421,318,14352,2,0,L|446:307,4,20,0|0|0|0|8,0:0|0:0|0:0|0:0|0:0,0:0:0:0:
352,68,14819,2,0,P|343:35|344:16,1,40
428,159,15052,6,0,P|376:184|315:181,1,88.000002685547,4|0,0:0|0:0,0:0:0:0:
298,183,15402,1,0,0:0:0:0:
251,167,15519,2,0,P|225:152|201:126,1,44.0000013427735,8|0,0:0|0:0,0:0:0:0:
94,112,15752,2,0,P|78:86|71:51,1,44.0000013427735,0|0,0:0|0:0,0:0:0:0:
150,207,15985,1,0,0:0:0:0:
159,254,16101,1,0,0:0:0:0:
148,301,16218,1,0,0:0:0:0:
120,340,16336,1,0,0:0:0:0:
74,356,16452,2,0,P|131:339|176:343,1,88.000002685547,8|0,0:0|0:0,0:0:0:0:
360,360,16920,6,0,P|409:359|455:344,1,88.000002685547,4|0,0:0|0:0,0:0:0:0:
489,325,17270,1,0,0:0:0:0:
509,281,17386,2,0,L|498:210,1,44.0000013427735,8|0,0:0|0:0,0:0:0:0:
386,195,17619,2,0,L|397:124,1,44.0000013427735
277,287,17853,1,0,0:0:0:0:
269,239,17969,1,0,0:0:0:0:
260,191,18086,1,0,0:0:0:0:
252,143,18202,1,0,0:0:0:0:
244,95,18319,2,0,P|283:86|296:86,1,44.0000013427735,8|0,0:0|0:0,0:0:0:0:
166,182,18552,2,0,P|127:191|114:191,1,44.0000013427735,0|0,0:0|0:0,0:0:0:0:
60,80,18785,6,0,L|171:88,1,88.000002685547,0|0,0:0|0:0,0:0:0:0:
196,91,19136,1,0,0:0:0:0:
244,95,19253,2,0,L|296:77,1,44.0000013427735,8|0,0:0|0:0,0:0:0:0:
393,140,19486,2,0,L|445:158,1,44.0000013427735,0|0,0:0|0:0,0:0:0:0:
457,275,19719,1,0,0:0:0:0:
423,309,19835,1,0,0:0:0:0:
379,330,19952,1,0,0:0:0:0:
331,333,20068,1,0,0:0:0:0:
283,323,20186,2,0,L|234:296,1,44.0000013427735,8|0,0:0|0:0,0:0:0:0:
209,182,20419,2,0,L|258:209,1,44.0000013427735,0|0,0:0|0:0,0:0:0:0:
361,250,20653,6,0,P|400:221|424:176,1,88.000002685547,0|0,0:0|0:0,0:0:0:0:
436,142,21002,1,0,0:0:0:0:
441,93,21119,2,0,P|440:67|436:44,1,44.0000013427735,8|0,0:0|0:0,0:0:0:0:
317,79,21352,2,0,P|295:82|273:82,1,44.0000013427735,0|0,0:0|0:0,0:0:0:0:
154,49,21585,1,0,0:0:0:0:
106,47,21701,1,0,0:0:0:0:
62,66,21818,1,0,0:0:0:0:
31,103,21936,1,0,0:0:0:0:
21,151,22052,2,8,L|29:237,3,44.0000013427735
39,317,22519,6,0,L|159:330,1,88.000002685547,4|0,0:0|0:0,0:0:0:0:
174,333,22869,1,0,0:0:0:0:
221,329,22985,2,0,L|302:318,1,44.0000013427735,8|0,0:0|0:0,0:0:0:0:
387,302,23219,2,0,L|468:291,1,44.0000013427735,0|0,0:0|0:0,0:0:0:0:
287,237,23452,1,0,0:0:0:0:
239,240,23569,1,0,0:0:0:0:
193,226,23686,1,0,0:0:0:0:
156,195,23802,1,0,0:0:0:0:
133,153,23919,2,0,P|122:119|119:99,1,44.0000013427735,8|0,0:0|0:0,0:0:0:0:
238,72,24152,2,0,P|249:106|252:126,1,44.0000013427735,0|0,0:0|0:0,0:0:0:0:
193,226,24385,6,0,P|151:245|79:234,1,88.000002685547,4|0,0:0|0:0,0:0:0:0:
62,232,24735,1,0,0:0:0:0:
21,204,24852,2,0,L|28:266,1,44.0000013427735,8|0,0:0|0:0,0:0:0:0:
132,340,25085,2,0,L|137:297,1,44.0000013427735
133,153,25320,1,0,0:0:0:0:
176,134,25436,1,0,0:0:0:0:
224,138,25553,1,0,0:0:0:0:
263,166,25669,1,0,0:0:0:0:
283,210,25786,2,0,P|308:250|319:260,1,44.0000013427735,8|0,0:0|0:0,0:0:0:0:
349,364,26020,2,0,P|397:362|410:357,1,44.0000013427735,0|0,0:0|0:0,0:0:0:0:
479,275,26253,6,0,P|491:229|490:160,1,88.000002685547,0|0,0:0|0:0,0:0:0:0:
487,140,26603,1,0,0:0:0:0:
475,93,26719,2,0,P|472:50|477:35,1,44.0000013427735,8|0,0:0|0:0,0:0:0:0:
397,169,26952,2,0,P|361:191|346:195,1,44.0000013427735,0|0,0:0|0:0,0:0:0:0:
218,202,27185,1,0,0:0:0:0:
170,196,27303,1,0,0:0:0:0:
122,189,27420,1,0,0:0:0:0:
74,183,27536,1,0,0:0:0:0:
25,176,27653,2,0,P|16:150|14:128,1,44.0000013427735,8|0,0:0|0:0,0:0:0:0:
94,265,27886,2,0,P|103:291|105:313,1,44.0000013427735,0|0,0:0|0:0,0:0:0:0:
218,202,28119,6,0,P|263:188|315:186,1,88.000002685547,0|0,0:0|0:0,0:0:0:0:
351,190,28470,1,0,0:0:0:0:
394,210,28585,2,0,P|425:244|427:248,1,44.0000013427735,8|0,0:0|0:0,0:0:0:0:
318,306,28820,2,0,P|273:315|268:315,1,44.0000013427735,0|0,0:0|0:0,0:0:0:0:
218,202,29053,1,0,0:0:0:0:
223,153,29170,2,0,L|231:116,3,22.0000006713867,0|0|8|0,0:0|0:0|0:0|0:0,0:0:0:0:
132,148,29402,1,0,0:0:0:0:
106,115,29519,2,8,P|97:83|95:61,1,44.0000013427735
218,55,29752,2,8,P|227:23|229:1,1,44.0000013427735,8|8,0:0|0:0,0:0:0:0:
106,115,29985,6,0,P|93:157|95:209,1,88.000002685547,4|0,0:0|0:0,0:0:0:0:
98,248,30335,1,0,0:0:0:0:
114,293,30452,2,0,L|198:310,1,44.0000013427735,8|0,0:0|0:0,0:0:0:0:
269,353,30685,2,0,L|350:325,1,44.0000013427735,0|0,0:0|0:0,0:0:0:0:
216,259,30918,1,0,0:0:0:0:
198,214,31034,1,0,0:0:0:0:
192,166,31152,1,0,0:0:0:0:
200,118,31268,1,0,0:0:0:0:
221,74,31385,2,0,L|271:57,1,44.0000013427735,8|0,0:0|0:0,0:0:0:0:
302,176,31619,2,0,L|352:193,1,44.0000013427735,0|0,0:0|0:0,0:0:0:0:
427,87,31852,6,0,L|438:195,1,88.000002685547,4|0,0:0|0:0,0:0:0:0:
441,222,32202,1,0,0:0:0:0:
447,269,32318,2,0,L|452:320,1,44.0000013427735,8|0,0:0|0:0,0:0:0:0:
356,350,32552,2,0,L|360:306,1,44.0000013427735
254,335,32785,1,0,0:0:0:0:
207,322,32903,1,0,0:0:0:0:
159,318,33020,1,0,0:0:0:0:
111,324,33136,1,0,0:0:0:0:
67,344,33253,2,0,P|45:297|40:272,1,44.0000013427735,8|0,0:0|0:0,0:0:0:0:
15,185,33486,2,0,P|10:133|14:108,1,44.0000013427735,0|0,0:0|0:0,0:0:0:0:
57,27,33719,6,0,P|126:20|178:34,1,88.000002685547
189,39,34069,1,0,0:0:0:0:
234,55,34185,2,0,P|275:52|297:47,1,44.0000013427735,8|0,0:0|0:0,0:0:0:0:
142,126,34419,2,0,P|124:163|117:184,1,44.0000013427735
219,243,34652,1,0,0:0:0:0:
266,253,34769,1,0,0:0:0:0:
314,251,34885,1,0,0:0:0:0:
359,234,35002,1,0,0:0:0:0:
396,203,35119,2,0,L|414:161,1,44.0000013427735,8|0,0:0|0:0,0:0:0:0:
288,157,35352,2,0,L|270:115,1,44.0000013427735
362,33,35585,6,0,P|311:41|255:38,1,88.000002685547
226,35,35935,1,0,0:0:0:0:
179,21,36052,2,0,P|159:55|156:69,1,44.0000013427735,8|0,0:0|0:0,0:0:0:0:
38,91,36285,2,0,P|37:130|42:144,1,44.0000013427735
146,194,36518,1,0,0:0:0:0:
159,240,36635,1,0,0:0:0:0:
153,288,36752,1,0,0:0:0:0:
130,330,36868,1,0,0:0:0:0:
90,358,36985,2,8,L|44:363,3,44.0000013427735
199,344,37452,6,0,L|286:357,1,88.000002685547,4|0,0:0|0:0,0:0:0:0:
333,365,37802,1,0,0:0:0:0:
380,371,37918,2,0,P|402:368|427:356,1,44.0000013427735,8|0,0:0|0:0,0:0:0:0:
311,284,38152,2,0,P|289:281|264:269,1,44.0000013427735
394,230,38385,1,0,0:0:0:0:
435,206,38502,1,0,0:0:0:0:
457,163,38618,1,0,0:0:0:0:
455,116,38735,1,0,0:0:0:0:
434,72,38852,2,0,P|424:47|421:23,1,44.0000013427735,8|0,0:0|0:0,0:0:0:0:
345,138,39085,2,0,P|335:163|332:187,1,44.0000013427735
342,312,39318,6,0,P|288:301|244:308,1,88.000002685547,4|0,0:0|0:0,0:0:0:0:
210,320,39668,1,0,0:0:0:0:
167,342,39785,2,0,P|127:344|104:341,1,44.0000013427735,8|0,0:0|0:0,0:0:0:0:
51,243,40018,2,0,P|69:207|83:188,1,44.0000013427735
168,126,40252,1,0,0:0:0:0:
216,130,40368,1,0,0:0:0:0:
264,134,40485,1,0,0:0:0:0:
312,138,40602,1,0,0:0:0:0:
360,142,40718,2,0,L|373:89,1,44.0000013427735,8|0,0:0|0:0,0:0:0:0:
489,65,40952,2,0,L|478:22,1,44.0000013427735
360,142,41185,6,0,B|351:195|370:238,1,88.000002685547
384,273,41535,1,0,0:0:0:0:
415,309,41652,2,0,P|438:314|464:313,1,44.0000013427735,8|0,0:0|0:0,0:0:0:0:
309,272,41885,2,0,P|286:267|260:268,1,44.0000013427735
150,315,42118,1,0,0:0:0:0:
104,329,42235,1,0,0:0:0:0:
58,316,42352,1,0,0:0:0:0:
28,280,42468,1,0,0:0:0:0:
16,232,42585,2,0,L|10:184,1,44.0000013427735,8|0,0:0|0:0,0:0:0:0:
84,89,42818,2,0,L|90:41,1,44.0000013427735
133,193,43052,6,0,P|182:182|242:196,1,88.000002685547
261,210,43402,1,0,0:0:0:0:
297,242,43518,2,0,P|332:250|362:248,1,44.0000013427735,8|0,0:0|0:0,0:0:0:0:
461,226,43752,2,0,P|485:200|498:172,1,44.0000013427735
414,97,43985,1,0,0:0:0:0:
420,145,44102,2,0,L|430:181,3,22.0000006713867,0|0|8|0,0:0|0:0|0:0|0:0,0:0:0:0:
362,217,44335,1,0,0:0:0:0:
339,250,44452,2,8,P|330:282|328:304,1,44.0000013427735
451,310,44685,2,8,P|460:342|462:364,1,44.0000013427735,8|8,0:0|0:0,0:0:0:0:
339,250,44918,6,0,P|322:208|318:149,1,88.000002685547,4|0,0:0|0:0,0:0:0:0:
312,91,45268,1,0,0:0:0:0:
257,39,45385,2,0,P|214:34|154:44,1,88.000002685547,8|0,0:0|0:0,0:0:0:0:
100,69,45735,1,0,0:0:0:0:
52,126,45852,1,0,0:0:0:0:
43,160,45968,2,0,B|42:207|42:207|59:249,1,88.000002685547
97,308,46318,2,0,P|144:300|186:301,1,88.000002685547,8|0,0:0|0:0,0:0:0:0:
425,253,46785,6,0,P|378:245|336:246,1,88.000002685547,4|0,0:0|0:0,0:0:0:0:
264,262,47135,1,0,0:0:0:0:
194,235,47252,2,0,P|170:211|151:181,1,44.0000013427735,8|0,0:0|0:0,0:0:0:0:
288,191,47485,2,0,P|296:158|298:122,1,44.0000013427735
346,34,47718,1,0,0:0:0:0:
372,56,47835,2,0,P|426:56|474:41,1,88.000002685547
372,56,48185,2,0,P|364:109|377:162,1,88.000002685547,8|0,0:0|0:0,0:0:0:0:
126,46,48651,6,0,L|34:59,1,88.000002685547
19,130,49001,1,0,0:0:0:0:
79,174,49118,2,0,L|166:186,1,88.000002685547,8|0,0:0|0:0,0:0:0:0:
239,203,49468,1,0,0:0:0:0:
291,256,49585,1,0,0:0:0:0:
309,286,49701,2,0,B|353:290|353:290|397:274,1,88.000002685547
496,208,50051,2,0,L|504:118,1,88.000002685547,8|0,0:0|0:0,0:0:0:0:
270,41,50518,6,0,L|277:128,1,88.000002685547
285,203,50868,1,0,0:0:0:0:
294,276,50985,2,0,P|331:283|351:283,1,44.0000013427735,8|0,0:0|0:0,0:0:0:0:
217,185,51218,2,0,P|180:178|160:178,1,44.0000013427735
62,232,51451,1,0,0:0:0:0:
71,279,51568,1,0,0:0:0:0:
94,321,51685,2,0,L|175:337,1,44.0000013427735
265,309,51918,2,0,L|319:246,1,44.0000013427735,8|0,0:0|0:0,0:0:0:0:
328,156,52151,2,0,L|301:77,1,44.0000013427735
443,43,52385,6,0,P|423:86|418:129,1,88.000002685547,4|0,0:0|0:0,0:0:0:0:
420,200,52735,1,0,0:0:0:0:
447,269,52851,2,0,P|458:310|457:356,1,88.000002685547,8|0,0:0|0:0,0:0:0:0:
384,338,53201,1,0,0:0:0:0:
309,334,53318,1,0,0:0:0:0:
275,343,53435,2,0,P|221:326|176:294,1,88.000002685547
107,209,53785,2,0,P|163:206|216:221,1,88.000002685547,8|0,0:0|0:0,0:0:0:0:
263,239,54135,1,0,0:0:0:0:
318,188,54251,6,0,P|326:145|314:93,1,88.000002685547,4|0,0:0|0:0,0:0:0:0:
270,44,54601,1,0,0:0:0:0:
196,26,54718,2,0,L|149:21,1,44.0000013427735,8|0,0:0|0:0,0:0:0:0:
317,101,54951,2,0,L|364:96,1,44.0000013427735
196,173,55185,1,0,0:0:0:0:
178,203,55301,2,0,P|175:257|187:305,1,88.000002685547
270,240,55651,2,0,P|313:235|356:243,1,88.000002685547,8|0,0:0|0:0,0:0:0:0:
424,275,56001,1,0,0:0:0:0:
491,307,56118,6,0,L|504:214,1,88.000002685547
474,150,56468,1,0,0:0:0:0:
435,86,56585,2,0,B|393:68|393:68|342:73,1,88.000002685547,8|0,0:0|0:0,0:0:0:0:
277,86,56935,1,0,0:0:0:0:
203,101,57051,1,0,0:0:0:0:
168,109,57168,2,0,B|125:113|125:113|83:95,1,88.000002685547
168,109,57518,2,0,P|179:164|177:209,1,88.000002685547,8|0,0:0|0:0,0:0:0:0:
166,270,57868,1,0,0:0:0:0:
205,332,57985,6,0,P|247:341|291:342,1,88.000002685547
365,327,58335,1,0,0:0:0:0:
428,286,58451,2,0,L|451:239,1,44.0000013427735,8|0,0:0|0:0,0:0:0:0:
336,190,58685,2,0,L|313:143,1,44.0000013427735
428,97,58918,1,0,0:0:0:0:
439,49,59035,2,0,L|448:13,3,22.0000006713867,0|0|8|0,0:0|0:0|0:0|0:0,0:0:0:0:
355,60,59268,1,0,0:0:0:0:
320,78,59385,2,8,P|285:85|262:86,1,44.0000013427735,8|8,0:0|0:0,0:0:0:0:
152,81,59618,2,8,P|130:78|108:73,1,44.0000013427735
47,180,59851,6,0,B|44:214|44:214|52:247,1,58.6666684570313
109,280,60085,2,0,B|139:265|139:265|164:242,1,58.6666684570313
167,175,60318,2,0,B|139:155|139:155|106:145,1,58.6666684570313,8|0,0:0|0:0,0:0:0:0:
322,226,60707,1,0,0:0:0:0:
325,248,60784,1,2,0:0:0:0:
208,317,60940,1,0,0:0:0:0:
205,339,61018,1,2,0:0:0:0:
308,114,61251,1,8,0:0:0:0:
340,358,61484,1,0,0:0:0:0:
125,235,61718,5,0,0:0:0:0:
263,187,61873,1,0,0:0:0:0:
263,187,61951,2,0,L|255:251,1,58.6666684570313
193,210,62184,1,8,0:0:0:0:
333,166,62340,1,0,0:0:0:0:
356,169,62418,1,0,0:0:0:0:
275,311,62573,5,0,0:0:0:0:
275,311,62651,2,0,P|233:306|207:294,1,58.6666684570313,2|0,0:0|0:0,0:0:0:0:
197,290,62884,1,2,0:0:0:0:
58,85,63118,2,0,P|97:89|134:79,1,58.6666684570313,8|0,0:0|0:0,0:0:0:0:
196,65,63351,2,0,P|224:60|253:65,1,58.6666684570313
318,117,63584,6,0,P|332:142|338:171,1,58.6666684570313
354,252,63818,2,0,P|324:251|296:242,1,58.6666684570313
218,217,64051,2,0,P|233:191|254:172,1,58.6666684570313,8|0,0:0|0:0,0:0:0:0:
442,27,64440,1,0,0:0:0:0:
436,50,64518,1,2,0:0:0:0:
329,132,64673,1,2,0:0:0:0:
323,109,64751,1,0,0:0:0:0:
107,72,64984,1,8,0:0:0:0:
157,312,65218,1,0,0:0:0:0:
56,190,65451,5,0,0:0:0:0:
183,234,65607,1,0,0:0:0:0:
183,234,65684,2,0,L|256:227,1,58.6666684570313
187,139,65918,1,8,0:0:0:0:
98,256,66073,1,0,0:0:0:0:
92,279,66151,1,0,0:0:0:0:
56,154,66307,5,0,0:0:0:0:
56,154,66384,2,0,P|71:107|86:85,1,58.6666684570313,2|0,0:0|0:0,0:0:0:0:
89,80,66618,1,2,0:0:0:0:
262,237,66851,2,0,L|345:221,1,58.6666684570313,8|0,0:0|0:0,0:0:0:0:
374,287,67084,2,0,L|457:303,1,58.6666684570313
414,217,67318,6,0,B|383:123|376:49|376:49|442:70|475:124|475:124|424:150|358:146,1,420.000016021729
358,146,69184,2,0,P|330:121|184:126,1,190.400001162109
136,170,70118,2,0,P|66:180|6:143,1,143.999995605469
36,259,71051,6,0,B|86:358|200:321|200:321|283:207|400:266,1,420.000016021729
328,356,72917,5,0,0:0:0:0:
249,231,73073,1,0,0:0:0:0:
249,231,73151,2,0,P|261:205|296:171,1,58.6666684570313
319,244,73384,1,8,0:0:0:0:
173,222,73540,1,0,0:0:0:0:
150,218,73617,1,0,0:0:0:0:
117,74,73773,1,0,0:0:0:0:
117,74,73851,2,0,P|126:104|124:140,1,44.0000013427735,2|0,0:0|0:0,0:0:0:0:
125,152,74084,1,2,0:0:0:0:
65,298,74317,2,0,P|117:295|137:305,1,58.6666684570313,8|0,0:0|0:0,0:0:0:0:
203,321,74551,2,0,P|232:327|261:320,1,58.6666684570313
353,357,74784,6,0,P|485:273|329:275,1,420.000016021729
329,275,76651,2,0,P|387:232|314:163,1,190.400001162109
256,165,77584,2,0,P|203:119|209:50,1,143.999995605469
311,94,78517,2,0,B|332:147|362:181|362:181|325:220|320:277|320:277|258:256|207:263|207:263|197:217|151:170|151:170,1,420.000016021729
63,92,80384,6,0,P|78:148|77:225,1,107.999996704102
71,280,80851,2,0,P|112:320|180:358,1,107.999996704102
226,303,81317,2,0,P|274:278|326:264,1,107.999996704102
409,265,81784,1,0,0:0:0:0:
286,143,82017,6,0,P|269:119|255:81,2,47.9999985351563,0|0|4,0:0|0:0|0:0,0:0:0:0:
256,192,82367,12,0,85984,0:0:0:0:
