osu file format v14

[General]
AudioFilename: audio.mp3
AudioLeadIn: 0
PreviewTime: 59851
Countdown: 0
SampleSet: Normal
StackLeniency: 0.7
Mode: 0
LetterboxInBreaks: 0
WidescreenStoryboard: 0

[Editor]
DistanceSpacing: 2.8
BeatDivisor: 4
GridSize: 4
TimelineZoom: 1.8

[Metadata]
Title:Attack the Barbarian
TitleUnicode:Attack the Barbarian
Artist:Yuzo Koshiro
ArtistUnicode:Yuzo Koshiro
Creator:Ora
Version:STAGE 4
Source:Streets of Rage
Tags:CaffeAmericano Pereira006 video game sega ベア・ナックル Bare Knuckle Kyoji Kato
BeatmapID:1068751
BeatmapSetID:502187

[Difficulty]
HPDrainRate:5
CircleSize:4
OverallDifficulty:6
ApproachRate:8
SliderMultiplier:1.4
SliderTickRate:1

[Events]
//Background and Video events
0,0,"maxresdefault (1).jpg",0,0
//Break Periods
//Storyboard Layer 0 (Background)
//Storyboard Layer 1 (Fail)
//Storyboard Layer 2 (Pass)
//Storyboard Layer 3 (Foreground)
//Storyboard Sound Samples

[TimingPoints]
120,466.653704063776,4,1,1,50,1,0
15052,-90.9090909090909,4,1,1,70,0,1
29052,-90.9090909090909,4,1,1,50,0,0
29985,-90.9090909090909,4,1,1,70,0,1
43985,-90.9090909090909,4,1,1,50,0,0
44918,-90.9090909090909,4,1,1,60,0,0
67318,-125,4,1,1,50,0,0
70001,-125,4,1,1,5,0,0
70118,-125,4,1,1,50,0,0
71051,-90.9090909090909,4,1,1,50,0,0
72917,-90.9090909090909,4,1,1,60,0,0
74784,-125,4,1,1,50,0,0
77467,-125,4,1,1,5,0,0
77584,-125,4,1,1,5,0,0
78517,-90.9090909090909,4,1,1,50,0,0
80384,-111.111111111111,4,1,1,50,0,0
82017,-71.4285714285714,4,1,1,50,0,0
82367,-71.4285714285714,4,1,1,10,0,0

[Colours]
Combo1 : 255,0,0
Combo2 : 43,187,230
Combo3 : 241,214,54
Combo4 : 192,192,192

[HitObjects]
256,192,120,12,0,3386,0:0:0:0:
325,188,3853,6,0,P|285:186|238:198,1,70
144,251,4319,2,0,P|120:293|115:312,1,35,8|0,0:0|0:0,0:0:0:0:
68,222,4553,2,0,P|44:180|39:161,1,35,0|8,0:0|0:0,0:0:0:0:
124,162,4786,2,0,P|148:120|153:101,2,35
232,42,5253,2,0,P|271:37|320:44,1,70,8|0,0:0|0:0,0:0:0:0:
427,139,5719,6,0,P|407:85|411:40,1,70
493,183,6186,2,0,P|474:203|456:215,1,35,8|0,0:0|0:0,0:0:0:0:
387,206,6419,2,0,P|365:188|351:171,1,35,0|8,0:0|0:0,0:0:0:0:
428,274,6653,2,0,P|430:315|427:327,2,35
297,351,7119,2,0,P|242:354|208:346,1,70,8|0,0:0|0:0,0:0:0:0:
192,346,7469,1,0,0:0:0:0:
161,328,7586,6,0,L|149:248,1,70
249,158,8053,2,0,L|296:165,1,35,8|0,0:0|0:0,0:0:0:0:
347,102,8286,2,0,L|394:95,1,35,0|8,0:0|0:0,0:0:0:0:
440,161,8519,2,0,L|487:168,2,35
337,87,8986,2,0,P|323:44|322:-9,1,70,8|0,0:0|0:0,0:0:0:0:
421,66,9453,6,0,P|416:100|404:133,1,70
316,223,9919,2,0,P|307:240|302:262,1,35,8|0,0:0|0:0,0:0:0:0:
231,294,10153,2,0,P|241:309|253:322,1,35,0|8,0:0|0:0,0:0:0:0:
228,211,10386,2,0,P|217:194|201:179,2,35
98,265,10853,2,0,P|74:224|64:189,1,70,8|0,0:0|0:0,0:0:0:0:
60,164,11203,1,0,0:0:0:0:
58,129,11319,6,0,P|105:129|140:138,1,70
248,62,11786,2,0,P|294:54|307:54,1,35,8|0,0:0|0:0,0:0:0:0:
369,54,12019,2,0,P|386:56|403:61,1,35,0|8,0:0|0:0,0:0:0:0:
466,121,12252,2,0,P|468:146|464:166,2,35
403,224,12719,2,0,P|397:268|409:311,1,70,8|0,0:0|0:0,0:0:0:0:
324,135,13186,5,0,0:0:0:0:
269,326,13419,2,0,L|261:267,1,35
205,204,13652,2,0,L|197:263,1,35,8|0,0:0|0:0,0:0:0:0:
131,330,13886,1,0,0:0:0:0:
127,302,14002,1,8,0:0:0:0:
123,270,14119,1,0,0:0:0:0:
119,238,14236,2,0,L|108:158,1,70
104,123,14586,2,0,P|137:107|181:99,1,70,8|0,0:0|0:0,0:0:0:0:
204,100,14936,1,0,0:0:0:0:
241,105,15052,6,0,P|291:102|335:83,1,77.0000023498536,4|0,0:0|0:0,0:0:0:0:
350,76,15402,1,0,0:0:0:0:
382,54,15519,2,0,P|401:58|423:73,3,38.5000011749268,8|0|0|0,0:0|0:0|0:0|0:0,0:0:0:0:
473,137,15986,2,0,P|485:180|483:194,1,38.5000011749268
482,261,16219,2,0,P|470:304|462:315,1,38.5000011749268
406,356,16452,2,0,P|362:363|304:349,1,77.0000023498536,8|0,0:0|0:0,0:0:0:0:
223,216,16919,6,0,P|267:209|325:223,1,77.0000023498536,4|0,0:0|0:0,0:0:0:0:
335,226,17269,1,0,0:0:0:0:
371,237,17386,2,0,P|390:220|401:198,3,38.5000011749268,8|0|0|0,0:0|0:0|0:0|0:0,0:0:0:0:
334,145,17852,2,0,P|315:128|304:106,1,38.5000011749268
386,73,18086,2,0,P|405:56|416:34,1,38.5000011749268
296,32,18319,2,0,P|238:27|188:8,1,77.0000023498536,8|0,0:0|0:0,0:0:0:0:
90,143,18786,6,0,P|148:138|198:119,1,77.0000023498536
202,120,19136,1,0,0:0:0:0:
236,103,19252,2,0,P|259:108|281:109,1,38.5000011749268,8|0,0:0|0:0,0:0:0:0:
330,178,19486,2,0,P|307:183|285:184,1,38.5000011749268
204,196,19719,1,0,0:0:0:0:
176,209,19835,1,0,0:0:0:0:
155,232,19952,1,0,0:0:0:0:
143,260,20068,1,0,0:0:0:0:
145,295,20186,2,0,P|167:309|244:316,1,77.0000023498536,8|0,0:0|0:0,0:0:0:0:
470,285,20652,6,0,P|436:265|399:259,1,77.0000023498536
364,261,21002,1,0,0:0:0:0:
329,267,21119,1,8,0:0:0:0:
291,261,21235,1,0,0:0:0:0:
260,238,21352,1,0,0:0:0:0:
245,204,21468,1,0,0:0:0:0:
249,166,21586,2,0,P|252:140|247:116,1,38.5000011749268
228,42,21819,2,0,P|203:51|185:68,1,38.5000011749268
132,123,22052,2,0,P|152:139|176:146,3,38.5000011749268,8|8|8|8,0:0|0:0|0:0|0:0,0:0:0:0:
249,166,22519,6,0,B|291:169|291:169|343:160,1,77.0000023498536,4|0,0:0|0:0,0:0:0:0:
362,152,22869,1,0,0:0:0:0:
397,137,22986,2,0,L|446:117,3,38.5000011749268,8|0|0|0,0:0|0:0|0:0|0:0,0:0:0:0:
440,210,23452,2,0,L|492:217,1,38.5000011749268
446,299,23686,2,0,L|487:331,1,38.5000011749268
369,259,23919,2,0,P|329:254|263:268,1,77.0000023498536,8|0,0:0|0:0,0:0:0:0:
129,325,24385,6,0,P|133:286|129:248,1,77.0000023498536,4|0,0:0|0:0,0:0:0:0:
119,211,24735,1,0,0:0:0:0:
105,174,24852,2,0,P|97:152|94:118,1,38.5000011749268,8|0,0:0|0:0,0:0:0:0:
166,85,25085,2,0,P|174:107|177:141,1,38.5000011749268
239,185,25319,1,0,0:0:0:0:
269,180,25435,1,0,0:0:0:0:
295,163,25552,1,0,0:0:0:0:
312,138,25668,1,0,0:0:0:0:
317,108,25785,2,0,B|313:66|313:66|293:31,1,77.0000023498536,8|0,0:0|0:0,0:0:0:0:
473,30,26252,6,0,B|490:60|490:60|494:102,1,77.0000023498536
494,140,26602,1,0,0:0:0:0:
494,178,26719,2,0,L|481:236,3,38.5000011749268,8|0|0|0,0:0|0:0|0:0|0:0,0:0:0:0:
413,267,27185,2,0,L|426:325,1,38.5000011749268
333,318,27419,2,0,L|320:376,1,38.5000011749268
338,232,27652,2,0,P|374:194|415:183,1,77.0000023498536,8|0,0:0|0:0,0:0:0:0:
505,45,28119,6,0,P|465:37|416:37,1,77.0000023498536
390,39,28469,1,0,0:0:0:0:
352,45,28585,2,0,P|332:48|304:60,1,38.5000011749268,8|0,0:0|0:0,0:0:0:0:
225,46,28819,2,0,P|205:43|177:31,1,38.5000011749268
104,66,29052,1,0,0:0:0:0:
68,82,29169,2,0,L|28:89,2,38.5000011749268,0|8|0,0:0|0:0|0:0,0:0:0:0:
117,155,29519,1,8,0:0:0:0:
126,181,29635,1,8,0:0:0:0:
128,207,29752,1,8,0:0:0:0:
124,234,29868,1,8,0:0:0:0:
116,260,29985,6,0,P|166:272|203:268,1,77.0000023498536,4|0,0:0|0:0,0:0:0:0:
229,264,30335,1,0,0:0:0:0:
266,256,30452,2,0,P|286:253|316:258,3,38.5000011749268,8|0|0|0,0:0|0:0|0:0|0:0,0:0:0:0:
384,294,30919,2,0,P|407:313|418:328,1,38.5000011749268
335,363,31152,2,0,P|312:344|301:329,1,38.5000011749268
266,256,31385,2,0,P|259:202|264:161,1,77.0000023498536,8|0,0:0|0:0,0:0:0:0:
369,39,31852,6,0,P|376:93|371:134,1,77.0000023498536,4|0,0:0|0:0,0:0:0:0:
365,152,32202,1,0,0:0:0:0:
355,189,32319,2,0,P|356:216|362:234,3,38.5000011749268,8|0|0|0,0:0|0:0|0:0|0:0,0:0:0:0:
369,315,32785,2,0,P|371:295|369:276,1,38.5000011749268
288,239,33019,2,0,P|283:220|283:197,1,38.5000011749268
284,112,33252,2,0,P|257:77|225:57,1,77.0000023498536,8|0,0:0|0:0,0:0:0:0:
54,86,33719,6,0,P|37:126|35:164,1,77.0000023498536
38,197,34069,1,0,0:0:0:0:
45,234,34185,2,0,L|95:251,1,38.5000011749268,8|0,0:0|0:0,0:0:0:0:
133,318,34419,2,0,L|183:301,1,38.5000011749268
220,233,34652,1,0,0:0:0:0:
250,228,34768,1,0,0:0:0:0:
280,234,34885,1,0,0:0:0:0:
307,249,35001,1,0,0:0:0:0:
327,272,35119,2,0,P|345:318|346:356,1,77.0000023498536,8|0,0:0|0:0,0:0:0:0:
457,207,35585,6,0,P|475:161|476:123,1,77.0000023498536
475,95,35935,1,0,0:0:0:0:
453,73,36051,1,8,0:0:0:0:
425,61,36168,1,0,0:0:0:0:
394,61,36284,1,0,0:0:0:0:
365,70,36401,1,0,0:0:0:0:
336,80,36518,2,0,P|309:79|278:68,1,38.5000011749268
209,61,36752,2,0,P|189:61|170:64,1,38.5000011749268
97,115,36985,2,8,P|87:131|81:149,3,38.5000011749268
60,237,37452,6,0,B|54:282|54:282|65:324,1,77.0000023498536,4|0,0:0|0:0,0:0:0:0:
73,349,37802,1,0,0:0:0:0:
106,367,37918,2,0,L|149:370,3,38.5000011749268,8|0|0|0,0:0|0:0|0:0|0:0,0:0:0:0:
211,310,38385,2,0,L|254:307,1,38.5000011749268
302,236,38618,2,0,L|345:239,1,38.5000011749268
384,316,38852,2,0,P|419:277|426:220,1,77.0000023498536,8|0,0:0|0:0,0:0:0:0:
468,82,39318,6,0,P|425:90|374:85,1,77.0000023498536,4|0,0:0|0:0,0:0:0:0:
353,82,39668,1,0,0:0:0:0:
317,67,39785,2,0,P|306:96|306:116,1,38.5000011749268,8|0,0:0|0:0,0:0:0:0:
362,171,40018,2,0,P|373:200|373:220,1,38.5000011749268
314,274,40252,1,0,0:0:0:0:
287,271,40368,1,0,0:0:0:0:
260,268,40485,1,0,0:0:0:0:
233,265,40601,1,0,0:0:0:0:
206,262,40718,2,0,P|160:268|120:287,1,77.0000023498536,8|0,0:0|0:0,0:0:0:0:
33,131,41185,6,0,P|79:125|119:106,1,77.0000023498536
140,94,41535,1,0,0:0:0:0:
164,63,41652,2,0,P|178:36|181:15,3,38.5000011749268,8|0|0|0,0:0|0:0|0:0|0:0,0:0:0:0:
254,76,42118,2,0,P|279:59|292:42,1,38.5000011749268
326,133,42352,2,0,P|356:131|376:123,1,38.5000011749268
352,217,42585,2,0,P|379:231|430:235,1,77.0000023498536,8|0,0:0|0:0,0:0:0:0:
254,185,43052,6,0,P|215:187|181:203,1,77.0000023498536
152,230,43402,1,0,0:0:0:0:
133,263,43518,2,0,P|125:302|126:318,1,38.5000011749268,8|0,0:0|0:0,0:0:0:0:
196,354,43752,2,0,P|204:315|203:299,1,38.5000011749268
275,263,43985,1,0,0:0:0:0:
285,301,44102,2,0,P|286:324|283:343,2,38.5000011749268,0|8|0,0:0|0:0|0:0,0:0:0:0:
359,266,44452,1,8,0:0:0:0:
389,265,44568,1,8,0:0:0:0:
418,276,44685,1,8,0:0:0:0:
441,295,44801,1,8,0:0:0:0:
456,322,44918,6,0,P|477:273|481:205,1,115.50000352478,4|0,0:0|0:0,0:0:0:0:
474,173,45385,1,8,0:0:0:0:
347,49,45618,2,0,P|324:102|322:118,1,38.5000011749268
306,157,45852,1,0,0:0:0:0:
301,194,45968,2,0,P|301:255|313:302,1,77.0000023498536
311,316,46318,2,0,P|272:320|234:319,1,77.0000023498536,8|0,0:0|0:0,0:0:0:0:
83,225,46785,6,0,P|121:220|199:228,1,115.50000352478,4|0,0:0|0:0,0:0:0:0:
232,244,47252,1,8,0:0:0:0:
171,77,47485,2,0,P|196:95|223:105,1,38.5000011749268
274,126,47718,1,0,0:0:0:0:
312,130,47835,2,0,P|362:131|414:118,1,77.0000023498536
433,116,48185,2,0,P|438:154|436:192,1,77.0000023498536,8|0,0:0|0:0,0:0:0:0:
376,358,48651,6,0,P|355:309|351:241,1,115.50000352478
358,209,49118,1,8,0:0:0:0:
406,38,49351,2,0,P|367:50|358:51,1,38.5000011749268
291,52,49585,1,0,0:0:0:0:
253,44,49701,2,0,P|203:39|157:50,1,77.0000023498536
131,53,50051,2,0,P|92:57|54:52,1,77.0000023498536,8|0,0:0|0:0,0:0:0:0:
66,144,50518,6,0,L|79:263,1,115.50000352478
83,297,50985,1,8,0:0:0:0:
230,200,51218,2,0,L|224:247,1,38.5000011749268
222,326,51451,1,0,0:0:0:0:
222,326,51568,1,0,0:0:0:0:
222,326,51685,2,0,P|267:345|278:345,1,38.5000011749268
344,344,51918,2,0,P|389:325|397:317,1,38.5000011749268,8|0,0:0|0:0,0:0:0:0:
441,268,52151,2,0,P|459:222|460:211,1,38.5000011749268
478,146,52385,6,0,P|460:107|470:30,1,115.50000352478,4|0,0:0|0:0,0:0:0:0:
484,1,52851,1,8,0:0:0:0:
312,45,53085,2,0,P|309:86|311:96,1,38.5000011749268
318,159,53318,1,0,0:0:0:0:
327,196,53435,2,0,P|331:244|318:306,1,77.0000023498536
313,316,53785,2,0,P|263:308|210:313,1,77.0000023498536,8|0,0:0|0:0,0:0:0:0:
64,347,54251,6,0,P|80:276|79:216,1,115.50000352478,4|0,0:0|0:0,0:0:0:0:
75,194,54718,1,8,0:0:0:0:
164,41,54951,2,0,P|171:65|173:88,1,38.5000011749268
181,155,55185,1,0,0:0:0:0:
180,193,55301,2,0,P|226:208|275:202,1,77.0000023498536
300,201,55651,2,0,P|338:201|374:215,1,77.0000023498536,8|0,0:0|0:0,0:0:0:0:
481,356,56118,6,0,P|443:356|373:319,1,115.50000352478
351,290,56585,1,8,0:0:0:0:
473,162,56818,2,0,P|486:122|489:102,1,38.5000011749268
495,48,57051,1,0,0:0:0:0:
486,10,57168,2,0,P|441:16|398:35,1,77.0000023498536
372,52,57518,2,0,P|324:64|265:59,1,77.0000023498536,8|0,0:0|0:0,0:0:0:0:
121,38,57985,6,0,B|109:96|109:96|129:158,1,115.50000352478
141,185,58451,1,8,0:0:0:0:
257,318,58685,2,0,L|305:314,1,38.5000011749268
372,307,58918,1,0,0:0:0:0:
405,287,59035,2,0,L|409:243,2,38.5000011749268,0|8|0,0:0|0:0|0:0,0:0:0:0:
483,246,59385,2,8,P|481:222|474:193,1,38.5000011749268,8|8,0:0|0:0,0:0:0:0:
412,148,59618,2,8,P|414:124|421:95,1,38.5000011749268
360,41,59851,6,0,L|288:49,1,51.3333348999024
246,85,60085,2,0,L|174:77,1,51.3333348999024
134,39,60318,2,0,L|62:47,1,51.3333348999024,8|0,0:0|0:0,0:0:0:0:
22,209,60707,1,0,0:0:0:0:
39,226,60784,2,0,P|75:233|111:226,1,51.3333348999024,2|0,0:0|0:0,0:0:0:0:
115,227,61018,1,2,0:0:0:0:
284,177,61251,1,8,0:0:0:0:
243,349,61484,1,0,0:0:0:0:
203,175,61718,6,0,P|216:125|229:108,1,51.3333348999024
233,100,61951,1,0,0:0:0:0:
314,252,62184,2,0,P|301:202|288:185,1,51.3333348999024,8|0,0:0|0:0,0:0:0:0:
284,177,62418,1,0,0:0:0:0:
385,116,62573,1,0,0:0:0:0:
400,136,62651,2,0,P|444:143|473:142,1,51.3333348999024,2|0,0:0|0:0,0:0:0:0:
481,142,62884,1,2,0:0:0:0:
402,303,63118,2,0,P|358:323|335:325,1,51.3333348999024,8|0,0:0|0:0,0:0:0:0:
324,328,63351,1,0,0:0:0:0:
185,322,63584,6,0,P|156:309|128:283,1,51.3333348999024
82,253,63818,2,0,P|107:234|144:223,1,51.3333348999024
192,199,64051,2,0,P|195:230|186:267,1,51.3333348999024,8|0,0:0|0:0,0:0:0:0:
59,157,64440,1,0,0:0:0:0:
39,142,64518,2,0,P|32:98|33:69,1,51.3333348999024,2|0,0:0|0:0,0:0:0:0:
33,60,64751,1,2,0:0:0:0:
206,35,64984,1,8,0:0:0:0:
155,205,65218,1,0,0:0:0:0:
326,160,65451,6,0,P|376:173|393:186,1,51.3333348999024
401,190,65684,1,0,0:0:0:0:
249,271,65918,2,0,P|299:258|316:245,1,51.3333348999024,8|0,0:0|0:0,0:0:0:0:
324,241,66151,1,0,0:0:0:0:
239,158,66307,1,0,0:0:0:0:
216,152,66384,2,0,P|181:163|153:188,1,51.3333348999024,2|0,0:0|0:0,0:0:0:0:
146,192,66618,1,2,0:0:0:0:
53,337,66851,2,0,L|67:266,1,51.3333348999024,8|0,0:0|0:0,0:0:0:0:
57,256,67084,1,0,0:0:0:0:
46,155,67318,6,0,B|137:93|237:137|237:137|342:187|434:130,1,392
420,137,69184,2,0,P|382:226|420:326,1,196
466,373,70118,2,0,P|393:334|299:337,1,168
233,281,71051,6,0,B|169:213|194:115|194:115|173:90|143:80|143:80|113:103|78:98|78:98|51:127|57:171|57:171|106:200|115:252|115:252|94:271|84:310,1,539.000016448975
305,289,72917,6,0,P|355:276|372:263,1,51.3333348999024
380,259,73150,1,0,0:0:0:0:
235,185,73384,2,0,P|285:198|302:211,1,51.3333348999024,8|0,0:0|0:0,0:0:0:0:
310,214,73617,1,0,0:0:0:0:
420,171,73773,1,0,0:0:0:0:
440,156,73851,2,0,P|447:112|446:83,1,51.3333348999024,2|0,0:0|0:0,0:0:0:0:
445,74,74084,1,2,0:0:0:0:
277,42,74317,2,0,P|228:42|206:49,1,51.3333348999024,8|0,0:0|0:0,0:0:0:0:
195,50,74551,1,0,0:0:0:0:
102,89,74784,6,0,B|99:118|85:146|85:146|83:173|109:211|109:211|124:239|116:276|116:276|163:285|205:267|205:267|181:217|181:160,1,392
181,166,76651,2,0,P|225:147|358:216,1,196
385,271,77584,2,0,P|425:282|494:176,1,168
448,121,78517,6,0,B|423:65|450:19|450:19|347:83|228:19|228:19|267:117|267:117|223:86|165:92,1,539.000016448975
13,230,80384,6,0,P|50:258|120:272,1,94.499997116089
152,224,80851,2,0,P|189:196|259:182,1,94.499997116089
307,179,81317,2,0,P|312:223|302:279,1,94.499997116089
272,338,81784,1,0,0:0:0:0:
84,180,82017,6,0,P|69:141|65:116,2,48.9999985046387,0|0|4,0:0|0:0|0:0,0:0:0:0:
256,192,82367,12,0,85984,0:0:0:0:
