osu file format v14

[General]
AudioFilename: audio.mp3
AudioLeadIn: 0
PreviewTime: 59851
Countdown: 0
SampleSet: Normal
StackLeniency: 0.7
Mode: 0
LetterboxInBreaks: 0
WidescreenStoryboard: 0

[Editor]
DistanceSpacing: 1.5
BeatDivisor: 4
GridSize: 4
TimelineZoom: 1.8

[Metadata]
Title:Attack the Barbarian
TitleUnicode:Attack the Barbarian
Artist:Yuzo Koshiro
ArtistUnicode:Yuzo Koshiro
Creator:Ora
Version:STAGE 3
Source:Streets of Rage
Tags:CaffeAmericano Pereira006 video game sega ベア・ナックル Bare Knuckle Kyoji Kato
BeatmapID:1071823
BeatmapSetID:502187

[Difficulty]
HPDrainRate:3
CircleSize:3.5
OverallDifficulty:4.5
ApproachRate:6
SliderMultiplier:1.2
SliderTickRate:1

[Events]
//Background and Video events
0,0,"maxresdefault (1).jpg",0,0
//Break Periods
//Storyboard Layer 0 (Background)
//Storyboard Layer 1 (Fail)
//Storyboard Layer 2 (Pass)
//Storyboard Layer 3 (Foreground)
//Storyboard Sound Samples

[TimingPoints]
120,466.653704063776,4,1,1,50,1,0
3386,-100,4,1,1,5,0,0
3853,-100,4,1,1,50,0,0
15052,-90.9090909090909,4,1,1,70,0,1
29052,-90.9090909090909,4,1,1,50,0,0
29985,-90.9090909090909,4,1,1,70,0,1
43985,-100,4,1,1,60,0,0
67318,-117.647058823529,4,1,1,50,0,0
72917,-100,4,1,1,60,0,0
74784,-117.647058823529,4,1,1,50,0,0
80384,-100,4,1,1,50,0,0
82367,-100,4,1,1,10,0,0

[Colours]
Combo1 : 255,0,0
Combo2 : 43,187,230
Combo3 : 241,214,54
Combo4 : 192,192,192

[HitObjects]
256,192,120,12,0,3386,0:0:0:0:
386,274,3853,6,0,P|351:266|314:267,1,60
239,284,4319,2,0,P|178:289|136:275,1,90,8|8,0:0|0:0,0:0:0:0:
112,257,4786,1,0,0:0:0:0:
65,179,5019,2,0,P|56:137|59:111,1,60,0|8,0:0|0:0,0:0:0:0:
145,141,5486,1,0,0:0:0:0:
225,181,5719,2,0,P|233:139|230:113,1,60
275,43,6186,2,0,P|335:34|378:46,1,90,8|8,0:0|0:0,0:0:0:0:
404,60,6653,1,0,0:0:0:0:
456,231,7119,2,0,P|421:239|375:235,1,60,8|0,0:0|0:0,0:0:0:0:
353,227,7469,1,0,0:0:0:0:
312,206,7586,6,0,P|277:198|231:202,1,60
175,151,8053,2,8,P|166:211|178:254,1,90
191,280,8520,1,0,0:0:0:0:
265,330,8753,2,0,L|330:321,2,60,0|8|0,0:0|0:0|0:0,0:0:0:0:
185,372,9453,2,0,L|120:363,1,60
37,344,9919,2,8,P|28:283|40:240,1,90
54,215,10386,1,0,0:0:0:0:
169,76,10853,2,0,L|231:74,1,60,8|0,0:0|0:0,0:0:0:0:
270,90,11203,1,0,0:0:0:0:
306,115,11319,6,0,L|368:117,1,60
396,201,11786,2,8,L|302:197,1,90
261,194,12252,1,0,0:0:0:0:
188,248,12486,2,0,L|186:310,1,60,0|8,0:0|0:0,0:0:0:0:
260,358,12952,1,0,0:0:0:0:
345,327,13186,1,0,0:0:0:0:
345,327,13419,2,8,P|374:325|409:333,2,60,8|8|0,0:0|0:0|0:0,0:0:0:0:
273,272,14119,2,8,P|262:222|271:169,1,90
281,140,14586,1,8,0:0:0:0:
215,78,14819,1,0,0:0:0:0:
215,78,15052,6,0,L|128:83,1,66.0000020141602,4|0,0:0|0:0,0:0:0:0:
109,172,15519,2,0,L|174:175,1,66.0000020141602,8|0,0:0|0:0,0:0:0:0:
215,266,15986,2,0,L|149:269,1,66.0000020141602
50,273,16452,1,8,0:0:0:0:
11,181,16686,1,0,0:0:0:0:
69,101,16919,2,0,P|102:94|148:99,1,66.0000020141602,4|0,0:0|0:0,0:0:0:0:
227,131,17386,2,0,P|250:156|268:197,2,66.0000020141602,8|0|0,0:0|0:0|0:0,0:0:0:0:
135,96,18086,1,0,0:0:0:0:
171,3,18319,1,8,0:0:0:0:
263,38,18552,1,0,0:0:0:0:
227,131,18786,6,0,L|199:204,1,66.0000020141602
166,284,19252,2,0,L|227:307,1,66.0000020141602,8|0,0:0|0:0,0:0:0:0:
319,344,19719,2,0,L|342:282,1,66.0000020141602
379,190,20186,1,8,0:0:0:0:
286,156,20419,1,0,0:0:0:0:
363,94,20652,2,0,P|402:94|437:110,1,66.0000020141602
442,199,21119,2,0,P|403:199|368:183,1,66.0000020141602,8|0,0:0|0:0,0:0:0:0:
286,156,21586,2,0,P|247:156|212:172,1,66.0000020141602
150,233,22052,2,8,P|144:251|141:271,3,33.0000010070801
141,215,22519,6,0,P|102:215|67:199,1,66.0000020141602,4|0,0:0|0:0,0:0:0:0:
4,138,22986,2,0,P|23:104|54:81,1,66.0000020141602,8|0,0:0|0:0,0:0:0:0:
139,57,23452,2,0,P|158:90|162:129,1,66.0000020141602
141,215,23919,1,8,0:0:0:0:
237,194,24152,1,0,0:0:0:0:
330,225,24385,2,0,L|409:253,1,66.0000020141602,4|0,0:0|0:0,0:0:0:0:
469,185,24852,2,0,L|523:141,2,66.0000020141602,8|0|0,0:0|0:0|0:0,0:0:0:0:
392,247,25552,1,0,0:0:0:0:
482,287,25785,1,8,0:0:0:0:
469,185,26019,1,0,0:0:0:0:
380,140,26252,6,0,P|327:160|307:184,1,66.0000020141602
257,242,26719,2,0,P|204:222|184:198,1,66.0000020141602,8|0,0:0|0:0,0:0:0:0:
145,132,27185,2,0,P|92:152|72:176,1,66.0000020141602
43,247,27652,1,8,0:0:0:0:
78,339,27885,1,0,0:0:0:0:
175,355,28119,2,0,P|227:335|247:311,1,66.0000020141602
199,236,28585,2,0,P|146:255|126:279,1,66.0000020141602,8|0,0:0|0:0,0:0:0:0:
78,339,29052,2,0,L|49:264,1,66.0000020141602
23,182,29519,2,8,L|6:133,3,33.0000010070801
42,190,29985,6,0,P|73:191|130:170,1,66.0000020141602,4|0,0:0|0:0,0:0:0:0:
202,155,30452,2,0,P|171:154|114:175,1,66.0000020141602,8|0,0:0|0:0,0:0:0:0:
94,72,30919,2,0,P|93:103|114:160,1,66.0000020141602
143,226,31385,1,8,0:0:0:0:
237,257,31619,1,0,0:0:0:0:
328,220,31852,2,0,P|351:196|366:167,1,66.0000020141602,4|0,0:0|0:3,0:0:0:0:
421,84,32319,2,0,P|444:107|459:136,1,66.0000020141602,8|0,0:0|0:3,0:3:0:0:
445,234,32785,1,0,0:0:0:0:
366,168,33019,1,0,0:0:0:0:
459,136,33252,1,8,0:0:0:0:
445,234,33485,1,0,0:0:0:0:
416,329,33719,6,0,P|382:333|338:324,1,66.0000020141602
277,261,34185,2,0,P|273:228|277:195,2,66.0000020141602,8|0|0,0:0|0:0|0:0,0:0:0:0:
350,328,34885,1,0,0:0:0:0:
255,359,35119,2,0,P|222:363|189:359,1,66.0000020141602,8|0,0:0|0:0,0:0:0:0:
113,295,35585,2,0,L|87:213,1,66.0000020141602
163,161,36052,2,0,L|182:223,1,66.0000020141602,8|0,0:0|0:0,0:0:0:0:
254,154,36518,2,0,L|234:91,1,66.0000020141602
155,30,36985,2,8,P|128:24|114:23,3,33.0000010070801
159,57,37452,6,0,P|197:60|239:49,1,66.0000020141602,4|0,0:0|0:0,0:0:0:0:
317,74,37918,2,0,P|295:106|283:147,1,66.0000020141602,8|0,0:0|0:0,0:0:0:0:
218,202,38385,2,0,P|200:167|171:136,1,66.0000020141602
86,124,38852,1,8,0:0:0:0:
46,214,39085,1,0,0:0:0:0:
114,285,39318,2,0,P|124:316|128:348,1,66.0000020141602,4|0,0:0|0:0,0:0:0:0:
227,353,39785,2,0,P|230:320|241:289,1,66.0000020141602,8|0,0:0|0:0,0:0:0:0:
296,206,40252,1,0,0:0:0:0:
237,126,40485,1,0,0:0:0:0:
181,209,40718,1,8,0:0:0:0:
240,289,40951,1,0,0:0:0:0:
338,303,41185,6,0,P|378:303|420:288,1,66.0000020141602
360,206,41652,2,0,P|388:177|407:137,1,66.0000020141602,8|0,0:0|0:0,0:0:0:0:
306,121,42118,2,0,P|306:80|291:38,1,66.0000020141602
209,98,42585,1,8,0:0:0:0:
118,58,42818,1,0,0:0:0:0:
198,0,43052,2,0,L|206:83,1,66.0000020141602
137,138,43518,2,0,L|129:221,1,66.0000020141602,8|0,0:0|0:0,0:0:0:0:
194,267,43985,2,0,P|236:260|274:240,1,60
340,281,44452,2,8,L|341:330,3,30
353,267,44918,6,0,P|408:261|412:330,1,120,4|8,0:0|0:0,0:0:0:0:
308,174,45852,2,0,P|299:141|295:101,1,60
205,115,46318,2,0,P|200:144|192:173,1,60,8|0,0:0|0:0,0:0:0:0:
137,244,46785,2,0,P|82:250|78:181,1,120,4|8,0:0|0:0,0:0:0:0:
204,312,47718,2,0,P|237:321|277:325,1,60
283,236,48185,2,0,P|250:227|210:223,1,60,8|0,0:0|0:0,0:0:0:0:
137,244,48651,6,0,B|124:153|124:153|133:114,1,120,0|8,0:0|0:0,0:0:0:0:
289,40,49585,2,0,L|366:47,1,60
340,134,50051,2,0,L|263:127,1,60,8|0,0:0|0:0,0:0:0:0:
206,76,50518,2,0,B|178:69|178:69|87:82,1,120,0|8,0:0|0:0,0:0:0:0:
47,258,51451,2,0,L|53:335,1,60
141,309,51918,1,8,0:0:0:0:
141,309,52151,1,0,0:0:0:0:
141,309,52385,6,0,B|202:297|202:297|271:312,1,120,4|8,0:0|0:0,0:0:0:0:
432,262,53318,2,0,B|440:233|440:233|429:188,1,60
348,171,53785,2,0,B|340:200|340:200|351:245,1,60,8|0,0:0|0:0,0:0:0:0:
257,225,54251,2,0,B|196:213|196:213|127:228,1,120,4|8,0:0|0:0,0:0:0:0:
5,103,55185,2,0,B|-3:74|-3:74|8:29,1,60
89,13,55651,2,0,B|97:42|97:42|86:87,1,60,8|0,0:0|0:0,0:0:0:0:
84,160,56118,6,0,P|138:152|180:81,1,120,0|8,0:0|0:0,0:0:0:0:
357,102,57051,2,0,P|392:148|416:157,1,60
477,117,57518,2,0,P|464:90|441:70,1,60,8|0,0:0|0:0,0:0:0:0:
368,17,57985,2,0,P|314:25|272:96,1,120,0|8,0:0|0:0,0:0:0:0:
254,252,58918,2,0,L|258:339,1,60,0|8,0:0|0:0,0:0:0:0:
338,349,59385,2,8,L|378:350,3,30
326,332,59851,6,0,P|293:328|244:343,1,60
178,313,60318,2,0,P|189:285|208:262,1,60,8|0,0:0|0:0,0:0:0:0:
237,176,60784,2,2,P|204:172|155:187,1,60
102,226,61251,1,8,0:0:0:0:
23,181,61484,1,0,0:0:0:0:
69,103,61718,2,0,P|98:98|128:102,1,60
185,32,62184,2,0,P|203:55|215:82,1,60,8|0,0:0|0:0,0:0:0:0:
304,96,62651,2,2,P|293:123|274:147,1,60
192,183,63118,1,8,0:0:0:0:
219,268,63351,1,0,0:0:0:0:
245,354,63584,6,0,L|327:349,1,60
394,345,64051,2,0,L|399:263,1,60,8|0,0:0|0:0,0:0:0:0:
403,195,64518,2,2,L|462:191,1,60
487,277,64984,1,8,0:0:0:0:
397,285,65218,1,0,0:0:0:0:
315,248,65451,2,0,P|303:213|304:164,1,60
227,137,65918,2,0,P|215:172|216:221,1,60,8|0,0:0|0:0,0:0:0:0:
139,246,66384,2,2,P|127:211|128:162,1,60
140,99,66851,1,8,0:0:0:0:
211,44,67084,1,0,0:0:0:0:
227,137,67318,6,0,B|325:181|417:108|417:108|372:62|306:77,1,306.000005836487,0|8,0:0|0:0,0:0:0:0:
349,224,69184,2,0,P|410:205|455:176,1,102.000001945496,0|8,0:0|0:0,0:0:0:0:
417,35,70118,2,0,P|356:54|311:83,1,102.000001945496,0|8,0:0|0:0,0:0:0:0:
206,171,71051,6,0,B|108:215|16:142|16:142|61:96|127:111,1,306.000005836487,0|8,0:0|0:0,0:0:0:0:
217,251,72917,2,0,P|240:303|241:334,1,60
330,307,73384,2,0,P|338:278|353:252,1,60,8|0,0:0|0:0,0:0:0:0:
443,253,73851,2,2,P|458:278|466:307,1,60
398,366,74317,1,8,0:0:0:0:
330,307,74551,1,0,0:0:0:0:
356,228,74784,6,0,B|401:29|401:29|365:74|308:102,1,306.000005836487,0|8,0:0|0:0,0:0:0:0:
178,142,76651,2,0,P|165:91|180:37,1,102.000001945496,0|8,0:0|0:0,0:0:0:0:
266,167,77584,2,0,P|278:217|263:271,1,102.000001945496,0|8,0:0|0:0,0:0:0:0:
116,235,78517,6,0,B|70:36|70:36|106:81|163:109,1,306.000005836487,0|8,0:0|0:0,0:0:0:0:
318,161,80384,2,0,P|368:169|412:159,1,90
447,142,80851,2,0,P|439:192|449:236,1,90
458,273,81317,2,0,P|408:265|364:275,1,90
329,294,81784,1,0,0:0:0:0:
241,314,82017,2,0,P|211:308|190:296,2,30,0|0|4,0:0|0:0|0:0,0:0:0:0:
256,192,82367,12,0,85984,0:0:0:0:
