osu file format v14

[General]
AudioFilename: audio.mp3
AudioLeadIn: 0
PreviewTime: 59851
Countdown: 0
SampleSet: Normal
StackLeniency: 0.7
Mode: 0
LetterboxInBreaks: 0
WidescreenStoryboard: 0

[Editor]
DistanceSpacing: 1.1
BeatDivisor: 4
GridSize: 4
TimelineZoom: 1.8

[Metadata]
Title:Attack the Barbarian
TitleUnicode:Attack the Barbarian
Artist:Yuzo Koshiro
ArtistUnicode:Yuzo Koshiro
Creator:Ora
Version:STAGE 2 Collab
Source:Streets of Rage
Tags:CaffeAmericano Pereira006 video game sega ベア・ナックル Bare Knuckle Kyoji Kato
BeatmapID:1069747
BeatmapSetID:502187

[Difficulty]
HPDrainRate:3
CircleSize:3
OverallDifficulty:3.5
ApproachRate:4.5
SliderMultiplier:1
SliderTickRate:1

[Events]
//Background and Video events
0,0,"maxresdefault (1).jpg",0,0
//Break Periods
//Storyboard Layer 0 (Background)
//Storyboard Layer 1 (Fail)
//Storyboard Layer 2 (Pass)
//Storyboard Layer 3 (Foreground)
//Storyboard Sound Samples

[TimingPoints]
120,466.653704063776,4,1,1,50,1,0
120,-90.9090909090909,4,1,1,50,0,0
15052,-90.9090909090909,4,1,1,50,0,1
29052,-90.9090909090909,4,1,1,50,0,0
29985,-90.9090909090909,4,1,1,50,0,1
43985,-90.9090909090909,4,1,1,50,0,0
82484,-90.9090909090909,4,1,1,10,0,0

[Colours]
Combo1 : 255,0,0
Combo2 : 43,187,230
Combo3 : 241,214,54
Combo4 : 192,192,192

[HitObjects]
256,192,120,12,0,2919,0:0:0:0:
68,156,3853,6,0,P|128:132|176:132,1,110.000003356934,0|8,0:0|0:0,0:0:0:0:
266,224,4786,2,0,P|326:248|374:248,1,110.000003356934,0|8,0:0|0:0,0:0:0:0:
430,235,5486,1,0,0:0:0:0:
478,198,5719,2,0,P|502:143|498:88,2,110.000003356934,0|8|0,0:0|0:0|0:0,0:0:0:0:
382,123,7119,1,8,0:0:0:0:
323,105,7353,1,0,0:0:0:0:
266,126,7586,6,0,P|204:123|153:100,1,110.000003356934,0|8,0:0|0:0,0:0:0:0:
65,28,8519,2,0,P|41:81|47:146,1,110.000003356934,0|8,0:0|0:0,0:0:0:0:
61,189,9219,1,0,0:0:0:0:
81,246,9453,2,0,P|82:300|59:349,2,110.000003356934,0|8|0,0:0|0:0|0:0,0:0:0:0:
183,310,10853,1,8,0:0:0:0:
238,333,11086,1,0,0:0:0:0:
298,339,11319,6,0,P|357:339|429:320,1,110.000003356934,0|8,0:0|0:0,0:0:0:0:
462,220,12252,2,0,P|403:220|331:201,1,110.000003356934,0|8,0:0|0:0,0:0:0:0:
296,186,12952,1,0,0:0:0:0:
254,142,13186,1,0,0:0:0:0:
247,81,13419,2,0,P|287:32|314:13,2,55.0000016784668,0|8|0,0:0|0:0|0:0,0:0:0:0:
200,119,14119,2,0,P|145:115|97:138,1,110.000003356934,0|8,0:0|0:0,0:0:0:0:
66,255,15052,6,0,P|98:299|150:319,1,110.000003356934,4|8,0:0|0:0,0:0:0:0:
208,308,15752,2,0,P|224:280|224:248,1,55.0000016784668
200,204,16219,2,0,P|203:176|217:153,1,55.0000016784668,0|8,0:0|0:0,0:0:0:0:
264,116,16686,1,0,0:0:0:0:
324,104,16919,2,0,P|376:120|416:160,1,110.000003356934,4|8,0:0|0:0,0:0:0:0:
396,216,17619,1,0,0:0:0:0:
372,272,17852,2,0,L|340:328,2,55.0000016784668,0|0|8,0:0|0:0|0:0,0:0:0:0:
300,176,18786,6,0,P|264:216|252:276,1,110.000003356934,0|8,0:0|0:0,0:0:0:0:
248,332,19486,2,0,P|225:347|198:348,1,55.0000016784668
168,296,19952,2,0,P|140:297|118:312,1,55.0000016784668,0|8,0:0|0:0,0:0:0:0:
68,348,20419,1,0,0:0:0:0:
26,303,20652,2,0,P|14:247|22:195,1,110.000003356934,0|8,0:0|0:0,0:0:0:0:
60,148,21352,1,0,0:0:0:0:
88,96,21586,2,0,L|48:56,2,55.0000016784668,0|0|8,0:0|0:0|0:0,0:0:0:0:
164,192,22519,6,0,P|200:152|212:96,1,110.000003356934,4|8,0:0|0:0,0:0:0:0:
212,36,23219,2,0,P|244:20|268:20,1,55.0000016784668
324,20,23686,2,0,P|351:22|374:36,1,55.0000016784668,0|8,0:0|0:0,0:0:0:0:
406,87,24152,1,0,0:0:0:0:
418,146,24385,2,0,P|406:210|382:258,1,110.000003356934,4|8,0:0|0:0,0:0:0:0:
338,286,25085,1,0,0:0:0:0:
290,250,25319,2,0,L|290:194,2,55.0000016784668,0|0|8,0:0|0:0|0:0,0:0:0:0:
198,328,26252,6,0,P|138:336|90:324,1,110.000003356934,0|8,0:0|0:0,0:0:0:0:
64,268,26952,2,0,P|56:236|56:208,1,55.0000016784668
104,180,27419,2,0,P|102:152|95:126,1,55.0000016784668,0|8,0:0|0:0,0:0:0:0:
40,100,27885,1,0,0:0:0:0:
68,46,28119,2,0,P|124:34|176:38,1,110.000003356934,0|8,0:0|0:0,0:0:0:0:
228,72,28819,1,0,0:0:0:0:
285,52,29052,2,0,L|341:40,2,55.0000016784668,0|0|8,0:0|0:0|0:0,0:0:0:0:
232,160,29985,6,0,P|232:216|248:268,1,110.000003356934,4|8,0:0|0:0,0:0:0:0:
280,320,30685,2,0,L|324:352,1,55.0000016784668
384,348,31152,2,0,L|428:316,1,55.0000016784668,0|8,0:0|0:0,0:0:0:0:
460,264,31619,1,0,0:0:0:0:
452,204,31852,2,0,P|432:152|392:116,1,110.000003356934,4|8,0:0|0:0,0:0:0:0:
332,112,32552,1,0,0:0:0:0:
280,144,32785,2,0,L|296:204,2,55.0000016784668,0|0|8,0:0|0:0|0:0,0:0:0:0:
252,25,33719,6,0,P|200:49|168:101,1,110.000003356934,0|8,0:0|0:0,0:0:0:0:
188,149,34419,2,0,P|200:185|200:201,1,55.0000016784668
164,250,34885,2,0,P|165:277|175:302,1,55.0000016784668,0|8,0:0|0:0,0:0:0:0:
224,340,35352,1,0,0:0:0:0:
276,308,35585,2,0,P|304:256|296:200,1,110.000003356934,0|8,0:0|0:0,0:0:0:0:
275,150,36285,1,0,0:0:0:0:
288,91,36518,2,0,L|344:79,2,55.0000016784668,0|0|8,0:0|0:0|0:0,0:0:0:0:
167,81,37452,6,0,P|99:85|51:109,1,110.000003356934,4|8,0:0|0:0,0:0:0:0:
35,157,38152,2,0,L|7:209,1,55.0000016784668
27,265,38618,2,0,L|55:317,1,55.0000016784668,0|8,0:0|0:0,0:0:0:0:
105,344,39085,1,0,0:0:0:0:
163,328,39318,2,0,P|191:280|194:220,1,110.000003356934,4|8,0:0|0:0,0:0:0:0:
188,167,40018,1,0,0:0:0:0:
169,109,40252,2,0,L|113:97,2,55.0000016784668,0|0|8,0:0|0:0|0:0,0:0:0:0:
288,132,41185,6,0,P|348:144|388:176,1,110.000003356934,0|8,0:0|0:0,0:0:0:0:
416,225,41885,2,0,P|424:261|424:285,1,55.0000016784668
388,328,42352,2,0,P|352:336|328:336,1,55.0000016784668,0|8,0:0|0:0,0:0:0:0:
287,298,42818,1,0,0:0:0:0:
228,312,43052,2,0,P|180:276|164:224,1,110.000003356934,0|8,0:0|0:0,0:0:0:0:
180,172,43752,1,0,0:0:0:0:
160,116,43985,2,0,L|100:110,2,55.0000016784668,0|0|8,0:0|0:0|0:0,0:0:0:0:
255,37,44918,6,0,P|309:29|361:44,1,110.000003356934,4|8,0:0|0:0,0:0:0:0:
300,149,45852,2,0,P|293:207|311:261,1,110.000003356934,0|8,0:0|0:0,0:0:0:0:
339,307,46552,1,0,0:0:0:0:
394,330,46785,2,0,P|452:337|506:318,2,110.000003356934,4|8|0,0:0|0:0|0:0,0:0:0:0:
438,217,48185,1,8,0:0:0:0:
455,159,48418,1,0,0:0:0:0:
455,98,48651,6,0,B|403:77|403:77|326:78,1,110.000003356934,0|8,0:0|0:0,0:0:0:0:
268,168,49585,2,0,B|216:189|216:189|139:188,1,110.000003356934,0|8,0:0|0:0,0:0:0:0:
102,179,50285,1,0,0:0:0:0:
59,135,50518,2,0,P|37:82|43:27,2,110.000003356934,0|8|0,0:0|0:0|0:0,0:0:0:0:
158,65,51918,1,8,0:0:0:0:
217,53,52151,1,0,0:0:0:0:
277,61,52385,6,0,P|330:83|368:126,1,110.000003356934,4|8,0:0|0:0,0:0:0:0:
480,83,53318,2,0,P|487:141|468:195,1,110.000003356934,0|8,0:0|0:0,0:0:0:0:
441,241,54018,1,0,0:0:0:0:
386,264,54251,2,0,P|328:271|273:252,2,110.000003356934,4|8|0,0:0|0:0|0:0,0:0:0:0:
340,151,55651,1,8,0:0:0:0:
279,156,55885,1,0,0:0:0:0:
218,162,56118,6,0,L|100:170,1,110.000003356934,0|8,0:0|0:0,0:0:0:0:
6,235,57051,2,0,P|54:276|102:289,1,110.000003356934,0|8,0:0|0:0,0:0:0:0:
159,290,57751,1,0,0:0:0:0:
219,282,57985,2,0,L|344:269,1,110.000003356934,0|8,0:0|0:0,0:0:0:0:
435,328,58918,2,0,P|445:288|431:210,1,110.000003356934,0|8,0:0|0:0,0:0:0:0:
410,165,59618,1,8,0:0:0:0:
390,107,59851,6,0,P|387:49|406:2,2,110.000003356934,0|8|2,0:0|0:0|0:0,0:0:0:0:
269,117,61251,1,8,0:0:0:0:
152,149,61718,2,0,P|100:175|67:216,2,110.000003356934,0|8|2,0:0|0:0|0:0,0:0:0:0:
269,117,63118,1,8,0:0:0:0:
301,233,63584,6,0,B|359:241|359:241|418:225,2,110.000003356934,0|8|2,0:0|0:0|0:0,0:0:0:0:
204,306,64984,1,8,0:0:0:0:
126,213,65451,2,0,B|84:173|84:173|60:115,2,110.000003356934,0|8|2,0:0|0:0|0:0,0:0:0:0:
204,306,66851,1,8,0:0:0:0:
304,238,67318,6,0,P|345:181|179:33,1,330.000010070801,0|8,0:0|0:0,0:0:0:0:
231,142,69184,2,0,P|170:152|112:121,1,110.000003356934,0|8,0:0|0:0,0:0:0:0:
45,224,70118,2,0,P|46:276|74:329,1,110.000003356934,0|8,0:0|0:0,0:0:0:0:
163,247,71051,6,0,B|248:202|327:248|327:248|405:291|480:234,1,330.000010070801,0|8,0:0|0:0,0:0:0:0:
392,148,72917,2,0,P|350:111|300:91,2,110.000003356934,0|8|2,0:0|0:0|0:0,0:0:0:0:
426,263,74317,1,8,0:0:0:0:
338,346,74784,6,0,P|209:363|65:191,1,330.000010070801,0|8,0:0|0:0,0:0:0:0:
13,128,76651,2,0,P|76:115|127:128,1,110.000003356934,0|8,0:0|0:0,0:0:0:0:
229,175,77584,2,0,P|292:188|343:175,1,110.000003356934,0|8,0:0|0:0,0:0:0:0:
429,102,78517,6,0,P|454:258|340:369,1,330.000010070801,0|8,0:0|0:0,0:0:0:0:
219,368,80384,2,0,P|168:346|127:288,2,110.000003356934
240,248,81784,2,0,P|239:214|230:183,1,55.0000016784668
214,136,82251,5,4,0:0:0:0:
256,192,82484,12,0,85984,0:0:0:0:
