osu file format v14

[General]
AudioFilename: audio.mp3
AudioLeadIn: 0
PreviewTime: 59851
Countdown: 0
SampleSet: Normal
StackLeniency: 0.7
Mode: 0
LetterboxInBreaks: 0
WidescreenStoryboard: 0

[Editor]
Bookmarks: 43995,58928,65461
DistanceSpacing: 1
BeatDivisor: 4
GridSize: 8
TimelineZoom: 1.8

[Metadata]
Title:Attack the Barbarian
TitleUnicode:Attack the Barbarian
Artist:Yuzo Koshiro
ArtistUnicode:Yuzo Koshiro
Creator:Ora
Version:STAGE 1
Source:Streets of Rage
Tags:CaffeAmericano Pereira006 video game sega ベア・ナックル Bare Knuckle Kyoji Kato
BeatmapID:1070494
BeatmapSetID:502187

[Difficulty]
HPDrainRate:3
CircleSize:3
OverallDifficulty:3
ApproachRate:3
SliderMultiplier:0.9
SliderTickRate:1

[Events]
//Background and Video events
0,0,"maxresdefault (1).jpg",0,0
//Break Periods
//Storyboard Layer 0 (Background)
//Storyboard Layer 1 (Fail)
//Storyboard Layer 2 (Pass)
//Storyboard Layer 3 (Foreground)
//Storyboard Sound Samples

[TimingPoints]
120,466.653704063776,4,1,1,50,1,0
120,-90.9090909090909,4,1,1,50,0,0
15052,-90.9090909090909,4,1,1,70,0,1
29052,-90.9090909090909,4,1,1,50,0,0
29985,-90.9090909090909,4,1,1,70,0,1
43985,-90.9090909090909,4,1,1,60,0,0
82367,-90.9090909090909,4,1,1,10,0,0

[Colours]
Combo1 : 255,0,0
Combo2 : 43,187,230
Combo3 : 241,214,54
Combo4 : 192,192,192

[HitObjects]
256,192,120,12,0,1986,0:0:0:0:
89,147,3853,6,0,P|133:178|283:44,1,297.000009063721,0|8,0:0|0:0,0:0:0:0:
383,48,5719,2,0,P|427:67|414:276,1,297.000009063721,0|8,0:0|0:0,0:0:0:0:
315,269,7586,6,0,B|266:254|266:254|121:294,1,198.000006042481
29,321,8986,1,8,0:0:0:0:
51,224,9453,2,0,L|248:170,1,198.000006042481
340,188,10853,1,8,0:0:0:0:
380,278,11319,6,0,P|420:243|304:97,1,297.000009063721,0|8,0:0|0:0,0:0:0:0:
241,171,13186,2,0,L|252:273,1,99.0000030212403
304,352,14119,2,0,P|358:359|422:348,1,99.0000030212403,0|8,0:0|0:0,0:0:0:0:
384,256,15052,6,0,B|337:265|286:240|286:240|234:211|171:231,1,198.000006042481,4|0,0:0|0:0,0:0:0:0:
95,245,16452,1,8,0:0:0:0:
63,151,16919,2,0,P|56:101|64:47,2,99.0000030212403,4|0|0,0:0|0:0|0:0,0:0:0:0:
95,245,18319,1,8,0:0:0:0:
154,324,18786,6,0,B|252:343|252:343|352:324,1,198.000006042481
444,299,20186,1,8,0:0:0:0:
473,204,20652,2,0,P|485:147|461:90,1,99.0000030212403
387,60,21586,2,0,P|375:117|399:174,1,99.0000030212403,0|8,0:0|0:0,0:0:0:0:
315,224,22519,6,0,B|258:235|258:235|178:205|178:205|89:221,1,198.000006042481,4|0,0:0|0:0,0:0:0:0:
43,158,23919,1,8,0:0:0:0:
81,65,24385,2,0,B|132:58|132:58|178:65,2,99.0000030212403,4|0|0,0:0|0:0|0:0,0:0:0:0:
43,158,25785,1,8,0:0:0:0:
81,249,26252,6,0,P|153:305|266:302,1,198.000006042481
348,269,27652,1,8,0:0:0:0:
387,178,28119,2,0,L|393:76,1,99.0000030212403
480,125,29052,2,0,L|474:223,1,99.0000030212403,0|8,0:0|0:0,0:0:0:0:
458,321,29985,6,0,P|364:349|251:342,1,198.000006042481,4|0,0:0|0:0,0:0:0:0:
171,311,31385,1,8,0:0:0:0:
219,224,31852,2,0,P|233:170|223:107,2,99.0000030212403,4|0|0,0:0|0:0|0:0,0:0:0:0:
171,311,33252,1,8,0:0:0:0:
72,323,33719,6,0,P|41:268|49:129,1,198.000006042481
94,50,35119,1,8,0:0:0:0:
183,91,35585,2,0,P|238:100|296:84,1,99.0000030212403
370,50,36518,2,0,P|418:41|466:50,1,99.0000030212403,0|8,0:0|0:0,0:0:0:0:
420,138,37452,6,0,B|430:173|456:199|456:199|422:345,1,198.000006042481,4|0,0:0|0:0,0:0:0:0:
330,299,38852,1,8,0:0:0:0:
256,365,39318,2,0,P|200:373|148:364,2,99.0000030212403,4|8|0,0:0|0:0|0:0,0:0:0:0:
330,299,40718,1,8,0:0:0:0:
254,235,41185,6,0,P|178:199|65:220,1,198.000006042481
25,129,42585,1,8,0:0:0:0:
102,68,43052,2,0,L|210:59,1,99.0000030212403
258,140,43985,2,0,L|159:148,1,99.0000030212403,0|8,0:0|0:0,0:0:0:0:
80,208,44918,6,0,P|94:297|268:286,1,297.000009063721,4|8,0:0|0:0,0:0:0:0:
351,340,46785,2,0,B|394:249|315:171|233:196|233:196|212:132,1,297.000009063721,4|8,0:0|0:0,0:0:0:0:
187,45,48651,6,0,P|244:26|378:53,1,198.000006042481
450,116,50051,1,8,0:0:0:0:
443,214,50518,2,0,L|438:312,1,99.0000030212403
340,330,51451,2,0,L|333:227,1,99.0000030212403,0|8,0:0|0:0,0:0:0:0:
328,133,52385,6,0,B|279:118|235:131|235:131|185:148|117:125,1,198.000006042481,4|0,0:0|0:0,0:0:0:0:
185,45,53785,1,8,0:0:0:0:
281,24,54251,2,0,P|336:36|395:32,1,99.0000030212403,4|0,0:0|0:0,0:0:0:0:
478,35,55185,2,0,P|493:85|496:152,1,99.0000030212403,0|8,0:0|0:0,0:0:0:0:
490,232,56118,6,0,P|458:313|356:319,1,198.000006042481
271,271,57518,1,8,0:0:0:0:
180,312,57985,2,0,P|111:319|71:299,1,99.0000030212403
28,227,58918,2,0,P|25:161|46:111,1,99.0000030212403,0|8,0:0|0:0,0:0:0:0:
116,186,59851,6,0,P|140:137|191:97,2,99.0000030212403,0|8|2,0:0|0:0|0:0,0:0:0:0:
118,285,61251,1,8,0:0:0:0:
214,309,61718,2,0,P|266:289|308:223,2,99.0000030212403,0|8|2,0:0|0:0|0:0,0:0:0:0:
118,285,63118,1,8,0:0:0:0:
118,186,63584,6,0,B|47:186|47:186|19:168,2,99.0000030212403,0|8|2,0:0|0:0|0:0,0:0:0:0:
217,186,64984,1,8,0:0:0:0:
316,186,65451,2,0,B|387:186|387:186|415:168,2,99.0000030212403,0|8|2,0:0|0:0|0:0,0:0:0:0:
217,186,66851,1,8,0:0:0:0:
148,116,67318,6,0,B|140:24|267:-5|308:70|308:70|345:52|407:65,1,297.000009063721,0|8,0:0|0:0,0:0:0:0:
454,117,69184,2,0,L|442:320,1,198.000006042481
319,159,71051,6,0,P|219:142|256:300,1,297.000009063721,0|8,0:0|0:0,0:0:0:0:
315,330,72917,2,0,P|374:323|436:340,2,99.0000030212403,0|8|2,0:0|0:0|0:0,0:0:0:0:
224,292,74317,1,8,0:0:0:0:
310,243,74784,6,0,B|406:193|344:60|236:96|236:96|168:117,1,297.000009063721,0|8,0:0|0:0,0:0:0:0:
107,145,76651,2,0,B|75:196|106:252|106:252|128:300|93:367,1,198.000006042481
231,181,78517,6,0,B|314:159|314:159|409:220|409:220|504:192,1,297.000009063721,0|8,0:0|0:0,0:0:0:0:
430,124,80384,2,0,P|437:70|454:30,2,99.0000030212403
437,222,81784,1,0,0:0:0:0:
473,314,82251,5,4,0:0:0:0:
256,192,82367,12,0,85984,0:0:0:0:
