osu file format v14

[General]
AudioFilename: audio.mp3
AudioLeadIn: 0
PreviewTime: 21426
Countdown: 0
SampleSet: Normal
StackLeniency: 0.3
Mode: 3
LetterboxInBreaks: 0
SpecialStyle: 0
WidescreenStoryboard: 1

[Editor]
Bookmarks: 13,9278,21426,22308,36425
DistanceSpacing: 0.1
BeatDivisor: 4
GridSize: 4
TimelineZoom: 2.1

[Metadata]
Title:Hidamari no Uta (Ringtone ver.)
TitleUnicode:陽だまりの詩 (Ringtone ver.)
Artist:Yuyoyuppe
ArtistUnicode:ゆよゆっぺ
Creator:Nice Aesthetics
Version:daniel_lm's Normal
Source:
Tags:
BeatmapID:2095677
BeatmapSetID:999373

[Difficulty]
HPDrainRate:6
CircleSize:4
OverallDifficulty:7
ApproachRate:7
SliderMultiplier:1.4
SliderTickRate:1

[Events]
//Background and Video events
0,0,"bg.png",0,0
//Break Periods
//Storyboard Layer 0 (Background)
//Storyboard Layer 1 (Fail)
//Storyboard Layer 2 (Pass)
//Storyboard Layer 3 (Foreground)
//Storyboard Sound Samples

[TimingPoints]
455,441.176470588235,4,1,1,80,1,0
21426,441.176470588235,4,1,1,80,1,0
21426,-100,4,1,1,80,0,1
36425,-100,4,1,1,80,0,0

[HitObjects]
64,192,5749,128,0,5969:0:0:0:0:
448,192,5969,128,0,6190:0:0:0:0:
192,192,6190,1,0,0:0:0:0:
64,192,6190,1,0,0:0:0:0:
320,192,6410,1,0,0:0:0:0:
64,192,6631,1,0,0:0:0:0:
448,192,6631,1,0,0:0:0:0:
448,192,6852,1,0,0:0:0:0:
320,192,7072,1,0,0:0:0:0:
192,192,7072,1,0,0:0:0:0:
64,192,7293,128,0,7513:0:0:0:0:
448,192,7513,128,0,7734:0:0:0:0:
320,192,7734,1,0,0:0:0:0:
64,192,7954,128,0,8175:0:0:0:0:
448,192,8175,1,0,0:0:0:0:
192,192,8396,1,0,0:0:0:0:
448,192,8616,1,0,0:0:0:0:
64,192,8837,1,0,0:0:0:0:
192,192,8837,1,0,0:0:0:0:
448,192,9057,128,0,9278:0:0:0:0:
64,192,9278,128,0,9499:0:0:0:0:
320,192,9499,1,0,0:0:0:0:
448,192,9719,1,0,0:0:0:0:
192,192,9719,1,0,0:0:0:0:
320,192,9940,1,0,0:0:0:0:
64,192,10160,1,0,0:0:0:0:
448,192,10160,1,0,0:0:0:0:
320,192,10381,1,0,0:0:0:0:
192,192,10602,1,0,0:0:0:0:
64,192,10602,1,0,0:0:0:0:
320,192,10822,128,0,11043:0:0:0:0:
64,192,11043,128,0,11263:0:0:0:0:
448,192,11263,1,0,0:0:0:0:
64,192,11484,1,0,0:0:0:0:
192,192,11484,1,0,0:0:0:0:
320,192,11704,1,0,0:0:0:0:
448,192,11925,1,0,0:0:0:0:
64,192,11925,1,0,0:0:0:0:
192,192,12146,1,0,0:0:0:0:
448,192,12366,1,0,0:0:0:0:
320,192,12366,1,0,0:0:0:0:
64,192,12587,128,0,12807:0:0:0:0:
192,192,12807,128,0,13028:0:0:0:0:
448,192,13028,128,0,13249:0:0:0:0:
64,192,13249,128,0,13469:0:0:0:0:
320,192,13469,128,0,13690:0:0:0:0:
448,192,13690,128,0,13910:0:0:0:0:
64,192,13910,128,0,14131:0:0:0:0:
448,192,14131,128,0,14352:0:0:0:0:
320,192,14352,128,0,14572:0:0:0:0:
64,192,14572,1,0,0:0:0:0:
192,192,14572,1,0,0:0:0:0:
448,192,14793,1,0,0:0:0:0:
192,192,15013,1,0,0:0:0:0:
320,192,15013,1,0,0:0:0:0:
64,192,15234,1,0,0:0:0:0:
320,192,15454,1,0,0:0:0:0:
448,192,15454,1,0,0:0:0:0:
192,192,15675,1,0,0:0:0:0:
64,192,15896,1,0,0:0:0:0:
448,192,15896,1,0,0:0:0:0:
320,192,16116,128,0,16337:0:0:0:0:
64,192,16337,128,0,16557:0:0:0:0:
448,192,16557,1,0,0:0:0:0:
320,192,16778,1,0,0:0:0:0:
192,192,16778,1,0,0:0:0:0:
64,192,16999,128,0,17219:0:0:0:0:
448,192,17219,128,0,17440:0:0:0:0:
64,192,17440,128,0,17660:0:0:0:0:
448,192,17660,128,0,17881:0:0:0:0:
64,192,17881,128,0,18102:0:0:0:0:
192,192,18102,1,0,0:0:0:0:
320,192,18102,1,0,0:0:0:0:
448,192,18322,1,0,0:0:0:0:
64,192,18543,1,0,0:0:0:0:
320,192,18543,1,0,0:0:0:0:
448,192,18763,1,0,0:0:0:0:
64,192,18984,1,0,0:0:0:0:
192,192,18984,1,0,0:0:0:0:
320,192,19204,1,0,0:0:0:0:
192,192,19425,1,0,0:0:0:0:
448,192,19425,1,0,0:0:0:0:
64,192,19646,128,0,19866:0:0:0:0:
192,192,19866,1,0,0:0:0:0:
320,192,19866,1,0,0:0:0:0:
448,192,20087,1,0,0:0:0:0:
64,192,20307,128,0,21410:0:0:0:0:
448,192,21426,1,0,0:0:0:0:
320,192,21536,1,0,0:0:0:0:
64,192,21646,1,0,0:0:0:0:
192,192,21756,1,0,0:0:0:0:
448,192,21867,128,0,22087:0:0:0:0:
64,192,22087,128,0,22308:0:0:0:0:
192,192,22308,1,0,0:0:0:0:
320,192,22418,1,0,0:0:0:0:
448,192,22528,1,0,0:0:0:0:
64,192,22639,1,0,0:0:0:0:
320,192,22749,1,0,0:0:0:0:
448,192,22749,1,0,0:0:0:0:
64,192,22859,1,0,0:0:0:0:
448,192,22970,1,0,0:0:0:0:
320,192,23080,1,0,0:0:0:0:
64,192,23190,128,0,23411:0:0:0:0:
192,192,23190,1,0,0:0:0:0:
320,192,23301,1,0,0:0:0:0:
448,192,23411,1,0,0:0:0:0:
320,192,23521,1,0,0:0:0:0:
64,192,23631,1,0,0:0:0:0:
192,192,23742,1,0,0:0:0:0:
448,192,23852,128,0,24073:0:0:0:0:
320,192,23962,1,0,0:0:0:0:
64,192,24073,1,0,0:0:0:0:
192,192,24183,1,0,0:0:0:0:
448,192,24293,1,0,0:0:0:0:
320,192,24293,1,0,0:0:0:0:
64,192,24403,1,0,0:0:0:0:
448,192,24514,1,0,0:0:0:0:
320,192,24624,1,0,0:0:0:0:
64,192,24734,1,0,0:0:0:0:
192,192,24734,1,0,0:0:0:0:
320,192,24845,1,0,0:0:0:0:
448,192,24955,128,0,25175:0:0:0:0:
64,192,25175,128,0,25396:0:0:0:0:
448,192,25396,128,0,25617:0:0:0:0:
64,192,25617,128,0,25837:0:0:0:0:
192,192,25837,1,0,0:0:0:0:
320,192,25948,1,0,0:0:0:0:
448,192,26058,1,0,0:0:0:0:
64,192,26168,1,0,0:0:0:0:
320,192,26278,1,0,0:0:0:0:
448,192,26278,1,0,0:0:0:0:
64,192,26389,1,0,0:0:0:0:
192,192,26499,1,0,0:0:0:0:
320,192,26609,1,0,0:0:0:0:
448,192,26720,128,0,26940:0:0:0:0:
192,192,26830,1,0,0:0:0:0:
64,192,26940,1,0,0:0:0:0:
192,192,27050,1,0,0:0:0:0:
320,192,27161,1,0,0:0:0:0:
448,192,27161,1,0,0:0:0:0:
64,192,27381,1,0,0:0:0:0:
192,192,27492,1,0,0:0:0:0:
448,192,27602,128,0,27823:0:0:0:0:
320,192,27602,1,0,0:0:0:0:
64,192,27823,128,0,28043:0:0:0:0:
448,192,28043,128,0,28264:0:0:0:0:
64,192,28264,128,0,28484:0:0:0:0:
448,192,28484,1,0,0:0:0:0:
320,192,28595,1,0,0:0:0:0:
192,192,28705,1,0,0:0:0:0:
448,192,28815,1,0,0:0:0:0:
192,192,28925,1,0,0:0:0:0:
320,192,28925,1,0,0:0:0:0:
64,192,29036,1,0,0:0:0:0:
448,192,29146,128,0,29367:0:0:0:0:
64,192,29367,1,0,0:0:0:0:
320,192,29477,1,0,0:0:0:0:
448,192,29587,1,0,0:0:0:0:
64,192,29698,1,0,0:0:0:0:
320,192,29808,1,0,0:0:0:0:
192,192,29808,1,0,0:0:0:0:
448,192,29918,1,0,0:0:0:0:
64,192,30028,1,0,0:0:0:0:
320,192,30139,1,0,0:0:0:0:
192,192,30249,1,0,0:0:0:0:
448,192,30359,1,0,0:0:0:0:
64,192,30470,1,0,0:0:0:0:
192,192,30580,1,0,0:0:0:0:
448,192,30690,1,0,0:0:0:0:
320,192,30690,1,0,0:0:0:0:
64,192,30800,1,0,0:0:0:0:
448,192,30911,1,0,0:0:0:0:
320,192,31021,1,0,0:0:0:0:
64,192,31131,128,0,31352:0:0:0:0:
448,192,31352,128,0,31573:0:0:0:0:
64,192,31573,128,0,31793:0:0:0:0:
448,192,31793,128,0,32014:0:0:0:0:
320,192,32014,1,0,0:0:0:0:
192,192,32124,1,0,0:0:0:0:
64,192,32234,1,0,0:0:0:0:
448,192,32234,1,0,0:0:0:0:
192,192,32345,1,0,0:0:0:0:
448,192,32455,128,0,32675:0:0:0:0:
320,192,32675,1,0,0:0:0:0:
64,192,32786,1,0,0:0:0:0:
192,192,32896,1,0,0:0:0:0:
320,192,32896,1,0,0:0:0:0:
448,192,33006,1,0,0:0:0:0:
64,192,33117,1,0,0:0:0:0:
192,192,33227,1,0,0:0:0:0:
448,192,33337,1,0,0:0:0:0:
320,192,33448,1,0,0:0:0:0:
64,192,33558,1,0,0:0:0:0:
192,192,33668,1,0,0:0:0:0:
448,192,33778,1,0,0:0:0:0:
320,192,33778,1,0,0:0:0:0:
64,192,33889,1,0,0:0:0:0:
192,192,33999,1,0,0:0:0:0:
448,192,34109,1,0,0:0:0:0:
320,192,34220,1,0,0:0:0:0:
448,192,34330,1,0,0:0:0:0:
64,192,34440,1,0,0:0:0:0:
192,192,34440,1,0,0:0:0:0:
320,192,34550,1,0,0:0:0:0:
448,192,34661,128,0,34881:0:0:0:0:
64,192,34881,128,0,35102:0:0:0:0:
448,192,35102,128,0,35323:0:0:0:0:
64,192,35323,128,0,35543:0:0:0:0:
320,192,35543,1,0,0:0:0:0:
448,192,35653,1,0,0:0:0:0:
320,192,35764,1,0,0:0:0:0:
448,192,35874,1,0,0:0:0:0:
192,192,35984,1,0,0:0:0:0:
64,192,36095,1,0,0:0:0:0:
192,192,36205,1,0,0:0:0:0:
448,192,36315,1,0,0:0:0:0:
64,192,36425,128,0,36646:0:0:0:0:
192,192,36646,1,0,0:0:0:0:
448,192,36867,1,0,0:0:0:0:
64,192,37087,1,0,0:0:0:0:
320,192,37308,1,0,0:0:0:0:
448,192,37528,1,0,0:0:0:0:
192,192,37749,1,0,0:0:0:0:
320,192,37749,1,0,0:0:0:0:
64,192,37970,128,0,38190:0:0:0:0:
448,192,38190,1,0,0:0:0:0:
192,192,38411,1,0,0:0:0:0:
320,192,38631,1,0,0:0:0:0:
448,192,38631,1,0,0:0:0:0:
64,192,38852,128,0,39073:0:0:0:0:
448,192,39073,128,0,39293:0:0:0:0:
64,192,39293,1,0,0:0:0:0:
320,192,39514,1,0,0:0:0:0:
192,192,39514,1,0,0:0:0:0:
448,192,39734,1,0,0:0:0:0:
64,192,39955,128,0,40175:0:0:0:0:
320,192,40175,1,0,0:0:0:0:
192,192,40396,1,0,0:0:0:0:
448,192,40396,1,0,0:0:0:0:
64,192,40617,1,0,0:0:0:0:
448,192,40837,1,0,0:0:0:0:
64,192,41058,1,0,0:0:0:0:
448,192,41278,1,0,0:0:0:0:
320,192,41278,1,0,0:0:0:0:
64,192,41499,1,0,0:0:0:0:
192,192,41499,1,0,0:0:0:0:
448,192,41720,128,0,41940:0:0:0:0:
64,192,41940,128,0,42161:0:0:0:0:
448,192,42161,128,0,42381:0:0:0:0:
64,192,42381,128,0,42602:0:0:0:0:
192,192,42602,1,0,0:0:0:0:
448,192,42823,1,0,0:0:0:0:
192,192,43043,1,0,0:0:0:0:
64,192,43043,1,0,0:0:0:0:
320,192,43264,1,0,0:0:0:0:
64,192,43484,1,0,0:0:0:0:
448,192,43705,1,0,0:0:0:0:
192,192,43925,1,0,0:0:0:0:
64,192,43925,1,0,0:0:0:0:
448,192,44146,128,0,44367:0:0:0:0:
64,192,44367,128,0,44587:0:0:0:0:
192,192,44587,1,0,0:0:0:0:
320,192,44808,1,0,0:0:0:0:
448,192,44808,1,0,0:0:0:0:
64,192,45028,1,0,0:0:0:0:
448,192,45249,128,0,45470:0:0:0:0:
64,192,45470,128,0,45690:0:0:0:0:
448,192,45690,128,0,45911:0:0:0:0:
64,192,45911,128,0,46131:0:0:0:0:
192,192,46131,1,0,0:0:0:0:
448,192,46352,1,0,0:0:0:0:
192,192,46573,1,0,0:0:0:0:
64,192,46573,1,0,0:0:0:0:
448,192,46793,1,0,0:0:0:0:
320,192,47014,1,0,0:0:0:0:
64,192,47234,1,0,0:0:0:0:
448,192,47455,1,0,0:0:0:0:
320,192,47455,1,0,0:0:0:0:
64,192,47675,128,0,47896:0:0:0:0:
192,192,47896,1,0,0:0:0:0:
448,192,48117,1,0,0:0:0:0:
192,192,48337,1,0,0:0:0:0:
320,192,48337,1,0,0:0:0:0:
64,192,48558,1,0,0:0:0:0:
448,192,48778,1,0,0:0:0:0:
64,192,48999,1,0,0:0:0:0:
320,192,49220,1,0,0:0:0:0:
448,192,49220,1,0,0:0:0:0:
64,192,49440,128,0,49661:0:0:0:0:
448,192,49661,1,0,0:0:0:0:
