osu file format v14

[General]
AudioFilename: audio.mp3
AudioLeadIn: 0
PreviewTime: 21426
Countdown: 0
SampleSet: Normal
StackLeniency: 0.3
Mode: 3
LetterboxInBreaks: 0
SpecialStyle: 0
WidescreenStoryboard: 1

[Editor]
Bookmarks: 13,9278,21426,22308,36425
DistanceSpacing: 0.1
BeatDivisor: 6
GridSize: 4
TimelineZoom: 2.3

[Metadata]
Title:Hidamari no Uta (Ringtone ver.)
TitleUnicode:陽だまりの詩 (Ringtone ver.)
Artist:Yuyoyuppe
ArtistUnicode:ゆよゆっぺ
Creator:Nice Aesthetics
Version:daniel_lm's Insane
Source:
Tags:
BeatmapID:2096754
BeatmapSetID:999373

[Difficulty]
HPDrainRate:8
CircleSize:4
OverallDifficulty:8
ApproachRate:7
SliderMultiplier:1.4
SliderTickRate:1

[Events]
//Background and Video events
0,0,"bg.png",0,0
//Break Periods
//Storyboard Layer 0 (Background)
//Storyboard Layer 1 (Fail)
//Storyboard Layer 2 (Pass)
//Storyboard Layer 3 (Foreground)
//Storyboard Sound Samples

[TimingPoints]
455,441.176470588235,4,1,1,80,1,0
21426,441.176470588235,4,1,1,80,1,0
21426,-100,4,1,1,80,0,1
36425,-100,4,1,1,80,0,0

[HitObjects]
64,192,5749,5,0,0:0:0:0:
448,192,5749,128,0,5969:0:0:0:0:
192,192,5749,1,0,0:0:0:0:
320,192,5969,1,0,0:0:0:0:
64,192,6190,128,0,6410:0:0:0:0:
192,192,6190,1,0,0:0:0:0:
320,192,6410,1,0,0:0:0:0:
448,192,6410,1,0,0:0:0:0:
192,192,6631,128,0,6852:0:0:0:0:
64,192,6631,1,0,0:0:0:0:
448,192,6852,128,0,7072:0:0:0:0:
320,192,6852,1,0,0:0:0:0:
320,192,7072,128,0,7293:0:0:0:0:
64,192,7072,1,0,0:0:0:0:
64,192,7293,128,0,7513:0:0:0:0:
448,192,7293,1,0,0:0:0:0:
192,192,7513,1,0,0:0:0:0:
448,192,7734,128,0,7954:0:0:0:0:
320,192,7734,1,0,0:0:0:0:
320,192,7954,1,0,0:0:0:0:
64,192,7954,1,0,0:0:0:0:
192,192,8175,128,0,8396:0:0:0:0:
64,192,8175,1,0,0:0:0:0:
320,192,8396,1,0,0:0:0:0:
448,192,8396,1,0,0:0:0:0:
64,192,8616,1,0,0:0:0:0:
192,192,8616,1,0,0:0:0:0:
448,192,8616,1,0,0:0:0:0:
448,192,8837,1,0,0:0:0:0:
320,192,8837,1,0,0:0:0:0:
64,192,8837,1,0,0:0:0:0:
448,192,9057,1,0,0:0:0:0:
64,192,9057,1,0,0:0:0:0:
192,192,9057,1,0,0:0:0:0:
448,192,9278,128,0,9499:0:0:0:0:
320,192,9278,1,0,0:0:0:0:
64,192,9499,1,0,0:0:0:0:
192,192,9499,1,0,0:0:0:0:
320,192,9719,128,0,9940:0:0:0:0:
448,192,9719,1,0,0:0:0:0:
192,192,9940,1,0,0:0:0:0:
64,192,9940,1,0,0:0:0:0:
448,192,10160,128,0,10381:0:0:0:0:
64,192,10160,1,0,0:0:0:0:
192,192,10381,128,0,10602:0:0:0:0:
320,192,10381,1,0,0:0:0:0:
64,192,10602,128,0,10822:0:0:0:0:
448,192,10602,1,0,0:0:0:0:
448,192,10822,128,0,11043:0:0:0:0:
320,192,10822,1,0,0:0:0:0:
192,192,11043,1,0,0:0:0:0:
64,192,11043,1,0,0:0:0:0:
320,192,11263,128,0,11484:0:0:0:0:
448,192,11263,1,0,0:0:0:0:
192,192,11484,1,0,0:0:0:0:
64,192,11484,1,0,0:0:0:0:
448,192,11704,128,0,11925:0:0:0:0:
64,192,11704,1,0,0:0:0:0:
192,192,11925,1,0,0:0:0:0:
320,192,11925,1,0,0:0:0:0:
64,192,12146,128,0,12366:0:0:0:0:
320,192,12146,1,0,0:0:0:0:
192,192,12366,1,0,0:0:0:0:
448,192,12366,1,0,0:0:0:0:
320,192,12587,128,0,12807:0:0:0:0:
64,192,12587,1,0,0:0:0:0:
192,192,12807,1,0,0:0:0:0:
448,192,12807,1,0,0:0:0:0:
64,192,13028,1,0,0:0:0:0:
192,192,13028,1,0,0:0:0:0:
448,192,13028,1,0,0:0:0:0:
448,192,13249,1,0,0:0:0:0:
320,192,13249,1,0,0:0:0:0:
64,192,13249,1,0,0:0:0:0:
64,192,13469,1,0,0:0:0:0:
192,192,13469,1,0,0:0:0:0:
448,192,13469,1,0,0:0:0:0:
320,192,13690,128,0,13910:0:0:0:0:
192,192,13690,1,0,0:0:0:0:
448,192,13910,1,0,0:0:0:0:
64,192,13910,1,0,0:0:0:0:
192,192,14131,128,0,14352:0:0:0:0:
448,192,14131,1,0,0:0:0:0:
64,192,14352,1,0,0:0:0:0:
320,192,14352,1,0,0:0:0:0:
448,192,14572,128,0,14793:0:0:0:0:
320,192,14572,1,0,0:0:0:0:
64,192,14793,128,0,15013:0:0:0:0:
192,192,14793,1,0,0:0:0:0:
320,192,15013,128,0,15234:0:0:0:0:
448,192,15013,1,0,0:0:0:0:
448,192,15234,128,0,15454:0:0:0:0:
64,192,15234,1,0,0:0:0:0:
64,192,15454,128,0,15675:0:0:0:0:
192,192,15454,1,0,0:0:0:0:
192,192,15675,128,0,15896:0:0:0:0:
448,192,15675,1,0,0:0:0:0:
448,192,15896,128,0,16116:0:0:0:0:
64,192,15896,1,0,0:0:0:0:
64,192,16116,128,0,16337:0:0:0:0:
320,192,16116,1,0,0:0:0:0:
192,192,16337,1,0,0:0:0:0:
320,192,16337,1,0,0:0:0:0:
448,192,16557,1,0,0:0:0:0:
192,192,16778,1,0,0:0:0:0:
64,192,16778,1,0,0:0:0:0:
448,192,16778,1,0,0:0:0:0:
320,192,16999,1,0,0:0:0:0:
448,192,17219,1,0,0:0:0:0:
320,192,17219,1,0,0:0:0:0:
64,192,17219,1,0,0:0:0:0:
192,192,17440,1,0,0:0:0:0:
192,192,17660,1,0,0:0:0:0:
320,192,17660,1,0,0:0:0:0:
448,192,17660,1,0,0:0:0:0:
64,192,17881,1,0,0:0:0:0:
64,192,18102,1,0,0:0:0:0:
320,192,18102,1,0,0:0:0:0:
448,192,18102,128,0,18322:0:0:0:0:
64,192,18322,1,0,0:0:0:0:
192,192,18322,1,0,0:0:0:0:
320,192,18543,128,0,18763:0:0:0:0:
448,192,18543,1,0,0:0:0:0:
64,192,18763,1,0,0:0:0:0:
192,192,18763,1,0,0:0:0:0:
448,192,18984,128,0,19204:0:0:0:0:
64,192,18984,1,0,0:0:0:0:
192,192,19204,1,0,0:0:0:0:
320,192,19204,1,0,0:0:0:0:
64,192,19425,128,0,19646:0:0:0:0:
192,192,19425,1,0,0:0:0:0:
448,192,19646,1,0,0:0:0:0:
320,192,19646,1,0,0:0:0:0:
64,192,19866,128,0,21190:0:0:0:0:
448,192,19866,128,0,21190:0:0:0:0:
64,192,21410,1,0,0:0:0:0:
320,192,21410,1,0,0:0:0:0:
192,192,21536,1,0,0:0:0:0:
448,192,21536,1,0,0:0:0:0:
320,192,21646,1,0,0:0:0:0:
64,192,21646,1,0,0:0:0:0:
192,192,21756,1,0,0:0:0:0:
448,192,21756,1,0,0:0:0:0:
64,192,21867,1,0,0:0:0:0:
320,192,21867,128,0,22087:0:0:0:0:
448,192,22087,1,0,0:0:0:0:
64,192,22087,128,0,22308:0:0:0:0:
192,192,22198,1,0,0:0:0:0:
320,192,22308,1,0,0:0:0:0:
448,192,22308,1,0,0:0:0:0:
192,192,22418,1,0,0:0:0:0:
64,192,22528,1,0,0:0:0:0:
320,192,22528,1,0,0:0:0:0:
448,192,22639,1,0,0:0:0:0:
320,192,22749,1,0,0:0:0:0:
192,192,22749,1,0,0:0:0:0:
64,192,22749,1,0,0:0:0:0:
448,192,22859,1,0,0:0:0:0:
64,192,22970,1,0,0:0:0:0:
192,192,22970,1,0,0:0:0:0:
320,192,23080,1,0,0:0:0:0:
448,192,23190,1,0,0:0:0:0:
192,192,23190,1,0,0:0:0:0:
64,192,23190,1,0,0:0:0:0:
320,192,23301,1,0,0:0:0:0:
448,192,23411,1,0,0:0:0:0:
192,192,23411,1,0,0:0:0:0:
64,192,23521,1,0,0:0:0:0:
192,192,23631,1,0,0:0:0:0:
320,192,23631,1,0,0:0:0:0:
448,192,23631,1,0,0:0:0:0:
64,192,23742,1,0,0:0:0:0:
192,192,23852,1,0,0:0:0:0:
320,192,23852,1,0,0:0:0:0:
448,192,23962,1,0,0:0:0:0:
320,192,24073,1,0,0:0:0:0:
192,192,24073,1,0,0:0:0:0:
64,192,24073,1,0,0:0:0:0:
448,192,24183,1,0,0:0:0:0:
64,192,24293,1,0,0:0:0:0:
192,192,24293,1,0,0:0:0:0:
320,192,24403,1,0,0:0:0:0:
192,192,24514,1,0,0:0:0:0:
64,192,24514,1,0,0:0:0:0:
448,192,24514,1,0,0:0:0:0:
320,192,24624,1,0,0:0:0:0:
448,192,24734,1,0,0:0:0:0:
192,192,24734,1,0,0:0:0:0:
320,192,24845,1,0,0:0:0:0:
64,192,24955,128,0,25396:0:0:0:0:
448,192,24955,128,0,25396:0:0:0:0:
192,192,24955,1,0,0:0:0:0:
192,192,25175,1,0,0:0:0:0:
320,192,25175,1,0,0:0:0:0:
192,192,25396,128,0,25837:0:0:0:0:
320,192,25396,128,0,25837:0:0:0:0:
64,192,25617,1,0,0:0:0:0:
448,192,25617,1,0,0:0:0:0:
64,192,25837,1,0,0:0:0:0:
448,192,25837,1,0,0:0:0:0:
320,192,25948,1,0,0:0:0:0:
192,192,26058,1,0,0:0:0:0:
64,192,26058,1,0,0:0:0:0:
448,192,26168,1,0,0:0:0:0:
320,192,26278,1,0,0:0:0:0:
192,192,26278,1,0,0:0:0:0:
64,192,26278,1,0,0:0:0:0:
448,192,26389,1,0,0:0:0:0:
64,192,26499,1,0,0:0:0:0:
320,192,26499,1,0,0:0:0:0:
192,192,26609,1,0,0:0:0:0:
448,192,26720,1,0,0:0:0:0:
64,192,26720,1,0,0:0:0:0:
320,192,26720,1,0,0:0:0:0:
192,192,26830,1,0,0:0:0:0:
448,192,26940,1,0,0:0:0:0:
320,192,26940,1,0,0:0:0:0:
192,192,27050,1,0,0:0:0:0:
320,192,27161,1,0,0:0:0:0:
448,192,27161,1,0,0:0:0:0:
64,192,27161,1,0,0:0:0:0:
192,192,27271,1,0,0:0:0:0:
448,192,27381,1,0,0:0:0:0:
64,192,27381,1,0,0:0:0:0:
320,192,27492,1,0,0:0:0:0:
192,192,27602,1,0,0:0:0:0:
64,192,27602,1,0,0:0:0:0:
448,192,27602,1,0,0:0:0:0:
320,192,27712,1,0,0:0:0:0:
64,192,27823,1,0,0:0:0:0:
192,192,27823,1,0,0:0:0:0:
320,192,27933,1,0,0:0:0:0:
448,192,28043,1,0,0:0:0:0:
192,192,28043,1,0,0:0:0:0:
64,192,28043,1,0,0:0:0:0:
320,192,28153,1,0,0:0:0:0:
448,192,28264,1,0,0:0:0:0:
64,192,28374,1,0,0:0:0:0:
320,192,28484,1,0,0:0:0:0:
192,192,28484,128,0,28925:0:0:0:0:
448,192,28484,128,0,28925:0:0:0:0:
64,192,28484,1,0,0:0:0:0:
320,192,28705,1,0,0:0:0:0:
64,192,28925,128,0,29367:0:0:0:0:
320,192,28925,128,0,29367:0:0:0:0:
448,192,29146,1,0,0:0:0:0:
192,192,29146,1,0,0:0:0:0:
192,192,29367,1,0,0:0:0:0:
448,192,29367,1,0,0:0:0:0:
320,192,29477,1,0,0:0:0:0:
64,192,29587,1,0,0:0:0:0:
448,192,29587,1,0,0:0:0:0:
192,192,29698,1,0,0:0:0:0:
448,192,29808,1,0,0:0:0:0:
320,192,29808,1,0,0:0:0:0:
192,192,29918,1,0,0:0:0:0:
64,192,30028,1,0,0:0:0:0:
320,192,30028,1,0,0:0:0:0:
448,192,30028,1,0,0:0:0:0:
192,192,30139,1,0,0:0:0:0:
320,192,30249,1,0,0:0:0:0:
448,192,30249,1,0,0:0:0:0:
64,192,30359,1,0,0:0:0:0:
192,192,30470,1,0,0:0:0:0:
320,192,30470,1,0,0:0:0:0:
448,192,30580,1,0,0:0:0:0:
192,192,30690,1,0,0:0:0:0:
64,192,30690,1,0,0:0:0:0:
320,192,30800,1,0,0:0:0:0:
192,192,30911,1,0,0:0:0:0:
448,192,30911,1,0,0:0:0:0:
64,192,31021,1,0,0:0:0:0:
192,192,31131,1,0,0:0:0:0:
320,192,31131,1,0,0:0:0:0:
448,192,31242,1,0,0:0:0:0:
192,192,31352,1,0,0:0:0:0:
64,192,31352,1,0,0:0:0:0:
320,192,31352,1,0,0:0:0:0:
448,192,31462,1,0,0:0:0:0:
192,192,31573,1,0,0:0:0:0:
320,192,31573,1,0,0:0:0:0:
64,192,31683,1,0,0:0:0:0:
320,192,31793,1,0,0:0:0:0:
448,192,31793,1,0,0:0:0:0:
192,192,31793,1,0,0:0:0:0:
64,192,31903,1,0,0:0:0:0:
448,192,32014,1,0,0:0:0:0:
320,192,32014,1,0,0:0:0:0:
192,192,32014,1,0,0:0:0:0:
64,192,32124,1,0,0:0:0:0:
192,192,32234,1,0,0:0:0:0:
448,192,32234,1,0,0:0:0:0:
320,192,32345,1,0,0:0:0:0:
192,192,32455,1,0,0:0:0:0:
64,192,32455,1,0,0:0:0:0:
448,192,32455,1,0,0:0:0:0:
320,192,32565,1,0,0:0:0:0:
448,192,32675,1,0,0:0:0:0:
64,192,32675,1,0,0:0:0:0:
192,192,32675,1,0,0:0:0:0:
320,192,32786,1,0,0:0:0:0:
192,192,32896,1,0,0:0:0:0:
64,192,32896,1,0,0:0:0:0:
320,192,32970,1,0,0:0:0:0:
448,192,32970,1,0,0:0:0:0:
64,192,33043,1,0,0:0:0:0:
192,192,33043,1,0,0:0:0:0:
320,192,33117,1,0,0:0:0:0:
448,192,33117,1,0,0:0:0:0:
192,192,33190,1,0,0:0:0:0:
64,192,33190,1,0,0:0:0:0:
320,192,33264,1,0,0:0:0:0:
448,192,33264,1,0,0:0:0:0:
192,192,33337,1,0,0:0:0:0:
64,192,33337,1,0,0:0:0:0:
320,192,33411,1,0,0:0:0:0:
448,192,33411,1,0,0:0:0:0:
192,192,33484,1,0,0:0:0:0:
64,192,33484,1,0,0:0:0:0:
320,192,33558,1,0,0:0:0:0:
448,192,33558,1,0,0:0:0:0:
192,192,33631,1,0,0:0:0:0:
64,192,33631,1,0,0:0:0:0:
320,192,33705,1,0,0:0:0:0:
448,192,33705,1,0,0:0:0:0:
64,192,33778,1,0,0:0:0:0:
192,192,33778,1,0,0:0:0:0:
320,192,33852,1,0,0:0:0:0:
64,192,33925,1,0,0:0:0:0:
192,192,33925,1,0,0:0:0:0:
320,192,33999,1,0,0:0:0:0:
64,192,34073,1,0,0:0:0:0:
192,192,34073,1,0,0:0:0:0:
320,192,34146,1,0,0:0:0:0:
64,192,34220,1,0,0:0:0:0:
192,192,34220,1,0,0:0:0:0:
320,192,34293,1,0,0:0:0:0:
64,192,34367,1,0,0:0:0:0:
192,192,34367,1,0,0:0:0:0:
320,192,34440,1,0,0:0:0:0:
64,192,34514,1,0,0:0:0:0:
192,192,34514,1,0,0:0:0:0:
320,192,34587,1,0,0:0:0:0:
448,192,34661,1,0,0:0:0:0:
192,192,34661,1,0,0:0:0:0:
64,192,34734,1,0,0:0:0:0:
192,192,34808,1,0,0:0:0:0:
320,192,34881,1,0,0:0:0:0:
448,192,34881,1,0,0:0:0:0:
64,192,34955,1,0,0:0:0:0:
448,192,35028,1,0,0:0:0:0:
320,192,35102,1,0,0:0:0:0:
192,192,35102,1,0,0:0:0:0:
64,192,35175,1,0,0:0:0:0:
448,192,35249,1,0,0:0:0:0:
192,192,35323,1,0,0:0:0:0:
64,192,35323,1,0,0:0:0:0:
448,192,35396,1,0,0:0:0:0:
64,192,35470,1,0,0:0:0:0:
448,192,35543,1,0,0:0:0:0:
320,192,35543,1,0,0:0:0:0:
64,192,35653,1,0,0:0:0:0:
192,192,35653,1,0,0:0:0:0:
448,192,35764,1,0,0:0:0:0:
320,192,35764,1,0,0:0:0:0:
64,192,35984,1,0,0:0:0:0:
320,192,35984,1,0,0:0:0:0:
448,192,36095,1,0,0:0:0:0:
192,192,36095,1,0,0:0:0:0:
64,192,36205,1,0,0:0:0:0:
320,192,36205,1,0,0:0:0:0:
192,192,36315,1,0,0:0:0:0:
448,192,36425,128,0,36646:0:0:0:0:
320,192,36425,1,0,0:0:0:0:
192,192,36646,1,0,0:0:0:0:
64,192,36646,1,0,0:0:0:0:
320,192,36867,128,0,37087:0:0:0:0:
448,192,36867,1,0,0:0:0:0:
64,192,37087,1,0,0:0:0:0:
192,192,37087,1,0,0:0:0:0:
448,192,37308,128,0,37528:0:0:0:0:
320,192,37308,1,0,0:0:0:0:
192,192,37528,128,0,37749:0:0:0:0:
64,192,37528,1,0,0:0:0:0:
64,192,37749,128,0,37970:0:0:0:0:
448,192,37749,1,0,0:0:0:0:
448,192,37970,128,0,38190:0:0:0:0:
192,192,37970,1,0,0:0:0:0:
192,192,38190,128,0,38411:0:0:0:0:
64,192,38190,1,0,0:0:0:0:
64,192,38411,128,0,38631:0:0:0:0:
448,192,38411,1,0,0:0:0:0:
448,192,38631,128,0,38852:0:0:0:0:
192,192,38631,1,0,0:0:0:0:
192,192,38852,128,0,39073:0:0:0:0:
320,192,38852,1,0,0:0:0:0:
64,192,39073,1,0,0:0:0:0:
448,192,39073,1,0,0:0:0:0:
320,192,39293,128,0,39514:0:0:0:0:
192,192,39293,1,0,0:0:0:0:
448,192,39514,1,0,0:0:0:0:
64,192,39514,1,0,0:0:0:0:
192,192,39734,128,0,39955:0:0:0:0:
64,192,39734,1,0,0:0:0:0:
448,192,39955,1,0,0:0:0:0:
320,192,39955,1,0,0:0:0:0:
64,192,40175,1,0,0:0:0:0:
192,192,40175,1,0,0:0:0:0:
448,192,40175,1,0,0:0:0:0:
64,192,40396,1,0,0:0:0:0:
448,192,40396,1,0,0:0:0:0:
320,192,40396,1,0,0:0:0:0:
64,192,40617,1,0,0:0:0:0:
192,192,40617,1,0,0:0:0:0:
448,192,40617,1,0,0:0:0:0:
448,192,40837,128,0,41058:0:0:0:0:
192,192,40837,1,0,0:0:0:0:
320,192,41058,1,0,0:0:0:0:
64,192,41058,1,0,0:0:0:0:
192,192,41278,128,0,41499:0:0:0:0:
64,192,41278,1,0,0:0:0:0:
320,192,41499,1,0,0:0:0:0:
448,192,41499,1,0,0:0:0:0:
64,192,41720,128,0,41940:0:0:0:0:
448,192,41720,1,0,0:0:0:0:
320,192,41940,1,0,0:0:0:0:
192,192,41940,1,0,0:0:0:0:
448,192,42161,128,0,42381:0:0:0:0:
192,192,42161,1,0,0:0:0:0:
320,192,42381,1,0,0:0:0:0:
64,192,42381,1,0,0:0:0:0:
64,192,42602,1,0,0:0:0:0:
192,192,42602,1,0,0:0:0:0:
448,192,42602,1,0,0:0:0:0:
320,192,42823,1,0,0:0:0:0:
192,192,43043,1,0,0:0:0:0:
64,192,43043,1,0,0:0:0:0:
320,192,43043,1,0,0:0:0:0:
448,192,43264,1,0,0:0:0:0:
448,192,43484,1,0,0:0:0:0:
192,192,43484,1,0,0:0:0:0:
64,192,43484,1,0,0:0:0:0:
320,192,43705,1,0,0:0:0:0:
448,192,43925,1,0,0:0:0:0:
320,192,43925,1,0,0:0:0:0:
64,192,43925,1,0,0:0:0:0:
192,192,44146,1,0,0:0:0:0:
320,192,44367,1,0,0:0:0:0:
448,192,44367,128,0,44587:0:0:0:0:
64,192,44367,1,0,0:0:0:0:
64,192,44587,128,0,44808:0:0:0:0:
192,192,44587,1,0,0:0:0:0:
320,192,44808,128,0,45028:0:0:0:0:
448,192,44808,1,0,0:0:0:0:
448,192,45028,128,0,45249:0:0:0:0:
64,192,45028,1,0,0:0:0:0:
64,192,45249,128,0,45470:0:0:0:0:
320,192,45249,1,0,0:0:0:0:
320,192,45470,128,0,45690:0:0:0:0:
448,192,45470,1,0,0:0:0:0:
64,192,45690,128,0,45911:0:0:0:0:
192,192,45690,1,0,0:0:0:0:
448,192,45911,128,0,46131:0:0:0:0:
320,192,45911,1,0,0:0:0:0:
192,192,46131,1,0,0:0:0:0:
64,192,46131,1,0,0:0:0:0:
320,192,46352,128,0,46573:0:0:0:0:
448,192,46352,1,0,0:0:0:0:
192,192,46573,1,0,0:0:0:0:
64,192,46573,1,0,0:0:0:0:
448,192,46793,128,0,47014:0:0:0:0:
192,192,46793,1,0,0:0:0:0:
320,192,47014,1,0,0:0:0:0:
64,192,47014,1,0,0:0:0:0:
192,192,47234,128,0,47455:0:0:0:0:
320,192,47234,1,0,0:0:0:0:
64,192,47455,1,0,0:0:0:0:
448,192,47455,1,0,0:0:0:0:
320,192,47675,128,0,47896:0:0:0:0:
448,192,47896,1,0,0:0:0:0:
64,192,47896,1,0,0:0:0:0:
64,192,48117,1,0,0:0:0:0:
192,192,48117,1,0,0:0:0:0:
448,192,48117,1,0,0:0:0:0:
448,192,48337,1,0,0:0:0:0:
320,192,48337,1,0,0:0:0:0:
64,192,48337,1,0,0:0:0:0:
448,192,48558,1,0,0:0:0:0:
320,192,48558,1,0,0:0:0:0:
192,192,48558,1,0,0:0:0:0:
64,192,48778,1,0,0:0:0:0:
448,192,48778,1,0,0:0:0:0:
320,192,48778,1,0,0:0:0:0:
64,192,48999,1,0,0:0:0:0:
192,192,48999,128,0,49220:0:0:0:0:
448,192,49220,1,0,0:0:0:0:
320,192,49220,1,0,0:0:0:0:
64,192,49440,128,0,49661:0:0:0:0:
448,192,49440,1,0,0:0:0:0:
192,192,49661,1,0,0:0:0:0:
320,192,49661,1,0,0:0:0:0:
