osu file format v14

[General]
AudioFilename: audio.mp3
AudioLeadIn: 0
PreviewTime: 77705
Countdown: 0
SampleSet: Normal
StackLeniency: 0.7
Mode: 0
LetterboxInBreaks: 0
WidescreenStoryboard: 1

[Editor]
DistanceSpacing: 1.1
BeatDivisor: 4
GridSize: 16
TimelineZoom: 0.9

[Metadata]
Title:Story Of Hope (MuryokuP Remix)
TitleUnicode:Story Of Hope (MuryokuP Remix)
Artist:Yuyoyuppe x MuryokuP
ArtistUnicode:Yuyoyuppe x MuryokuP
Creator:NoSanity
Version:Normal
Source:
Tags:Vocaloid Remix Japanese Metal Roock Piano
BeatmapID:1900231
BeatmapSetID:907121

[Difficulty]
HPDrainRate:4
CircleSize:3
OverallDifficulty:4
ApproachRate:5
SliderMultiplier:1.6
SliderTickRate:1

[Events]
//Background and Video events
0,0,"661119.png",0,0
//Break Periods
2,32666,44600
2,135524,137933
2,181238,195076
//Storyboard Layer 0 (Background)
//Storyboard Layer 1 (Fail)
//Storyboard Layer 2 (Pass)
//Storyboard Layer 3 (Foreground)
//Storyboard Sound Samples

[TimingPoints]
1991,476.190855372885,4,1,0,100,1,0
17229,-100,4,1,0,100,0,0
19848,-100,4,1,0,100,0,0
21038,-100,4,1,0,100,0,0
21753,-100,4,1,0,100,0,0
22943,-100,4,1,0,100,0,0
23657,-100,4,1,0,100,0,0
24848,-100,4,1,0,100,0,0
25562,-100,4,1,0,100,0,0
26753,-100,4,1,0,100,0,0
27467,-100,4,1,0,100,0,0
28657,-100,4,1,0,100,0,0
29372,-100,4,1,0,100,0,0
45800,-100,4,1,0,100,0,0
62943,-100,4,1,0,100,0,0
63890,-100,4,1,0,100,0,0
65562,-100,4,1,0,100,0,0
66633,-100,4,1,0,100,0,0
66753,-100,4,1,0,100,0,0
67467,-100,4,1,0,100,0,0
71276,-100,4,1,0,100,0,0
73181,-100,4,1,0,100,0,0
78181,-100,4,1,0,100,0,0
80919,-100,4,1,0,100,0,0
81991,-100,4,1,0,100,0,0
82705,-100,4,1,0,100,0,0
83895,-100,4,1,0,100,0,0
84610,-100,4,1,0,100,0,0
85800,-100,4,1,0,100,0,0
86514,-100,4,1,0,100,0,0
87705,-100,4,1,0,100,0,0
88419,-100,4,1,0,100,0,0
89610,-100,4,1,0,100,0,0
90324,-100,4,1,0,100,0,0
90562,-100,4,1,0,100,0,0
97229,-100,4,1,0,100,0,0
104848,-100,4,1,0,100,0,0
135324,-100,4,1,0,100,0,0
139133,-100,4,1,0,100,0,0
141038,-100,4,1,0,100,0,0
146753,-100,4,1,0,100,0,0
150562,-100,4,1,0,100,0,1
153419,-100,4,1,0,100,0,1
154372,-100,4,1,0,100,0,1
155562,-100,4,1,0,100,0,1
156038,-100,4,1,0,100,0,1
156276,-100,4,1,0,100,0,1
156991,-100,4,1,0,100,0,1
158181,-100,4,1,0,100,0,1
165800,-100,4,1,0,100,0,0
168419,-100,4,1,0,100,0,0
169610,-100,4,1,0,100,0,0
170443,-100,4,1,0,100,0,0
171514,-100,4,1,0,100,0,0
172348,-100,4,1,0,100,0,0
181038,-100,4,1,0,100,0,0
196276,-100,4,1,0,100,0,0
198062,-100,4,1,0,100,0,0
200086,-100,4,1,0,100,0,0
201276,-100,4,1,0,100,0,0
203890,-100,4,1,0,100,0,0
210800,-100,4,1,0,100,0,0
211038,-100,4,1,0,100,0,0
211514,-100,4,1,0,100,0,0
214967,-100,4,1,0,100,0,0
219134,-100,4,1,0,100,0,1
219491,-100,4,1,0,100,0,1
221753,-100,4,1,0,100,0,1
222943,-100,4,1,0,100,0,1
223657,-100,4,1,0,100,0,1
224134,-100,4,1,0,100,0,1
225800,-100,4,1,0,100,0,1
226753,-100,4,1,0,100,0,1
229729,-100,4,1,0,100,0,1
230562,-100,4,1,0,100,0,1
231038,-100,4,1,0,100,0,1
238181,-100,4,1,0,100,0,0
238538,-100,4,1,0,100,0,0
240800,-100,4,1,0,100,0,0
240919,-100,4,1,0,100,0,0
241991,-100,4,1,0,100,0,0
242824,-100,4,1,0,100,0,0
243895,-100,4,1,0,100,0,0
244610,-100,4,1,0,100,0,0
245800,-100,4,1,0,100,0,0
246157,-100,4,1,0,100,0,0
248419,-100,4,1,0,100,0,0
249610,-100,4,1,0,100,0,0
250324,-100,4,1,0,100,0,0
251515,-100,4,1,0,100,0,0
268657,-100,4,1,0,100,0,0
269491,-100,4,1,0,100,0,0
272467,-100,4,1,0,100,0,0
274372,-100,4,1,0,100,0,0

[HitObjects]
52,216,1991,6,0,L|90:126,1,80
136,216,2467,2,0,L|176:131,1,80
254,167,2943,1,8,0:0:0:0:
293,88,3181,1,0,0:0:0:0:
380,84,3419,2,0,P|391:122|388:161,1,80
387,244,4610,5,0,0:0:0:0:
299,241,4848,1,8,0:0:0:0:
174,284,5205,1,0,0:0:0:0:
181,152,5562,1,0,0:0:0:0:
230,79,5800,6,0,L|312:129,1,80
305,31,6276,2,0,L|387:81,1,80
453,36,6752,1,8,0:0:0:0:
435,122,6991,1,0,0:0:0:0:
416,208,7229,2,0,P|376:206|337:216,1,80
230,61,8419,5,0,0:0:0:0:
151,99,8657,1,8,0:0:0:0:
165,230,9014,1,0,0:0:0:0:
281,291,9371,1,0,0:0:0:0:
318,211,9610,6,0,P|313:149|274:120,1,80
246,69,10086,2,0,P|162:53|137:64,1,80
176,138,10562,1,8,0:0:0:0:
101,187,10800,1,0,0:0:0:0:
13,192,11038,2,0,P|16:152|36:117,1,80
236,74,12229,5,0,0:0:0:0:
292,6,12467,1,8,0:0:0:0:
396,86,12824,1,0,0:0:0:0:
388,217,13181,1,0,0:0:0:0:
299,272,13419,6,0,P|259:226|215:213,1,80
191,289,13895,2,0,P|132:238|131:206,1,80
45,249,14371,1,8,0:0:0:0:
75,166,14610,2,0,L|109:87,1,80
145,13,15086,1,0,0:0:0:0:
431,190,16038,5,0,0:0:0:0:
343,196,16276,2,0,L|277:279,1,80,8|0,0:0|0:0,0:0:0:0:
207,240,16752,2,0,L|256:177,1,80,8|0,0:0|0:0,0:0:0:0:
313,109,17229,2,0,P|252:80|178:105,1,120,4|0,0:0|0:0,0:0:0:0:
76,129,17943,2,0,P|17:137|-27:119,2,80,0|8|0,0:0|0:0|0:0,0:0:0:0:
358,34,19133,6,0,P|420:47|422:119,1,120,4|0,0:0|0:0,0:0:0:0:
412,226,19848,1,0,0:0:0:0:
333,183,20086,2,0,L|259:139,1,80,8|0,0:0|0:0,0:0:0:0:
219,217,20562,2,0,L|287:257,1,80,8|0,0:0|0:0,0:0:0:0:
313,341,21038,6,0,P|235:356|169:326,1,120,4|0,0:0|0:0,0:0:0:0:
92,264,21752,1,0,0:0:0:0:
38,193,21991,2,0,P|84:141|117:127,1,80,8|0,0:0|0:0,0:0:0:0:
245,47,22943,6,0,B|316:57|285:110|379:121,1,120,4|0,0:0|0:0,0:0:0:0:
439,200,23657,1,0,0:0:0:0:
352,214,23895,2,0,P|298:231|272:280,1,80,8|0,0:0|0:0,0:0:0:0:
351,303,24371,2,0,P|320:350|332:404,1,80,8|0,0:0|0:0,0:0:0:0:
231,369,24848,6,0,P|171:323|159:258,1,120,4|0,0:0|0:0,0:0:0:0:
140,152,25562,1,0,0:0:0:0:
155,65,25800,2,0,P|224:51|264:68,1,80,8|0,0:0|0:0,0:0:0:0:
412,175,26752,6,0,P|401:237|328:276,1,120,4|0,0:0|0:0,0:0:0:0:
226,280,27467,1,0,0:0:0:0:
145,244,27705,2,0,L|106:144,1,80,8|0,0:0|0:0,0:0:0:0:
92,84,28181,2,0,L|209:83,1,80,8|0,0:0|0:0,0:0:0:0:
281,85,28657,6,4,P|354:133|357:180,1,120,4|0,0:0|0:0,0:0:0:0:
299,276,29371,1,0,0:0:0:0:
218,312,29610,2,8,P|161:261|149:230,1,80,8|0,0:0|0:0,0:0:0:0:
192,33,30562,6,0,L|308:47,1,80,8|0,0:0|0:0,0:0:0:0:
266,130,31038,2,0,L|158:116,1,80,8|0,0:0|0:0,0:0:0:0:
112,167,31514,2,0,P|127:243|315:186,1,320,8|4,0:0|0:0,0:0:0:0:
81,305,45800,5,12,0:0:0:0:
118,178,46157,1,12,0:0:0:0:
215,88,46514,1,12,0:0:0:0:
298,63,46752,2,0,B|378:109|345:165|427:203,1,160
461,245,47467,5,0,0:0:0:0:
415,320,47705,2,0,B|367:360|367:360|255:360,1,160,4|0,0:0|0:0,0:0:0:0:
300,277,48419,2,0,P|232:269|153:336,1,160
88,270,49133,1,8,0:0:0:0:
58,187,49371,1,0,0:0:0:0:
88,104,49610,2,0,P|182:69|232:132,1,160
156,161,50324,2,0,P|206:197|295:155,1,160
362,112,51038,1,8,0:0:0:0:
447,90,51276,5,0,0:0:0:0:
456,177,51514,2,0,P|436:259|379:310,1,160,4|0,0:0|0:0,0:0:0:0:
295,325,52229,2,0,P|213:305|162:248,1,160
192,168,52943,1,8,0:0:0:0:
249,101,53181,1,0,0:0:0:0:
315,42,53419,2,0,P|251:17|173:67,1,160
137,139,54133,2,0,P|65:169|58:85,1,160
79,28,54848,1,8,0:0:0:0:
169,28,55086,5,0,0:0:0:0:
253,52,55324,2,0,P|331:83|357:160,1,160,4|0,0:0|0:0,0:0:0:0:
268,156,56038,2,0,B|288:232|288:232|371:273,1,160
409,341,56752,1,8,0:0:0:0:
232,343,57229,1,0,0:0:0:0:
167,179,57705,2,0,P|162:120|190:71,1,80
345,123,58419,1,0,0:0:0:0:
413,67,58657,1,8,0:0:0:0:
249,39,59133,6,0,P|192:74|206:142,1,120,4|0,0:0|0:0,0:0:0:0:
150,247,59848,2,0,L|256:260,1,80,0|8,0:0|0:0,0:0:0:0:
211,342,60324,2,0,L|318:322,1,80,0|8,0:0|0:0,0:0:0:0:
453,263,61038,6,0,P|468:197|410:159,1,120,4|0,0:0|0:0,0:0:0:0:
335,78,61752,1,0,0:0:0:0:
252,47,61991,2,0,P|152:51|125:133,1,160,8|0,0:0|0:0,0:0:0:0:
105,180,62705,1,8,0:0:0:0:
96,267,62943,6,0,P|49:254|6:197,2,120,4|0|0,0:0|0:0|0:0,0:0:0:0:
183,277,63895,2,0,P|255:294|284:318,1,80,8|0,0:0|0:0,0:0:0:0:
434,282,64610,1,8,0:0:0:0:
512,327,64848,6,0,P|514:233|480:199,1,120,4|0,0:0|0:0,0:0:0:0:
407,123,65562,2,0,L|454:40,1,80,0|8,0:0|0:0,0:0:0:0:
365,19,66038,2,0,L|317:99,1,80,0|8,0:0|0:0,0:0:0:0:
269,156,66514,1,0,0:0:0:0:
351,187,66752,6,0,P|328:241|242:234,1,120,4|0,0:0|0:0,0:0:0:0:
150,206,67467,1,0,0:0:0:0:
83,148,67705,2,0,P|121:97|157:87,1,80,8|0,0:0|0:0,0:0:0:0:
390,28,68657,6,0,B|423:68|392:118|441:171,1,120,4|0,0:0|0:0,0:0:0:0:
433,274,69372,1,0,0:0:0:0:
410,358,69610,2,0,P|363:337|320:299,1,80,8|0,0:0|0:0,0:0:0:0:
275,260,70086,1,8,0:0:0:0:
212,197,70324,1,0,0:0:0:0:
154,130,70562,6,0,P|219:81|280:75,1,120,4|0,0:0|0:0,0:0:0:0:
387,74,71276,1,0,0:0:0:0:
463,117,71514,2,0,P|445:183|428:218,1,80,8|0,0:0|0:0,0:0:0:0:
288,284,72229,1,8,0:0:0:0:
310,198,72467,6,0,P|240:208|190:272,1,120,4|0,0:0|0:0,0:0:0:0:
88,302,73181,2,0,L|46:201,1,80,0|8,0:0|0:0,0:0:0:0:
139,197,73657,2,0,L|108:123,1,80,0|8,0:0|0:0,0:0:0:0:
82,38,74133,1,0,0:0:0:0:
169,24,74372,1,4,0:0:0:0:
254,5,74610,2,0,L|272:61,1,40,8|0,0:0|0:0,0:0:0:0:
304,169,75086,6,0,L|339:268,1,80,0|8,1:3|0:0,0:3:0:0:
356,328,75562,2,0,L|293:349,1,40,8|0,0:0|0:0,0:0:0:0:
190,376,76038,1,0,0:0:0:0:
103,362,76276,2,0,P|36:313|69:226,1,160,8|0,0:0|0:0,0:0:0:0:
101,174,76991,2,0,P|197:197|278:172,1,160,8|0,0:0|0:0,0:0:0:0:
410,100,78181,6,0,P|420:37|477:14,2,120,4|0|0,0:0|0:0|0:0,0:0:0:0:
427,186,79133,1,8,0:0:0:0:
456,269,79372,1,0,0:0:0:0:
305,177,79848,5,8,0:0:0:0:
337,258,80086,2,0,P|329:329|267:355,1,120,4|0,0:0|0:0,0:0:0:0:
165,316,80800,2,0,L|76:360,1,80,0|8,0:0|0:0,0:0:0:0:
54,272,81276,2,0,L|125:236,1,80,0|8,0:0|0:0,0:0:0:0:
171,161,81752,1,0,0:0:0:0:
99,109,81991,6,0,P|174:77|239:106,1,120,4|0,0:0|0:0,0:0:0:0:
331,133,82705,1,0,0:0:0:0:
408,173,82943,2,0,P|403:238|383:274,1,80,8|0,0:0|0:0,0:0:0:0:
166,378,83895,6,0,P|115:367|91:275,1,120,4|0,0:0|0:0,0:0:0:0:
83,178,84610,1,0,0:0:0:0:
168,197,84848,2,0,L|206:281,1,80,8|0,0:0|0:0,0:0:0:0:
283,240,85324,2,0,L|250:167,1,80,8|0,0:0|0:0,0:0:0:0:
216,85,85800,2,0,P|224:22|293:40,1,120,4|0,0:0|0:0,0:0:0:0:
394,62,86514,5,0,0:0:0:0:
473,100,86752,2,0,L|466:211,1,80,8|0,0:0|0:0,0:0:0:0:
388,218,87229,2,0,L|393:138,1,80,8|0,0:0|0:0,0:0:0:0:
395,50,87705,2,0,P|366:2|310:20,1,120,4|0,0:0|0:0,0:0:0:0:
248,132,88419,6,0,P|251:208|232:236,1,80,0|8,0:0|0:0,0:0:0:0:
165,188,88895,2,8,P|161:111|180:83,1,80,0|8,0:0|0:0,0:0:0:0:
202,32,89372,1,0,0:0:0:0:
114,23,89610,2,0,P|68:39|41:137,1,120,12|0,0:0|0:0,0:0:0:0:
57,226,90324,5,0,0:0:0:0:
138,192,90562,2,0,P|202:214|233:215,1,80,8|0,0:0|0:0,0:0:0:0:
350,104,91276,5,0,0:0:0:0:
434,129,91514,2,0,L|474:226,1,80,12|0,0:0|0:0,0:0:0:0:
376,211,91991,2,12,L|361:292,1,80,12|0,0:0|0:0,0:0:0:0:
305,358,92467,2,0,P|229:373|141:322,1,160,8|0,0:0|0:0,0:0:0:0:
143,252,93181,1,0,0:0:0:0:
51,199,93419,6,4,P|119:121|180:103,1,160
339,50,94372,2,4,P|348:118|305:195,1,160
216,149,95086,1,8,0:0:0:0:
134,215,95324,6,4,P|165:287|228:335,1,160
404,347,96276,2,4,P|443:269|421:175,1,160
406,115,96991,1,8,0:0:0:0:
339,57,97229,6,0,B|254:55|254:55|192:117,1,160,4|0,0:0|0:0,0:0:0:0:
272,158,97943,1,0,0:0:0:0:
270,245,98181,6,0,B|268:333|268:333|188:363,1,160,4|0,0:0|0:0,0:0:0:0:
113,373,98895,1,0,0:0:0:0:
50,310,99133,6,0,P|23:247|32:169,1,120,12|8,0:0|0:0,0:0:0:0:
90,82,99848,2,0,L|160:145,1,80,0|8,0:0|0:0,0:0:0:0:
186,55,100324,2,0,L|233:123,1,80,0|8,0:0|0:0,0:0:0:0:
290,55,100800,1,8,0:0:0:0:
332,135,101038,6,4,P|357:210|295:297,1,160
141,282,101991,2,4,P|115:206|177:119,1,160
293,37,102943,2,0,L|338:118,1,80
276,175,103419,2,0,L|231:94,1,80
169,161,103895,1,8,0:0:0:0:
124,68,104848,6,0,P|165:57|274:110,1,160
318,174,105562,1,0,0:0:0:0:
396,133,105800,2,0,P|410:174|384:240,1,80,8|0,0:0|0:0,0:0:0:0:
342,269,106276,2,0,P|298:268|244:221,1,80
86,57,107467,6,0,L|189:52,1,80,0|8,0:0|0:0,0:0:0:0:
268,136,108062,1,8,0:0:0:0:
173,227,108419,1,8,0:0:0:0:
185,314,108657,6,4,B|257:306|257:306|256:263|287:231|342:238,1,160,4|0,0:0|0:0,0:0:0:0:
346,313,109372,1,0,0:0:0:0:
433,307,109610,2,0,L|434:204,1,80,8|0,0:0|0:0,0:0:0:0:
432,139,110086,2,0,L|329:138,1,80
267,30,111276,6,0,P|252:80|197:92,1,80,0|8,0:0|0:0,0:0:0:0:
100,121,111872,1,8,0:0:0:0:
84,252,112229,1,8,0:0:0:0:
6,294,112467,6,0,P|40:325|160:318,1,160,4|0,0:0|0:0,0:0:0:0:
223,279,113181,1,0,0:0:0:0:
280,212,113419,1,8,0:0:0:0:
368,201,113657,2,0,P|363:245|327:288,2,80
245,12,115086,6,0,P|242:74|237:106,1,80,0|8,0:0|0:0,0:0:0:0:
77,144,115681,2,8,B|77:204|92:230|92:230|157:243,1,120
153,318,116276,6,0,B|213:295|220:228|291:189,1,160,4|0,0:0|0:0,0:0:0:0:
332,264,116991,1,0,0:0:0:0:
409,306,117229,2,0,P|417:246|385:207,1,80,8|0,0:0|0:0,0:0:0:0:
375,149,117705,2,0,P|366:89|398:50,1,80
466,65,118895,5,0,0:0:0:0:
471,152,119133,2,0,P|444:185|400:217,1,80,8|0,0:0|0:0,0:0:0:0:
395,294,119610,2,0,P|362:267|330:223,1,80,0|8,0:0|0:0,0:0:0:0:
286,167,120086,6,0,P|226:109|138:119,1,160,4|0,0:0|0:0,0:0:0:0:
188,191,120800,2,0,B|183:268|183:268|259:299,1,160
342,329,121514,1,8,0:0:0:0:
375,247,121753,1,0,0:0:0:0:
406,164,121991,2,0,B|428:107|469:77|469:77|405:76,1,160
330,72,122705,2,0,P|278:75|184:128,1,160
122,188,123419,1,8,0:0:0:0:
138,274,123657,1,0,0:0:0:0:
241,316,123895,6,0,P|305:319|333:237,1,160,4|0,0:0|0:0,0:0:0:0:
295,159,124610,2,0,P|265:119|164:72,1,160
137,155,125324,1,8,0:0:0:0:
93,231,125562,1,0,0:0:0:0:
105,328,125800,2,0,B|154:291|210:292|272:252,1,160
316,323,126514,2,0,P|345:262|316:168,1,160
355,94,127229,1,8,0:0:0:0:
442,85,127467,1,0,0:0:0:0:
486,160,127705,6,0,B|502:239|502:239|439:227|401:235,1,160,4|0,0:0|0:0,0:0:0:0:
336,230,128419,2,0,P|259:237|186:286,1,160
132,347,129133,1,8,0:0:0:0:
86,176,129610,2,0,P|34:141|76:47,1,160
125,4,130324,1,0,0:0:0:0:
383,58,131038,5,8,0:0:0:0:
393,104,131514,6,0,P|389:153|325:212,1,120,4|0,0:0|0:0,0:0:0:0:
225,261,132229,2,0,L|135:229,1,80,0|8,0:0|0:0,0:0:0:0:
144,146,132705,2,0,L|219:172,1,80,0|8,0:0|0:0,0:0:0:0:
369,81,133419,6,0,P|321:45|246:28,1,120,4|0,0:0|0:3,0:3:0:0:
133,50,134133,1,0,0:0:0:0:
82,122,134372,2,0,P|142:155|185:143,1,80,8|0,0:0|0:0,0:0:0:0:
112,235,134848,2,8,P|180:234|214:204,1,80
275,217,135324,1,4,0:0:0:0:
190,54,139133,5,4,2:0:0:0:
190,52,141038,6,0,B|233:31|273:28|311:36|340:63|362:88|377:117|377:117|326:158|319:232,1,320,0|0,2:0|2:0,2:0:0:0:
317,231,142943,5,4,2:0:0:0:
133,300,144848,5,0,2:0:0:0:
256,192,145086,12,0,146276,2:0:0:0:
418,86,146753,6,0,P|458:132|455:199,1,120
383,296,147467,1,0,0:0:0:0:
307,251,147705,2,0,L|350:165,1,80,8|0,0:0|0:0,0:0:0:0:
262,142,148181,2,0,L|225:213,1,80,8|0,0:0|0:0,0:0:0:0:
174,285,148657,6,8,P|117:285|70:173,1,160,12|0,0:0|0:0,0:0:0:0:
65,118,149372,2,8,B|136:97|210:104|255:83,1,160,12|8,0:0|0:0,0:0:0:0:
393,52,150324,1,8,0:0:0:0:
462,105,150562,6,0,P|494:62|496:2,2,80,4|0|0,0:0|0:0|0:0,0:0:0:0:
385,148,151276,2,0,P|327:178|293:226,1,120
187,297,151991,1,0,0:0:0:0:
107,258,152229,1,0,0:0:0:0:
112,170,152467,2,0,P|137:105|209:75,1,120,4|0,0:0|0:0,0:0:0:0:
306,42,153181,1,0,0:0:0:0:
370,101,153419,6,0,L|344:184,1,80
264,144,153895,2,0,L|193:192,1,80
128,243,154372,2,0,P|132:310|167:334,1,80,4|0,0:0|0:0,0:0:0:0:
219,350,154848,2,0,P|215:283|180:259,1,80
101,136,155562,6,0,L|112:86,1,40
193,137,156038,2,0,B|225:78|225:78|270:60,1,80
361,28,156633,1,0,0:0:0:0:
320,154,156991,2,0,P|272:194|324:290,1,160
495,162,158181,5,0,0:0:0:0:
420,115,158419,1,0,0:0:0:0:
335,90,158657,1,0,0:0:0:0:
247,101,158895,1,0,0:0:0:0:
165,135,159133,2,0,P|108:184|104:219,1,80
67,264,159610,1,0,0:0:0:0:
22,188,159848,1,8,0:0:0:0:
59,108,160086,6,0,P|101:58|150:42,1,80,4|0,0:0|0:0,0:0:0:0:
200,36,160562,2,0,P|269:44|315:45,1,80
365,64,161038,1,0,0:0:0:0:
401,144,161276,1,0,0:0:0:0:
373,227,161514,1,0,0:0:0:0:
285,240,161753,1,0,0:0:0:0:
217,296,161991,1,4,0:0:0:0:
204,288,162943,5,4,0:0:0:0:
188,281,163895,2,4,B|152:246|169:147|169:147|230:146|230:146|265:80|248:18,1,320,4|0,0:0|0:0,0:0:0:0:
352,231,165800,6,0,P|405:232|466:198,2,120,4|0|0,0:0|0:0|0:0,0:0:0:0:
316,150,166753,2,0,L|249:206,1,80,8|0,0:0|0:0,0:0:0:0:
83,74,167705,1,4,0:0:0:0:
99,204,168062,2,0,P|130:250|202:267,1,120
247,334,168657,2,0,L|311:270,1,80,8|0,0:0|0:0,0:0:0:0:
345,354,169133,2,0,L|409:290,1,80,8|0,0:0|0:0,0:0:0:0:
441,218,169610,6,0,B|421:172|378:142|369:88,1,120,4|0,0:0|0:0,0:0:0:0:
311,1,170324,1,0,0:0:0:0:
245,59,170562,2,0,P|185:81|160:83,1,80,8|0,0:0|0:0,0:0:0:0:
29,306,171514,6,0,P|45:353|117:353,2,120,4|0|0,0:0|0:0|0:0,0:0:0:0:
40,218,172467,2,0,L|111:145,1,80,8|0,0:0|0:0,0:0:0:0:
143,234,172943,2,0,L|238:192,1,80,8|0,0:0|0:0,0:0:0:0:
261,277,173419,6,4,P|312:230|265:141,1,160
136,64,174372,2,4,B|209:31|209:31|308:36,1,160
373,12,175086,1,8,0:0:0:0:
374,100,175324,2,4,P|390:162|479:246,1,160
318,346,176276,2,0,L|268:275,1,80,4|8,0:0|0:0,0:0:0:0:
232,359,176753,2,0,L|134:321,1,80,4|8,0:0|0:0,0:0:0:0:
76,294,177229,6,4,P|36:207|75:130,1,160
183,31,178181,2,4,P|223:118|184:195,1,160
155,246,178895,1,8,0:0:0:0:
110,322,179133,1,0,0:0:0:0:
197,335,179372,2,0,P|259:329|297:309,1,80,0|8,0:0|0:0,0:0:0:0:
414,215,180086,2,0,P|416:145|411:108,1,80
336,98,180562,2,0,P|334:168|339:205,1,80
346,265,181038,1,4,0:0:0:0:
101,252,196276,6,0,B|135:145|247:68|247:68|231:165|261:263|261:263|313:164|417:101,1,640,4|0,2:0|2:0,2:0:0:0:
244,76,200086,6,0,B|334:111|376:188|293:252|293:252|208:191|140:200|112:236,1,400,4|0,2:0|2:0,2:0:0:0:
93,237,201514,1,0,2:0:0:0:
430,196,202943,5,4,2:0:0:0:
313,327,203419,1,0,2:0:0:0:
232,279,203895,2,0,B|216:227|220:171|250:122|250:122|239:47|197:26|157:22|94:55|94:55|81:156|114:230|71:273|71:273|38:244,1,640,0|0,2:0|2:0,2:0:0:0:
256,192,206038,12,0,207705,2:0:0:0:
190,141,210800,6,0,P|166:97|167:40,2,80,0|0|0,2:0|2:0|2:0,2:0:0:0:
278,217,211514,1,4,0:0:0:0:
294,231,212467,1,0,0:0:0:0:
308,250,213419,1,4,0:0:0:0:
479,211,213895,2,0,P|476:144|410:84,1,160
193,49,214967,5,0,0:0:0:0:
149,57,215086,2,0,P|116:53|92:45,2,40
111,320,216276,1,0,0:0:0:0:
460,278,217229,6,0,L|377:331,1,80
377,234,217705,2,0,L|278:238,1,80
324,153,218181,2,0,L|230:100,1,80
176,72,218657,1,8,0:0:0:0:
143,245,219134,6,0,P|90:236|31:184,2,120,4|0|0,0:0|0:0|0:0,0:0:0:0:
221,204,220086,2,0,P|260:197|299:204,1,80,8|0,0:0|0:0,0:0:0:0:
333,285,220562,2,0,P|294:294|254:291,1,80
169,271,221038,2,0,P|139:243|116:133,1,120,4|0,0:0|0:0,0:0:0:0:
120,38,221753,1,0,0:0:0:0:
206,51,221991,2,0,L|253:139,1,80,8|0,0:0|0:0,0:0:0:0:
330,110,222467,2,0,L|292:39,1,80,8|0,0:0|0:0,0:0:0:0:
380,37,222943,6,0,P|410:99|383:172,1,120,4|0,0:0|0:0,0:0:0:0:
338,262,223657,2,0,P|373:301|406:323,2,80,0|8|0,0:0|0:0|0:0,0:0:0:0:
161,265,224610,1,0,0:0:0:0:
112,191,224848,2,0,L|201:177,1,80,12|0,0:0|0:0,0:0:0:0:
145,103,225324,2,0,L|234:89,1,80,12|0,0:0|0:0,0:0:0:0:
292,35,225800,2,0,P|363:62|410:154,1,160,4|0,0:0|0:0,0:0:0:0:
431,215,226514,1,0,0:0:0:0:
380,287,226753,6,4,B|319:245|300:187|225:175,1,160
84,157,227705,2,4,B|145:199|164:257|239:269,1,160
258,184,228419,1,8,0:0:0:0:
219,104,228657,2,4,P|263:49|330:117,1,160
223,228,229610,2,4,P|179:283|112:215,1,160
56,177,230324,1,0,0:0:0:0:
50,89,230562,6,4,B|120:52|120:52|204:56,1,160
288,60,231276,1,8,0:0:0:0:
281,147,231514,2,4,B|366:154|366:154|411:86,1,160
491,121,232229,1,8,0:0:0:0:
457,202,232467,2,12,P|394:261|334:274,1,120
236,308,233181,1,0,0:0:0:0:
149,321,233419,2,0,L|159:236,1,80,8|0,0:0|0:0,0:0:0:0:
73,217,233895,2,8,L|126:155,1,80
213,126,234372,6,4,P|263:112|324:17,1,160
323,27,235324,2,4,P|361:95|433:125,1,160
433,125,236276,1,8,0:0:0:0:
256,192,236514,12,0,238181,0:0:0:0:
147,181,239134,6,0,P|174:242|206:267,1,80,8|0,0:0|0:0,0:0:0:0:
270,246,239610,2,0,P|241:183|211:160,1,80
236,88,240086,1,4,0:0:0:0:
341,8,240443,1,0,0:0:0:0:
454,75,240800,2,0,P|452:114|441:153,1,80,0|8,0:0|0:0,0:0:0:0:
360,118,241276,2,0,P|349:156|347:196,1,80,0|8,0:0|0:0,0:0:0:0:
201,295,241991,6,0,P|263:341|329:337,2,120,4|0|0,0:0|0:0|0:0,0:0:0:0:
155,219,242943,2,0,P|126:164|86:128,1,80,8|0,0:0|0:0,0:0:0:0:
71,227,243419,2,0,P|87:263|111:295,1,80
186,341,243895,2,0,P|255:346|326:321,1,120,4|0,0:0|0:0,0:0:0:0:
411,257,244610,1,0,0:0:0:0:
348,194,244848,2,0,L|284:259,1,80,8|0,0:0|0:0,0:0:0:0:
211,215,245324,2,8,L|266:157,1,80,8|0,0:0|0:0,0:0:0:0:
290,72,245800,6,0,P|372:61|402:34,2,120,4|0|0,0:0|0:0|0:0,0:0:0:0:
202,59,246753,2,0,P|164:128|159:162,1,80,8|0,0:0|0:0,0:0:0:0:
233,182,247229,2,0,P|218:219|194:251,1,80
128,309,247705,2,0,P|72:295|16:248,2,120,4|0|0,0:0|0:0|0:0,0:0:0:0:
209,340,248657,2,0,L|277:279,1,80,8|0,0:0|0:0,0:0:0:0:
336,343,249134,2,0,L|404:282,1,80,8|0,0:0|0:0,0:0:0:0:
458,227,249610,5,4,2:0:0:0:
367,64,250562,1,4,2:0:0:0:
273,186,251515,1,4,2:0:0:0:
367,64,252467,1,4,2:0:0:0:
89,50,253419,6,4,P|80:121|132:204,1,160
186,359,254372,2,0,P|215:294|205:259,1,80,4|0,0:0|0:0,0:0:0:0:
294,323,254848,1,4,0:0:0:0:
303,244,255086,2,0,P|261:186|225:177,1,80,8|4,0:0|0:0,0:0:0:0:
394,52,255800,6,0,P|423:116|413:152,1,80,4|0,0:0|0:0,0:0:0:0:
335,116,256276,2,0,P|328:186|301:212,1,80
241,160,256753,1,4,0:0:0:0:
200,238,256991,2,0,P|142:196|133:160,1,80,8|4,0:0|0:0,0:0:0:0:
74,58,257705,5,4,0:0:0:0:
211,167,258181,2,0,P|226:110|219:62,1,80,4|0,0:0|0:0,0:0:0:0:
312,101,258657,2,0,P|297:51|261:13,1,80,4|8,0:0|0:0,0:0:0:0:
367,15,259134,1,4,0:0:0:0:
410,185,259610,1,4,0:0:0:0:
318,335,260086,2,4,P|253:325|147:277,1,160
323,209,261038,5,4,0:0:0:0:
243,51,261515,2,0,P|234:109|250:153,1,80,4|0,0:0|0:0,0:0:0:0:
150,130,261991,2,0,P|171:184|207:214,1,80,4|0,0:0|0:0,0:0:0:0:
120,258,262467,1,4,0:0:0:0:
160,336,262705,2,0,P|217:344|261:328,1,80,8|4,0:0|0:0,0:0:0:0:
394,186,263419,6,4,P|398:112|309:55,1,160
165,21,264372,2,4,P|161:95|250:152,1,160
379,226,265324,1,4,0:0:0:0:
220,301,265800,1,4,0:0:0:0:
139,144,266276,1,4,0:0:0:0:
309,98,266753,1,4,0:0:0:0:
191,229,267229,1,4,0:0:0:0:
174,53,267705,2,4,P|228:11|340:19,1,160
386,170,268657,6,0,B|374:253|374:253|276:290,1,160,4|0,0:0|0:0,0:0:0:0:
269,197,269372,1,8,0:0:0:0:
303,116,269610,6,0,B|276:44|276:44|193:32,1,160,4|0,0:0|0:0,0:0:0:0:
134,97,270324,1,8,0:0:0:0:
47,114,270562,2,0,B|60:200|60:200|158:208,1,160,4|0,0:0|0:0,0:0:0:0:
309,206,271515,1,4,0:0:0:0:
196,340,271991,6,8,L|132:278,1,80
76,224,272467,1,4,0:0:0:0:
256,192,272705,12,0,274372,2:0:0:0:
