osu file format v14

[General]
AudioFilename: audio.mp3
AudioLeadIn: 0
PreviewTime: 77705
Countdown: 0
SampleSet: Soft
StackLeniency: 0.7
Mode: 0
LetterboxInBreaks: 0
WidescreenStoryboard: 0

[Editor]
Bookmarks: 91276,139133,267874
DistanceSpacing: 1.6
BeatDivisor: 4
GridSize: 16
TimelineZoom: 0.9

[Metadata]
Title:Story Of Hope (MuryokuP Remix)
TitleUnicode:Story Of Hope (MuryokuP Remix)
Artist:Yuyoyuppe x MuryokuP
ArtistUnicode:Yuyoyuppe x MuryokuP
Creator:NoSanity
Version:Insane
Source:
Tags:Vocaloid Remix Japanese Metal Roock Piano
BeatmapID:1892857
BeatmapSetID:907121

[Difficulty]
HPDrainRate:8
CircleSize:4
OverallDifficulty:8
ApproachRate:9
SliderMultiplier:2.4
SliderTickRate:1

[Events]
//Background and Video events
0,0,"661119.png",0,0
//Break Periods
2,32667,45200
2,135524,138057
2,181238,195676
2,207905,210200
//Storyboard Layer 0 (Background)
//Storyboard Layer 1 (Fail)
//Storyboard Layer 2 (Pass)
//Storyboard Layer 3 (Foreground)
//Storyboard Sound Samples

[TimingPoints]
1991,476.190855372885,4,2,0,100,1,0
17229,-133.333333333333,4,1,0,100,0,0
19848,-100,4,1,0,100,0,0
21038,-133.333333333333,4,1,0,100,0,0
21753,-100,4,1,0,100,0,0
22943,-133.333333333333,4,1,0,100,0,0
23657,-100,4,1,0,100,0,0
24848,-133.333333333333,4,1,0,100,0,0
25562,-100,4,1,0,100,0,0
26753,-133.333333333333,4,1,0,100,0,0
27467,-100,4,1,0,100,0,0
28657,-133.333333333333,4,1,0,100,0,0
29372,-100,4,1,0,100,0,0
45800,-100,4,1,0,100,0,0
63890,-133.333333333333,4,1,0,100,0,0
65562,-100,4,1,0,100,0,0
66753,-133.333333333333,4,1,0,100,0,0
67467,-100,4,1,0,100,0,0
71276,-133.333333333333,4,1,0,100,0,0
73181,-100,4,1,0,100,0,0
78181,-133.333333333333,4,1,0,100,0,0
80800,-50,4,1,0,100,0,0
80919,-100,4,1,0,100,0,0
81991,-133.333333333333,4,1,0,100,0,0
84610,-100,4,1,0,100,0,0
89610,-133.333333333333,4,1,0,100,0,0
90562,-100,4,1,0,100,0,0
104848,-100,4,1,0,100,0,0
135324,-100,4,1,0,100,0,0
138538,-133.333333333333,4,1,0,100,0,0
146753,-100,4,1,0,100,0,0
150562,-100,4,1,0,100,0,1
155562,-66.6666666666667,4,1,0,100,0,1
156038,-100,4,1,0,100,0,1
165800,-133.333333333333,4,1,0,100,0,0
168419,-100,4,1,0,100,0,0
169610,-133.333333333333,4,1,0,100,0,0
170443,-100,4,1,0,100,0,0
171514,-133.333333333333,4,1,0,100,0,0
172348,-100,4,1,0,100,0,0
196276,-100,4,1,0,100,0,0
210800,-100,4,1,0,100,0,0
219134,-100,4,1,0,100,0,1
219491,-133.333333333333,4,1,0,100,0,1
223657,-100,4,1,0,100,0,1
224134,-133.333333333333,4,1,0,100,0,1
225800,-100,4,1,0,100,0,1
238181,-100,4,1,0,100,0,0
238538,-133.333333333333,4,1,0,100,0,0
240919,-100,4,1,0,100,0,0
241991,-133.333333333333,4,1,0,100,0,0
242824,-100,4,1,0,100,0,0
243895,-133.333333333333,4,1,0,100,0,0
244610,-100,4,1,0,100,0,0
246157,-133.333333333333,4,1,0,100,0,0
248419,-100,4,1,0,100,0,0
249610,-133.333333333333,4,1,0,100,0,0
251515,-100,4,1,0,100,0,0
268657,-133.333333333333,4,1,0,100,0,0
269491,-100,4,1,0,100,0,0
272467,-100,4,1,0,100,0,0
274372,-100,4,1,0,100,0,0

[HitObjects]
94,63,1991,6,0,L|14:48,2,60,4|0|0,1:0|1:0|1:0,1:0:0:0:
98,194,2467,2,0,L|35:204,2,60,0|0|0,1:0|1:0|1:0,1:0:0:0:
169,184,2824,1,0,1:0:0:0:
261,209,2943,1,8,1:0:0:0:
216,294,3062,1,0,1:0:0:0:
247,328,3181,1,0,1:0:0:0:
416,310,3419,2,0,P|397:273|366:250,1,60,0|0,1:0|1:0,1:0:0:0:
468,230,3657,2,0,P|438:200|401:188,1,60,0|0,1:0|1:0,1:0:0:0:
488,25,4372,2,0,P|457:19|434:26,2,30,0|0|0,1:0|1:0|1:0,1:0:0:0:
401,38,4610,5,0,1:0:0:0:
401,38,4729,1,0,1:0:0:0:
401,38,4848,2,0,P|343:67|268:64,1,120,8|0,1:0|1:0,1:0:0:0:
223,57,5205,1,8,1:0:0:0:
111,34,5443,2,0,P|83:51|64:79,1,60,0|0,1:0|1:0,1:0:0:0:
56,204,5800,6,0,P|0:188|-16:164,2,60,4|0|0,1:0|1:0|1:0,1:0:0:0:
230,155,6276,2,0,P|200:154|173:143,2,60,0|0|0,1:0|1:0|1:0,1:0:0:0:
300,147,6633,1,0,1:0:0:0:
410,155,6753,1,8,1:0:0:0:
391,239,6871,1,0,1:0:0:0:
403,286,6991,1,0,1:0:0:0:
306,298,7229,6,0,L|281:280,2,30,0|0|0,1:0|1:0|1:0,1:0:0:0:
239,339,7467,2,0,L|204:348,3,30,0|0|0|0,1:0|1:0|1:0|1:0,1:0:0:0:
183,355,7645,1,4,1:0:0:0:
163,358,8181,1,4,1:0:0:0:
119,281,8419,6,0,L|149:276,3,30,0|0|0|0,1:0|1:0|1:0|1:0,1:0:0:0:
184,272,8657,1,8,1:0:0:0:
321,186,8895,2,0,P|325:144|318:111,1,60,0|8,1:0|1:0,1:0:0:0:
216,47,9253,5,0,1:0:0:0:
160,82,9372,1,0,1:0:0:0:
102,115,9491,1,0,1:0:0:0:
42,142,9610,2,0,P|-2:98|-14:56,2,60,4|0|0,1:0|1:0|1:0,1:0:0:0:
98,293,10086,6,0,P|36:298|-8:279,2,60,4|0|0,1:0|1:0|1:0,1:0:0:0:
168,317,10443,1,0,1:0:0:0:
255,357,10562,1,8,1:0:0:0:
299,271,10681,1,0,1:0:0:0:
350,272,10800,1,0,1:0:0:0:
228,137,11038,2,0,P|267:115|322:114,1,60,0|0,1:0|1:0,1:0:0:0:
199,61,11276,2,0,P|241:46|295:55,1,60,0|0,1:0|1:0,1:0:0:0:
90,240,11991,6,0,L|46:247,3,30,0|0|0|0,1:0|1:0|1:0|1:0,1:0:0:0:
128,230,12229,2,0,P|187:227|232:251,1,60,0|0,1:0|1:0,1:0:0:0:
249,249,12467,1,8,1:0:0:0:
348,335,12705,1,0,1:0:0:0:
348,335,12824,1,8,1:0:0:0:
448,249,13062,2,0,P|484:275|533:278,2,60,0|0|0,1:0|1:0|1:0,1:0:0:0:
396,208,13419,1,4,1:0:0:0:
346,164,13538,2,0,P|322:129|312:100,1,60,0|0,1:0|1:0,1:0:0:0:
236,7,13895,6,0,L|170:18,1,60,0|0,1:0|1:0,1:0:0:0:
184,95,14133,2,0,L|113:82,1,60,0|0,1:0|1:0,1:0:0:0:
57,34,14372,1,8,1:0:0:0:
36,117,14491,2,0,L|68:167,1,60,0|0,1:0|1:0,1:0:0:0:
252,178,14848,2,0,L|284:184,2,30,0|0|0,1:0|1:0|1:0,1:0:0:0:
298,112,15086,2,0,L|331:89,4,30,0|0|0|0|0,1:0|1:0|1:0|1:0|1:0,1:0:0:0:
386,42,16038,5,0,1:0:0:0:
318,81,16157,1,0,1:0:0:0:
183,148,16276,1,12,1:0:0:0:
236,201,16395,2,0,P|262:219|289:231,1,60,0|0,1:0|1:0,1:0:0:0:
358,253,16633,1,0,1:0:0:0:
484,288,16753,2,0,P|499:229|492:200,2,60,8|0|8,1:0|1:0|1:0,1:0:0:0:
426,334,17110,1,0,1:0:0:0:
300,352,17229,6,0,P|240:339|198:276,1,135.000005149841,4|0,1:0|1:0,1:0:0:0:
163,47,17943,1,0,1:0:0:0:
300,0,18181,1,8,1:0:0:0:
230,112,18419,1,0,1:0:0:0:
23,220,18895,1,8,1:0:0:0:
52,125,19133,2,0,P|79:86|183:71,1,135.000005149841,4|0,1:0|1:0,1:0:0:0:
161,231,19848,6,0,P|174:259|207:286,1,60,0|0,1:0|1:0,1:0:0:0:
278,286,20086,1,8,1:0:0:0:
457,157,20324,1,0,1:0:0:0:
278,286,20562,1,8,1:0:0:0:
334,166,20800,1,0,1:0:0:0:
302,72,21038,6,0,P|233:31|146:49,1,135.000005149841,4|0,1:0|1:0,1:0:0:0:
64,194,21753,2,0,P|26:202|-20:168,2,60,0|0|8,1:0|1:0|1:0,1:0:0:0:
176,135,22229,1,0,1:0:0:0:
408,21,22943,5,4,1:0:0:0:
461,159,23300,1,0,1:0:0:0:
327,304,23657,6,0,P|268:298|248:285,1,60,0|0,1:0|1:0,1:0:0:0:
209,268,23895,1,8,1:0:0:0:
151,235,24014,2,0,P|122:227|92:229,2,60,8|0|0,1:0|1:0|1:0,1:0:0:0:
209,268,24372,1,8,1:0:0:0:
267,298,24491,1,8,1:0:0:0:
331,309,24610,1,8,1:0:0:0:
394,289,24729,1,0,1:0:0:0:
447,227,24848,6,0,P|443:165|378:105,1,135.000005149841,4|4,1:0|1:0,1:0:0:0:
99,107,25562,1,0,1:0:0:0:
72,227,25800,1,8,1:0:0:0:
176,168,26038,1,0,1:0:0:0:
399,308,26514,5,8,1:0:0:0:
272,269,26753,2,0,P|312:225|317:139,1,120,4|0,1:0|1:0,1:0:0:0:
164,14,27467,1,0,1:0:0:0:
164,14,27586,1,0,1:0:0:0:
164,14,27705,1,8,1:0:0:0:
162,145,27943,1,0,1:0:0:0:
32,295,28181,1,8,1:0:0:0:
160,263,28419,1,0,1:0:0:0:
272,331,28657,6,0,P|322:293|355:224,1,135.000005149841,4|4,1:0|1:0,1:0:0:0:
416,41,29372,2,0,P|371:41|335:62,1,60,0|0,1:0|1:0,1:0:0:0:
298,76,29610,2,0,P|216:97|152:90,1,120,8|0,1:0|1:0,1:0:0:0:
6,270,30324,1,0,0:0:0:0:
237,317,30562,5,12,0:0:0:0:
349,248,30800,1,0,0:0:0:0:
237,317,31038,1,12,0:0:0:0:
349,248,31276,1,0,0:0:0:0:
349,116,31514,5,8,0:0:0:0:
340,92,31633,1,8,0:0:0:0:
325,71,31752,1,0,0:0:0:0:
305,56,31871,1,0,0:0:0:0:
280,47,31990,1,8,0:0:0:0:
255,45,32109,1,0,0:0:0:0:
230,51,32228,1,8,0:0:0:0:
208,64,32347,1,0,0:0:0:0:
193,83,32467,1,4,0:0:0:0:
82,7,45800,5,12,0:0:0:0:
210,37,46038,1,0,0:0:0:0:
210,37,46157,1,8,0:0:0:0:
122,133,46395,1,0,0:0:0:0:
185,151,46514,1,8,0:0:0:0:
248,134,46633,1,0,0:0:0:0:
325,121,46752,1,0,0:0:0:0:
325,121,46812,1,0,0:0:0:0:
325,121,46871,6,0,P|310:169|296:197,1,60,0|0,0:0|0:0,0:0:0:0:
403,161,47110,2,0,P|390:184|368:210,1,60,0|0,0:0|0:0,0:0:0:0:
469,206,47348,2,0,P|422:247|396:256,1,60,0|0,0:0|0:0,0:0:0:0:
424,311,47586,1,0,0:0:0:0:
362,360,47705,5,4,0:0:0:0:
296,366,47824,2,0,P|233:316|233:242,1,120
207,214,48181,2,0,B|203:167|203:167|126:159|146:82,1,120
206,95,48538,2,0,P|231:45|282:97,1,120,0|0,0:0|0:0,0:0:0:0:
308,125,48895,1,0,0:0:0:0:
344,251,49133,5,8,0:0:0:0:
344,251,49253,2,0,P|391:205|398:158,1,60,0|0,0:0|0:0,0:0:0:0:
444,93,49610,5,0,0:0:0:0:
444,93,49729,2,0,P|418:31|345:69,1,120,0|0,0:0|0:0,0:0:0:0:
373,103,50086,2,0,B|318:111|318:111|257:52,1,120
250,0,50443,2,0,P|202:37|215:104,1,120
235,150,50800,1,0,0:0:0:0:
176,268,51038,6,0,P|234:306|260:314,2,60,8|0|0,0:0|0:0|0:0,0:0:0:0:
95,154,51514,5,4,0:0:0:0:
95,154,51633,2,0,P|88:91|130:45,1,120
182,16,51991,1,0,0:0:0:0:
305,6,52229,1,0,0:0:0:0:
305,6,52348,1,0,0:0:0:0:
435,25,52586,1,0,0:0:0:0:
435,25,52705,1,0,0:0:0:0:
443,156,52943,6,0,P|480:181|531:187,2,60,8|0|0,0:0|0:0|0:0,0:0:0:0:
332,84,53419,1,0,0:0:0:0:
332,84,53538,2,0,P|274:128|277:188,1,120,0|0,0:0|0:0,0:0:0:0:
277,242,53895,2,0,P|265:299|215:328,1,120
145,334,54253,2,0,P|88:316|63:264,1,120
54,195,54610,1,0,0:0:0:0:
114,76,54848,5,8,0:0:0:0:
133,138,54967,1,0,0:0:0:0:
184,173,55086,1,0,0:0:0:0:
313,195,55324,5,4,0:0:0:0:
313,195,55443,2,0,P|381:189|426:240,1,120,0|0,0:0|0:0,0:0:0:0:
352,256,55800,2,0,B|402:316|356:368,1,120
306,313,56157,2,0,P|261:268|241:205,1,120
230,151,56514,1,0,0:0:0:0:
177,272,56753,6,0,L|111:244,1,60,8|0,0:0|0:0,0:0:0:0:
18,166,57110,5,0,0:0:0:0:
29,101,57229,2,0,P|38:69|57:49,1,60,0|0,0:0|0:0,0:0:0:0:
185,103,57586,2,0,P|237:98|261:59,1,60,0|0,0:0|0:0,0:0:0:0:
340,7,57943,2,0,P|367:-4|396:0,1,60,0|0,0:0|0:0,0:0:0:0:
505,74,58300,2,0,P|516:101|512:130,1,60,0|0,0:0|0:0,0:0:0:0:
381,149,58657,5,8,0:0:0:0:
420,201,58776,1,0,0:0:0:0:
456,256,58895,1,0,0:0:0:0:
199,322,59134,5,4,0:0:0:0:
98,151,59491,2,0,P|123:98|235:49,1,180
306,55,59967,1,0,0:0:0:0:
306,55,60027,1,0,0:0:0:0:
306,55,60086,1,0,0:0:0:0:
359,150,60324,5,0,0:0:0:0:
359,150,60383,1,0,0:0:0:0:
359,150,60443,2,0,P|299:143|274:133,1,60
194,157,60800,5,0,0:0:0:0:
163,215,60919,1,0,0:0:0:0:
195,272,61038,1,12,0:0:0:0:
312,332,61276,2,0,P|347:329|384:319,1,60,0|8,0:0|0:0,0:0:0:0:
482,250,61634,6,0,P|447:245|409:237,1,60,0|0,0:0|0:0,0:0:0:0:
381,234,61872,1,8,0:0:0:0:
343,214,61991,1,0,0:0:0:0:
320,178,62110,1,0,0:0:0:0:
309,137,62229,1,0,0:0:0:0:
310,95,62348,1,0,0:0:0:0:
319,29,62467,5,8,0:0:0:0:
256,50,62586,1,8,0:0:0:0:
210,97,62705,1,8,0:0:0:0:
177,154,62824,1,8,0:0:0:0:
160,217,62943,1,4,0:0:0:0:
329,328,63300,1,4,0:0:0:0:
205,173,63657,1,0,0:0:0:0:
269,117,63895,6,0,P|306:109|357:117,1,90.0000034332277,8|0,0:0|0:0,0:0:0:0:
485,267,64610,1,8,0:0:0:0:
424,321,64848,2,0,B|387:329|387:329|282:327,1,135.000005149841,4|0,0:0|0:0,0:0:0:0:
129,211,65562,1,0,0:0:0:0:
194,202,65681,2,0,P|248:171|259:137,1,60,0|8,0:0|0:0,0:0:0:0:
339,81,66038,1,0,0:0:0:0:
245,174,66276,1,8,0:0:0:0:
339,81,66514,1,0,0:0:0:0:
289,6,66753,6,0,B|248:9|248:9|222:56|161:91,1,135.000005149841,4|0,0:0|0:0,0:0:0:0:
46,186,67467,2,0,P|13:151|7:111,2,60,0|0|8,0:0|0:0|0:0,0:0:0:0:
158,254,67943,1,0,0:0:0:0:
512,221,68657,1,4,0:0:0:0:
349,107,69014,1,0,0:0:0:0:
372,304,69372,6,0,P|311:300|296:278,1,60,0|8,0:0|0:0,0:0:0:0:
238,211,69610,2,0,P|242:240|262:263,1,60,8|0,0:0|0:0,0:0:0:0:
369,208,69848,2,0,P|340:214|312:203,1,60,0|0,0:0|0:0,0:0:0:0:
357,139,70086,1,0,0:0:0:0:
315,72,70205,1,0,0:0:0:0:
283,139,70324,2,0,P|254:130|226:138,1,60,8|0,0:0|0:0,0:0:0:0:
166,166,70562,1,4,0:0:0:0:
66,336,70919,1,0,0:0:0:0:
263,350,71276,6,0,P|315:322|344:279,1,90.0000034332277,0|8,0:0|0:0,0:0:0:0:
377,230,71753,1,0,0:0:0:0:
171,187,72229,1,8,0:0:0:0:
367,221,72467,2,0,B|364:177|364:177|295:102,1,135.000005149841,4|0,0:0|0:0,0:0:0:0:
165,48,73181,5,0,0:0:0:0:
137,107,73300,1,0,0:0:0:0:
109,166,73419,2,0,P|93:222|114:278,1,120,8|0,0:0|0:0,0:0:0:0:
295,331,73895,1,8,0:0:0:0:
195,243,74134,1,0,0:0:0:0:
321,203,74372,5,0,0:0:0:0:
294,73,74610,2,0,P|333:108|357:118,1,60,8|0,0:0|0:0,0:0:0:0:
508,173,75086,1,0,0:0:0:0:
486,205,75145,1,0,0:0:0:0:
470,227,75205,2,0,P|434:258|398:269,1,60,0|8,0:0|0:0,0:0:0:0:
310,332,75562,5,8,0:0:0:0:
255,295,75681,1,0,0:0:0:0:
136,352,75919,5,0,0:0:0:0:
83,311,76038,1,0,0:0:0:0:
37,263,76157,1,0,0:0:0:0:
15,200,76276,1,8,0:0:0:0:
16,134,76395,2,8,P|65:95|166:92,1,120,8|8,0:0|0:0,0:0:0:0:
199,78,76753,2,8,P|274:75|353:44,1,120
382,16,77110,2,8,P|452:19|421:85,1,120
433,128,77467,1,8,0:0:0:0:
55,303,78181,5,12,0:0:0:0:
123,227,78538,1,0,0:0:0:0:
261,302,78895,1,0,0:0:0:0:
368,284,79134,2,0,P|405:238|402:189,1,90.0000034332277,8|0,0:0|0:0,0:0:0:0:
373,105,79610,1,0,0:0:0:0:
392,11,79848,1,8,0:0:0:0:
195,32,80086,5,4,0:0:0:0:
232,123,80443,1,0,0:0:0:0:
49,186,80800,2,0,P|41:167|45:186,1,60
61,198,80919,2,0,P|96:228|116:237,1,60,0|8,0:0|0:0,0:0:0:0:
288,301,81276,5,0,0:0:0:0:
108,234,81514,1,8,0:0:0:0:
288,301,81753,1,0,0:0:0:0:
385,287,81991,2,0,B|426:270|426:270|471:150,1,135.000005149841,4|0,0:0|0:0,0:0:0:0:
491,0,82705,1,0,0:0:0:0:
491,0,82824,1,0,0:0:0:0:
491,0,82943,2,0,P|450:42|380:55,1,90.0000034332277,8|0,0:0|0:0,0:0:0:0:
129,106,83895,5,4,0:0:0:0:
75,188,84134,2,0,L|84:250,1,45.0000017166138,0|0,0:0|0:0,0:0:0:0:
224,370,84610,1,0,0:0:0:0:
285,345,84729,1,0,0:0:0:0:
343,314,84848,1,8,0:0:0:0:
385,263,84967,1,8,0:0:0:0:
414,204,85086,2,0,P|375:163|349:158,1,60,0|0,0:0|0:0,0:0:0:0:
345,51,85324,2,8,P|329:104|337:129,1,60,8|8,0:0|0:0,0:0:0:0:
246,187,85562,2,8,P|299:173|317:154,1,60,8|0,0:0|0:0,0:0:0:0:
406,102,85800,5,4,0:0:0:0:
209,74,86157,1,0,0:0:0:0:
209,74,86514,1,0,0:0:0:0:
209,74,86753,2,0,P|168:122|142:193,1,120,8|0,0:0|0:0,0:0:0:0:
303,310,87229,2,0,P|344:262|370:191,1,120,0|8,0:0|0:0,0:0:0:0:
396,81,87705,5,4,0:0:0:0:
212,7,88062,1,0,0:0:0:0:
47,150,88419,1,0,0:0:0:0:
47,150,88538,1,0,0:0:0:0:
47,150,88657,1,8,0:0:0:0:
238,222,88895,5,0,0:0:0:0:
47,150,89134,1,8,0:0:0:0:
238,222,89372,1,0,0:0:0:0:
228,320,89610,2,0,P|274:339|359:306,1,135.000005149841,12|0,0:0|0:0,0:0:0:0:
467,220,90324,1,0,0:0:0:0:
467,220,90443,1,0,0:0:0:0:
467,220,90562,2,0,P|399:191|384:148,1,120,8|0,0:0|0:0,0:0:0:0:
150,70,91276,5,0,0:0:0:0:
64,241,91514,2,0,P|105:224|126:201,1,60
160,277,91752,2,0,P|187:241|193:211,1,60
261,262,91991,2,0,P|266:217|257:188,1,60
340,194,92229,2,0,P|323:153|299:132,1,60
244,29,92467,5,0,0:0:0:0:
123,83,92586,2,0,P|158:127|186:134,1,60
102,181,92824,2,0,P|154:201|182:193,1,60
132,275,93062,2,0,P|187:266|207:245,1,60
335,163,93419,5,4,0:0:0:0:
224,90,93657,1,0,0:0:0:0:
335,163,93895,1,4,0:0:0:0:
149,109,94134,1,4,0:0:0:0:
335,163,94372,1,4,0:0:0:0:
83,144,94610,1,0,0:0:0:0:
335,163,94848,1,0,0:0:0:0:
379,229,94967,1,0,0:0:0:0:
443,175,95086,6,8,L|404:117,1,60,8|0,0:0|0:0,0:0:0:0:
335,163,95324,1,4,0:0:0:0:
224,294,95562,1,0,0:0:0:0:
335,163,95800,1,4,0:0:0:0:
149,275,96038,1,0,0:0:0:0:
335,163,96276,5,4,0:0:0:0:
315,99,96395,1,8,0:0:0:0:
341,38,96514,1,0,0:0:0:0:
403,154,96752,1,0,0:0:0:0:
336,157,96872,2,0,P|308:144|289:121,1,60
254,66,97110,1,0,0:0:0:0:
171,104,97229,5,12,0:0:0:0:
67,265,97467,1,0,0:0:0:0:
258,277,97705,1,4,0:0:0:0:
171,104,97943,1,0,0:0:0:0:
124,290,98181,5,12,0:0:0:0:
296,205,98419,1,0,0:0:0:0:
134,98,98657,1,4,0:0:0:0:
177,284,98895,1,0,0:0:0:0:
284,124,99133,1,8,0:0:0:0:
387,207,99372,6,8,P|380:240|359:270,1,60,0|8,0:0|0:0,0:0:0:0:
237,288,99729,1,0,0:0:0:0:
212,307,99848,2,8,L|151:334,1,60,0|8,0:0|0:0,0:0:0:0:
162,253,100086,2,0,L|104:237,1,60,8|0,0:0|0:0,0:0:0:0:
183,183,100324,2,0,L|140:140,1,60,8|0,0:0|0:0,0:0:0:0:
219,84,100562,2,0,P|248:84|276:94,3,60,8|8|8|0,0:0|0:0|0:0|0:0,0:0:0:0:
290,197,101038,5,4,0:0:0:0:
459,286,101276,1,0,0:0:0:0:
452,94,101514,1,4,0:0:0:0:
290,197,101753,5,0,0:0:0:0:
459,286,101991,1,4,0:0:0:0:
452,94,102229,1,0,0:0:0:0:
278,10,102467,2,0,P|260:37|232:57,1,60
281,121,102705,2,0,P|249:130|215:127,1,60
117,113,102943,5,12,0:0:0:0:
103,304,103181,1,0,0:0:0:0:
273,216,103419,1,12,0:0:0:0:
117,113,103657,1,0,0:0:0:0:
272,341,103895,1,12,0:0:0:0:
358,98,104848,6,0,P|383:76|407:65,2,60,4|0|0,0:0|0:0|0:0,0:0:0:0:
232,58,105324,2,0,P|242:25|257:4,2,60,0|0|0,0:0|0:0|0:0,0:0:0:0:
224,134,105681,1,0,1:3:0:0:
288,212,105800,1,8,0:0:0:0:
204,253,105919,2,0,P|181:305|156:331,1,60,0|0,0:0|0:0,0:0:0:0:
70,232,106276,5,0,0:0:0:0:
70,165,106395,1,0,0:0:0:0:
94,104,106514,1,0,0:0:0:0:
141,58,106634,1,0,0:0:0:0:
393,119,107229,6,0,L|441:108,4,30,0|0|0|0|0,0:0|0:0|0:0|0:0|0:0,0:0:0:0:
325,152,107586,2,0,P|315:211|337:245,1,60,0|8,0:0|0:0,0:0:0:0:
349,336,107943,2,0,P|303:348|258:325,1,60,0|8,0:0|0:0,0:0:0:0:
268,257,108300,2,0,P|238:255|210:267,1,60,0|8,0:0|0:0,0:0:0:0:
55,226,108657,5,4,0:0:0:0:
55,160,108776,2,0,P|78:109|126:92,1,60
183,25,109134,2,0,P|232:53|275:60,1,60,0|0,0:0|0:0,0:0:0:0:
301,77,109372,2,0,P|289:104|272:129,1,60
159,131,109610,1,8,0:0:0:0:
181,233,109729,1,0,0:0:0:0:
181,233,109848,1,0,0:0:0:0:
353,326,110086,2,0,P|409:299|422:269,1,60,0|0,0:0|0:0,0:0:0:0:
448,249,110324,2,0,P|464:208|463:197,4,30
78,243,111276,6,0,L|108:239,2,30,0|0|0,0:0|0:0|0:0,0:0:0:0:
143,237,111514,1,8,0:0:0:0:
273,247,111753,2,0,P|288:309|314:325,1,60,0|8,0:0|0:0,0:0:0:0:
449,262,112110,1,0,0:0:0:0:
437,197,112229,1,0,0:0:0:0:
414,133,112348,2,0,P|360:99|335:105,1,60,0|4,0:0|0:0,0:0:0:0:
367,99,112586,1,0,0:0:0:0:
367,99,112705,1,0,0:0:0:0:
237,77,112943,6,0,P|262:44|291:27,2,60,0|0|0,0:0|0:0|0:0,0:0:0:0:
204,134,113300,1,0,0:0:0:0:
83,142,113419,1,8,0:0:0:0:
132,246,113538,2,0,P|163:279|219:264,1,60,0|0,0:0|0:0,0:0:0:0:
307,285,113895,1,0,0:0:0:0:
307,285,114014,1,0,0:0:0:0:
307,285,114134,2,0,P|347:273|372:248,1,60,0|0,0:0|0:0,0:0:0:0:
69,119,114848,6,0,L|26:109,4,30,0|0|0|0|0,0:0|0:0|0:0|0:0|0:0,0:0:0:0:
133,132,115205,2,0,P|184:128|213:105,1,60,0|8,0:0|0:0,0:0:0:0:
299,53,115562,1,0,0:0:0:0:
299,53,115681,1,8,0:0:0:0:
432,70,115919,1,0,0:0:0:0:
432,70,116038,2,0,P|469:125|460:156,1,60
401,134,116276,6,0,L|392:224,1,60,4|0,0:0|0:0,0:0:0:0:
396,194,116515,1,0,0:0:0:0:
398,326,116753,2,0,P|368:341|335:347,1,60
276,353,116991,2,0,P|217:340|184:316,1,60
96,375,117229,1,8,0:0:0:0:
111,256,117348,2,0,P|86:232|73:203,1,60,0|0,0:0|0:0,0:0:0:0:
33,55,117705,5,0,0:0:0:0:
98,64,117824,1,0,0:0:0:0:
163,74,117943,2,0,L|201:79,3,30,0|0|0|0,0:0|0:0|0:0|0:0,0:0:0:0:
339,50,118895,6,0,P|386:69|408:102,1,60,0|0,0:0|0:0,0:0:0:0:
287,155,119134,2,0,P|331:123|333:91,1,60,8|0,0:0|0:0,0:0:0:0:
337,48,119372,1,0,0:0:0:0:
286,5,119491,1,0,0:0:0:0:
220,5,119610,1,8,0:0:0:0:
162,37,119729,1,8,0:0:0:0:
127,70,119848,2,8,P|118:109|134:145,1,60,8|0,0:0|0:0,0:0:0:0:
158,227,120086,5,4,0:0:0:0:
214,261,120205,1,0,0:0:0:0:
255,174,120443,1,0,0:0:0:0:
311,208,120562,1,0,0:0:0:0:
359,125,120800,1,0,0:0:0:0:
415,159,120919,1,0,0:0:0:0:
452,70,121157,1,0,0:0:0:0:
510,104,121276,1,0,0:0:0:0:
486,218,121515,6,0,P|452:264|420:273,1,60,8|0,0:0|0:0,0:0:0:0:
393,296,121753,1,0,0:0:0:0:
214,308,121991,5,0,0:0:0:0:
280,308,122110,1,0,0:0:0:0:
162,247,122348,1,0,0:0:0:0:
96,246,122467,1,0,0:0:0:0:
212,184,122705,1,0,0:0:0:0:
277,185,122824,1,0,0:0:0:0:
160,123,123062,1,0,0:0:0:0:
94,122,123181,1,0,0:0:0:0:
254,32,123419,6,0,P|320:37|348:61,1,60,8|0,0:0|0:0,0:0:0:0:
372,61,123657,1,0,0:0:0:0:
486,127,123895,5,4,0:0:0:0:
439,174,124015,1,0,0:0:0:0:
386,295,124253,1,0,0:0:0:0:
339,248,124373,1,0,0:0:0:0:
328,117,124610,1,0,0:0:0:0:
281,164,124730,1,0,0:0:0:0:
243,289,124967,1,0,0:0:0:0:
196,242,125087,1,0,0:0:0:0:
111,141,125324,6,0,P|59:138|18:160,2,60,8|0|0,0:0|0:0|0:0,0:0:0:0:
235,185,125800,5,0,0:0:0:0:
283,140,125919,1,0,0:0:0:0:
285,238,126157,1,0,0:0:0:0:
235,185,126276,1,0,0:0:0:0:
231,284,126514,1,0,0:0:0:0:
285,238,126633,1,0,0:0:0:0:
279,339,126872,1,0,0:0:0:0:
231,284,126991,1,0,0:0:0:0:
161,171,127229,6,0,P|189:120|225:116,1,60,8|0,0:0|0:0,0:0:0:0:
245,89,127467,1,0,0:0:0:0:
371,50,127705,5,4,0:0:0:0:
436,52,127824,1,0,0:0:0:0:
318,112,128062,1,0,0:0:0:0:
383,115,128181,1,0,0:0:0:0:
262,169,128419,1,0,0:0:0:0:
327,171,128538,1,0,0:0:0:0:
205,221,128776,1,0,0:0:0:0:
270,224,128895,1,0,0:0:0:0:
388,281,129133,6,0,P|352:310|322:323,1,60,8|0,0:0|0:0,0:0:0:0:
277,336,129372,1,0,0:0:0:0:
146,357,129610,2,0,P|91:355|61:332,1,60
20,239,129967,2,0,P|22:184|45:154,1,60
125,97,130324,2,0,P|179:99|209:122,1,60
282,188,130681,2,0,P|280:243|257:273,1,60
226,364,131038,5,0,0:0:0:0:
291,353,131157,1,0,0:0:0:0:
352,328,131276,1,0,0:0:0:0:
401,284,131395,1,0,0:0:0:0:
445,203,131514,6,0,B|443:160|456:128|456:128|425:112|425:112|444:79|445:36,1,180
312,68,132229,1,0,0:0:0:0:
280,60,132288,2,0,L|232:49,3,30,0|0|0|8,0:0|0:0|0:0|0:0,0:0:0:0:
138,124,132705,1,0,0:0:0:0:
169,133,132764,2,0,L|198:140,3,30,0|0|0|8,0:0|0:0|0:0|0:0,0:0:0:0:
324,179,133181,6,0,L|265:213,1,60,0|0,0:0|0:0,0:0:0:0:
215,243,133419,1,12,0:0:0:0:
247,370,133657,1,0,0:0:0:0:
247,370,133776,1,12,0:0:0:0:
157,269,134014,2,0,P|107:272|74:228,1,60,0|8,0:0|0:0,0:0:0:0:
52,221,134253,2,0,P|25:178|27:149,1,60,8|0,0:0|0:0,0:0:0:0:
18,104,134491,2,0,P|38:49|67:31,1,60,0|0,0:0|0:0,0:0:0:0:
88,6,134729,1,0,0:0:0:0:
193,40,134848,6,0,P|186:66|192:100,1,60,8|8,0:0|0:0,0:0:0:0:
222,156,135086,1,8,0:0:0:0:
262,208,135205,1,0,0:0:0:0:
310,252,135324,1,4,0:0:0:0:
208,119,138657,6,0,P|134:120|94:85,1,90.0000034332277,0|0,2:0|2:0,2:0:0:0:
77,60,139014,1,0,2:0:0:0:
48,171,139133,2,0,B|64:225|146:287|146:287|174:274|203:234|261:254|269:258,1,270.000010299683,0|0,2:0|2:0,2:0:0:0:
327,265,140324,5,0,3:0:0:0:
357,239,140562,1,0,3:0:0:0:
406,66,141038,5,0,2:0:0:0:
379,363,141991,1,0,2:0:0:0:
506,166,142467,2,0,P|460:134|436:82,1,90.0000034332277,0|0,3:0|3:0,3:0:0:0:
412,35,142824,1,0,3:0:0:0:
323,81,142943,2,0,B|286:122|281:167|281:167|343:189|343:189|283:212|286:293,1,270.000010299683,4|0,2:0|2:0,2:0:0:0:
241,275,144729,5,0,3:0:0:0:
192,262,144848,1,4,2:0:0:0:
256,192,145324,12,0,146514,0:0:0:0:
301,46,146753,5,0,1:0:0:0:
387,223,147110,1,0,1:0:0:0:
189,239,147467,2,0,P|250:274|282:262,2,60,0|0|8,0:0|0:0|0:0,0:0:0:0:
86,87,147943,1,0,0:0:0:0:
190,237,148181,1,8,0:0:0:0:
86,87,148419,1,0,0:0:0:0:
205,31,148657,5,8,0:0:0:0:
205,31,148776,2,8,P|272:18|346:46,1,120,0|8,0:0|0:0,0:0:0:0:
378,63,149133,2,0,B|434:89|434:89|434:169,1,120,0|8,0:0|0:0,0:0:0:0:
359,137,149491,2,8,L|244:84,1,120,0|8,0:0|0:0,0:0:0:0:
181,54,149848,1,0,0:0:0:0:
242,170,150086,6,0,L|304:201,1,60
352,230,150324,2,0,L|289:242,1,60
225,251,150562,5,4,0:0:0:0:
116,172,150800,1,0,0:0:0:0:
115,82,150919,1,0,0:0:0:0:
200,109,151038,1,0,0:0:0:0:
367,43,151276,5,4,0:0:0:0:
465,193,151514,1,0,0:0:0:0:
424,273,151633,1,0,0:0:0:0:
362,206,151753,1,0,0:0:0:0:
208,112,151991,5,0,0:0:0:0:
210,291,152229,1,8,0:0:0:0:
59,192,152467,5,4,0:0:0:0:
280,346,152824,1,0,0:0:0:0:
469,305,153181,1,0,0:0:0:0:
469,305,153300,1,0,0:0:0:0:
498,246,153419,1,0,0:0:0:0:
502,180,153538,1,0,0:0:0:0:
474,119,153657,1,0,0:0:0:0:
437,64,153776,1,0,0:0:0:0:
375,38,153895,5,8,0:0:0:0:
375,38,153955,1,0,0:0:0:0:
375,38,154014,1,0,0:0:0:0:
356,52,154074,1,0,0:0:0:0:
335,64,154133,1,0,0:0:0:0:
310,64,154193,1,0,0:0:0:0:
226,82,154372,5,4,0:0:0:0:
238,146,154491,1,0,0:0:0:0:
301,129,154610,1,0,0:0:0:0:
294,194,154729,1,0,0:0:0:0:
229,209,154848,1,0,0:0:0:0:
241,273,154967,1,0,0:0:0:0:
257,337,155086,1,0,0:0:0:0:
365,262,155324,2,0,L|387:193,1,60,0|0,0:0|0:0,0:0:0:0:
480,223,155562,6,0,L|455:314,1,90.0000034332277,0|0,0:0|0:0,0:0:0:0:
367,52,156038,5,0,0:0:0:0:
194,102,156276,2,0,L|205:170,1,60,4|0,0:0|0:0,0:0:0:0:
361,271,156633,2,0,L|302:300,1,60,0|0,0:0|0:0,0:0:0:0:
116,117,156991,2,0,L|127:185,1,60,4|0,0:0|0:0,0:0:0:0:
489,324,157467,2,0,L|430:353,1,60,0|0,0:0|0:0,0:0:0:0:
290,43,158181,6,0,L|253:92,1,60,0|0,0:0|0:0,0:0:0:0:
109,87,158419,2,0,L|176:133,1,60,0|0,0:0|0:0,0:0:0:0:
106,273,158657,2,0,L|179:321,1,60,0|0,0:0|0:0,0:0:0:0:
285,170,158895,2,0,L|318:120,1,60,0|0,0:0|0:0,0:0:0:0:
476,178,159133,2,0,L|442:227,1,60,0|0,0:0|0:0,0:0:0:0:
291,278,159372,2,0,L|205:218,1,60,0|0,0:0|0:0,0:0:0:0:
214,57,159611,2,0,L|281:103,1,60,0|0,0:0|0:0,0:0:0:0:
184,195,159848,2,0,B|150:185|150:185|96:195,1,60
34,284,160086,5,0,0:0:0:0:
76,349,160205,1,0,0:0:0:0:
130,293,160324,1,0,0:0:0:0:
255,303,160562,5,0,0:0:0:0:
344,351,160681,1,0,0:0:0:0:
351,247,160800,1,0,0:0:0:0:
233,57,161038,5,0,0:0:0:0:
113,97,161157,1,0,0:0:0:0:
206,181,161276,1,0,0:0:0:0:
419,48,161514,5,0,0:0:0:0:
405,197,161633,1,0,0:0:0:0:
272,139,161753,1,0,0:0:0:0:
160,3,161991,5,4,0:0:0:0:
453,165,162943,1,4,0:0:0:0:
132,265,163895,1,4,0:0:0:0:
354,12,164848,1,4,0:0:0:0:
115,44,165800,6,0,P|89:117|146:166,1,135.000005149841,4|0,0:0|0:0,0:0:0:0:
256,217,166514,1,0,0:0:0:0:
333,305,166753,1,8,0:0:0:0:
368,193,166991,1,0,0:0:0:0:
380,33,167705,6,0,P|312:12|271:59,1,135.000005149841,4|0,0:0|0:0,0:0:0:0:
208,187,168419,2,0,P|140:159|134:149,2,60,0|0|8,0:0|0:0|0:0,0:0:0:0:
363,192,168895,1,0,0:0:0:0:
208,184,169133,1,8,0:0:0:0:
363,192,169372,1,0,0:0:0:0:
388,287,169610,6,0,B|346:292|346:292|299:249|299:249|244:255,1,135.000005149841,4|0,0:0|0:0,0:0:0:0:
114,254,170324,1,0,0:0:0:0:
114,254,170443,2,0,L|143:165,1,60,0|8,0:0|0:0,0:0:0:0:
166,69,170800,1,0,0:0:0:0:
459,26,171514,6,0,B|447:102|506:97|473:183,1,135.000005149841,4|0,0:0|0:0,0:0:0:0:
481,316,172229,1,0,0:0:0:0:
481,316,172348,2,8,P|431:320|406:311,1,60,0|8,0:0|0:0,0:0:0:0:
361,291,172586,1,0,0:0:0:0:
308,250,172705,1,0,0:0:0:0:
283,188,172824,1,0,0:0:0:0:
269,123,172943,2,8,P|223:138|194:164,1,60,8|8,0:0|0:0,0:0:0:0:
162,186,173181,2,0,P|133:216|120:251,1,60,8|8,0:0|0:0,0:0:0:0:
94,290,173419,5,4,0:0:0:0:
257,337,173657,1,0,0:0:0:0:
125,232,173895,1,4,0:0:0:0:
257,337,174133,1,0,0:0:0:0:
165,182,174372,1,4,0:0:0:0:
257,337,174610,1,0,0:0:0:0:
214,138,174848,1,4,0:0:0:0:
390,189,175086,5,8,0:0:0:0:
214,138,175324,1,4,0:0:0:0:
257,337,175562,1,0,0:0:0:0:
83,289,175800,1,4,0:0:0:0:
6,126,176038,1,0,0:0:0:0:
214,138,176276,6,0,P|201:77|172:53,2,60,4|8|0,0:0|0:0|0:0,0:0:0:0:
330,201,176753,2,0,P|378:162|388:118,2,60,4|8|8,0:0|0:0|0:0,0:0:0:0:
266,217,177110,1,0,0:0:0:0:
202,233,177229,6,0,P|207:303|268:338,1,120,4|0,0:0|0:0,0:0:0:0:
367,289,177705,2,0,P|362:219|301:184,1,120,4|0,0:0|0:0,0:0:0:0:
216,116,178181,1,4,0:0:0:0:
266,73,178300,2,0,P|291:57|320:57,1,60,8|0,0:0|0:0,0:0:0:0:
423,140,178657,5,0,0:0:0:0:
423,140,178717,1,0,0:0:0:0:
423,140,178776,1,0,0:0:0:0:
423,140,178836,1,0,0:0:0:0:
423,140,178895,2,8,P|429:196|416:218,1,60,8|0,0:0|0:0,0:0:0:0:
386,286,179133,6,8,P|334:318|306:319,1,60,0|0,0:0|0:0,0:0:0:0:
319,248,179372,2,8,P|266:254|237:240,1,60,8|0,0:0|0:0,0:0:0:0:
205,22,179848,2,0,L|153:79,1,60
161,136,180086,2,0,L|175:162,4,30
226,134,180383,2,0,L|255:134,6,30
322,159,180800,1,0,0:0:0:0:
334,205,180919,1,0,0:0:0:0:
375,229,181038,1,4,0:0:0:0:
88,112,196276,5,4,2:0:0:0:
447,85,198062,2,0,P|466:101|484:145,1,60,0|0,2:0|2:0,0:0:0:0:
473,323,199134,1,0,2:0:0:0:
329,323,199848,2,0,L|317:241,1,60,0|0,0:0|0:0,0:0:0:0:
320,263,200086,1,4,2:0:0:0:
307,120,200800,5,0,2:0:0:0:
51,53,201276,1,0,2:0:0:0:
36,184,201514,1,0,2:0:0:0:
217,121,202467,5,0,2:0:0:0:
325,100,202943,1,4,2:0:0:0:
321,243,203657,2,0,P|365:259|388:259,2,60,0|0|4,0:0|0:0|2:0,0:0:0:0:
106,88,204372,1,0,0:0:0:0:
367,49,205681,6,0,L|346:109,1,60,0|4,0:0|2:0,0:0:0:0:
256,192,206038,12,0,207705,0:0:0:0:
158,56,210800,6,0,P|93:26|34:26,2,120,0|0|0,0:0|0:0|0:0,0:0:0:0:
218,97,211514,1,0,0:0:0:0:
466,304,212467,1,4,0:0:0:0:
8,275,213419,5,4,0:0:0:0:
269,309,213895,1,0,0:0:0:0:
172,62,214372,1,4,0:0:0:0:
10,270,214848,1,0,0:0:0:0:
117,311,214967,6,0,L|186:289,1,60,0|8,0:0|0:0,0:0:0:0:
218,351,215205,2,0,L|300:328,1,60,8|4,0:0|0:0,0:0:0:0:
512,202,215800,5,0,0:0:0:0:
309,33,216276,1,4,0:0:0:0:
265,293,216753,1,0,0:0:0:0:
510,195,217229,1,4,0:0:0:0:
460,111,217348,6,0,L|452:37,1,60,0|0,0:0|0:0,0:0:0:0:
385,61,217586,2,0,L|392:132,1,60
321,132,217824,2,0,L|313:60,2,60
331,202,218181,5,0,0:0:0:0:
325,272,218300,1,0,0:0:0:0:
261,316,218419,1,0,0:0:0:0:
183,318,218538,1,0,0:0:0:0:
140,267,218657,2,0,B|146:242|146:242|115:216|115:216|136:192|136:162|120:130,1,120
208,14,219134,5,4,0:0:0:0:
441,48,219491,2,0,B|403:115|460:131|400:200,1,135.000005149841,4|0,0:0|0:0,0:0:0:0:
327,344,220086,2,0,P|271:317|256:287,1,90.0000034332277,8|0,0:0|0:0,0:0:0:0:
216,204,220562,1,0,0:0:0:0:
258,114,220800,1,8,0:0:0:0:
353,86,221038,2,0,P|408:116|393:177,1,135.000005149841,4|0,0:0|0:0,0:0:0:0:
185,348,221753,5,0,0:0:0:0:
201,282,221872,1,0,0:0:0:0:
216,216,221991,1,8,0:0:0:0:
61,124,222229,1,0,0:0:0:0:
216,216,222467,1,8,0:0:0:0:
163,43,222705,1,0,0:0:0:0:
216,216,222943,6,0,B|264:152|286:207|348:132,1,135.000005149841,4|0,0:0|0:0,0:0:0:0:
462,60,223657,2,0,P|464:18|456:-2,2,60,0|0|8,0:0|0:0|0:0,0:0:0:0:
451,229,224134,1,0,0:0:0:0:
253,239,224610,5,0,0:0:0:0:
137,101,224848,1,12,0:0:0:0:
253,239,225086,1,0,0:0:0:0:
137,101,225324,1,12,0:0:0:0:
253,239,225562,1,0,0:0:0:0:
137,101,225800,6,8,L|228:56,1,60,8|0,0:0|0:0,0:0:0:0:
332,99,226038,2,0,L|377:190,1,60,0|0,0:0|0:0,0:0:0:0:
318,291,226276,2,0,L|227:336,1,60,0|0,0:0|0:0,0:0:0:0:
128,270,226514,2,0,L|83:179,1,60,0|0,0:0|0:0,0:0:0:0:
41,67,226753,5,4,0:0:0:0:
174,187,226991,1,0,0:0:0:0:
41,67,227229,1,4,0:0:0:0:
248,188,227467,1,0,0:0:0:0:
41,67,227705,1,4,0:0:0:0:
320,168,227943,1,0,0:0:0:0:
41,67,228181,1,4,0:0:0:0:
237,24,228419,5,8,0:0:0:0:
115,217,228657,1,4,0:0:0:0:
342,218,228895,1,0,0:0:0:0:
237,24,229134,1,4,0:0:0:0:
115,217,229372,1,0,0:0:0:0:
342,218,229610,1,4,0:0:0:0:
450,183,229729,6,0,P|451:125|437:101,1,60,8|0,0:0|0:0,0:0:0:0:
395,4,230086,2,8,P|351:41|325:49,1,60,12|0,0:0|0:0,0:0:0:0:
288,67,230324,1,0,0:0:0:0:
234,104,230443,1,0,0:0:0:0:
186,214,230562,5,4,0:0:0:0:
370,128,230800,1,0,0:0:0:0:
358,331,231038,1,4,0:0:0:0:
186,214,231276,1,0,0:0:0:0:
42,21,231514,5,12,0:0:0:0:
282,8,231753,1,0,0:0:0:0:
186,214,231991,1,4,0:0:0:0:
42,21,232229,1,0,0:0:0:0:
282,8,232467,1,12,0:0:0:0:
186,214,232705,6,0,P|225:251|253:261,1,60,0|8,0:0|0:0,0:0:0:0:
357,285,233062,2,0,P|412:259|424:237,1,60,0|8,0:0|0:0,0:0:0:0:
449,208,233300,2,0,P|460:149|445:115,1,60,8|4,0:0|0:0,0:0:0:0:
449,85,233538,1,0,0:0:0:0:
412,30,233657,1,0,0:0:0:0:
349,9,233776,1,0,0:0:0:0:
304,96,233895,6,8,L|232:68,1,60,8|8,0:0|0:0,0:0:0:0:
221,140,234134,2,0,L|288:166,1,60,8|0,0:0|0:0,0:0:0:0:
425,198,234372,6,0,P|391:262|310:254,1,120,4|0,0:0|0:0,0:0:0:0:
248,356,234848,2,0,P|259:298|222:253,1,120,4|0,0:0|0:0,0:0:0:0:
319,164,235324,2,0,P|340:109|395:90,1,120,4|0,0:0|0:0,0:0:0:0:
481,190,235800,6,0,L|426:220,1,60,4|0,0:0|0:0,0:0:0:0:
253,311,236276,1,4,0:0:0:0:
256,192,236514,12,4,238181,0:0:0:0:
377,70,238538,6,0,P|356:145|305:167,1,135.000005149841,0|0,0:0|0:0,0:0:0:0:
246,89,239134,1,8,0:0:0:0:
191,12,239372,2,0,P|144:24|134:62,1,90.0000034332277,0|0,0:0|0:0,0:0:0:0:
149,157,239848,1,8,0:0:0:0:
180,250,240086,2,0,P|130:264|66:207,2,135.000005149841,0|0|0,0:0|0:0|0:0,0:0:0:0:
251,230,240919,6,0,L|337:246,1,60,0|8,0:0|0:0,0:0:0:0:
415,162,241276,1,0,0:0:0:0:
309,240,241515,1,8,0:0:0:0:
415,162,241753,1,0,0:0:0:0:
352,45,241991,6,0,B|280:36|297:89|210:82,1,135.000005149841,4|0,0:0|0:0,0:0:0:0:
76,79,242705,1,0,0:0:0:0:
73,149,242824,2,0,P|111:179|146:186,1,60,0|8,0:0|0:0,0:0:0:0:
226,217,243181,1,0,0:0:0:0:
165,334,243419,1,0,0:0:0:0:
226,217,243657,1,8,0:0:0:0:
427,272,243895,6,0,P|491:252|486:173,1,120,4|0,0:0|0:0,0:0:0:0:
490,80,244610,1,0,0:0:0:0:
490,80,244729,1,0,0:0:0:0:
490,80,244848,2,8,P|427:74|380:92,1,60,8|0,0:0|0:0,0:0:0:0:
365,80,245086,2,0,P|307:106|275:145,1,60,0|0,0:0|0:0,0:0:0:0:
248,126,245324,2,8,P|213:65|222:28,2,60,8|8|8,0:0|0:0|0:0,0:0:0:0:
295,171,245681,1,0,0:0:0:0:
345,213,245800,5,4,0:0:0:0:
432,291,246157,2,0,P|428:350|348:352,1,135.000005149841,0|0,0:0|0:0,0:0:0:0:
278,313,246753,1,8,0:0:0:0:
202,248,246991,1,0,0:0:0:0:
251,162,247229,1,0,0:0:0:0:
202,248,247467,1,8,0:0:0:0:
5,118,247705,6,4,P|10:55|105:31,1,135.000005149841,4|0,0:0|0:0,0:0:0:0:
265,30,248419,2,0,P|293:75|319:89,1,60,0|0,0:0|0:0,0:0:0:0:
346,121,248657,1,8,0:0:0:0:
310,248,248895,1,0,0:0:0:0:
346,121,249134,1,8,0:0:0:0:
310,248,249372,1,0,0:0:0:0:
213,163,249610,6,4,P|145:199|177:251,1,135.000005149841,4|0,0:0|0:0,0:0:0:0:
273,337,250324,1,0,0:0:0:0:
273,337,250443,1,0,0:0:0:0:
273,337,250562,2,0,P|339:324|363:283,1,90.0000034332277,8|0,0:0|0:0,0:0:0:0:
412,120,251276,1,0,0:0:0:0:
336,55,251515,6,8,P|290:40|216:56,1,120,12|0,0:0|0:0,0:0:0:0:
287,167,251991,2,8,P|229:180|172:165,1,120,12|0,0:0|0:0,0:0:0:0:
69,82,252467,5,12,0:0:0:0:
29,135,252586,1,0,0:0:0:0:
20,200,252705,1,0,0:0:0:0:
47,259,252824,1,0,0:0:0:0:
98,300,252943,2,8,P|161:316|189:310,1,60,0|0,0:0|0:0,0:0:0:0:
223,312,253181,2,0,P|285:294|306:275,1,60
355,252,253419,5,4,0:0:0:0:
363,156,253657,1,0,0:0:0:0:
273,191,253895,1,4,0:0:0:0:
284,95,254134,2,0,P|226:60|178:75,1,120,0|4,0:0|0:0,0:0:0:0:
108,138,254610,1,0,0:0:0:0:
197,171,254848,2,0,P|195:233|248:271,1,120,4|0,0:0|0:0,0:0:0:0:
280,183,255324,5,4,0:0:0:0:
374,165,255562,1,0,0:0:0:0:
310,92,255800,1,4,0:0:0:0:
214,95,256038,2,0,P|152:75|139:12,1,120,0|4,0:0|0:0,0:0:0:0:
230,5,256515,1,0,0:0:0:0:
361,20,256753,5,4,0:0:0:0:
404,69,256872,1,8,0:0:0:0:
427,130,256991,1,0,0:0:0:0:
422,195,257110,1,0,0:0:0:0:
365,277,257229,6,0,P|291:288|258:240,1,120,4|0,0:0|0:0,0:0:0:0:
226,171,257705,1,4,0:0:0:0:
199,78,257943,2,0,P|275:75|313:144,1,120,0|4,0:0|0:0,0:0:0:0:
333,193,258419,2,0,B|298:242|247:230|230:293,1,120,0|4,0:0|0:0,0:0:0:0:
160,196,258895,1,8,0:0:0:0:
189,327,259134,6,0,P|120:349|76:318,1,120,4|0,0:0|0:0,0:0:0:0:
32,244,259610,1,4,0:0:0:0:
17,149,259848,1,0,0:0:0:0:
113,59,260086,6,0,P|168:87|214:84,1,60,4|8,0:0|0:0,0:0:0:0:
230,97,260324,1,0,0:0:0:0:
136,190,260562,2,0,P|197:197|239:178,1,60,4|8,0:0|0:0,0:0:0:0:
259,186,260800,1,8,0:0:0:0:
322,169,260919,1,8,0:0:0:0:
381,139,261038,1,4,0:0:0:0:
447,69,261276,5,0,0:0:0:0:
356,34,261515,2,0,B|294:27|304:73|239:63,1,120,4|0,0:0|0:0,0:0:0:0:
145,61,261991,2,0,P|130:135|196:141,1,120,4|0,0:0|0:0,0:0:0:0:
256,169,262467,1,4,0:0:0:0:
208,252,262705,1,0,0:0:0:0:
292,293,262943,6,0,P|375:267|361:200,1,120,4|0,0:0|0:0,0:0:0:0:
401,115,263419,1,4,0:0:0:0:
395,21,263657,2,0,P|314:77|330:113,1,120,0|4,0:0|0:0,0:0:0:0:
317,174,264134,1,0,0:0:0:0:
227,140,264372,5,4,0:0:0:0:
227,140,264491,2,0,P|191:83|156:69,2,60,8|8|8,0:0|0:0|0:0,0:0:0:0:
226,211,264848,1,4,0:0:0:0:
153,272,265086,5,0,0:0:0:0:
123,186,265324,1,4,0:0:0:0:
70,266,265562,2,0,P|102:345|174:351,1,120,0|4,0:0|0:0,0:0:0:0:
224,358,266038,2,0,B|291:366|290:302|375:328,1,120,0|4,0:0|0:0,0:0:0:0:
405,185,266515,1,8,0:0:0:0:
461,263,266753,6,0,P|498:210|485:132,1,120,4|4,0:0|0:0,0:0:0:0:
405,185,267229,1,4,0:0:0:0:
377,93,267467,1,0,0:0:0:0:
248,62,267705,2,0,P|249:10|261:-11,2,60,4|8|0,0:0|0:0|0:0,0:0:0:0:
129,120,268181,2,0,P|107:71|109:48,2,60,4|0|0,0:0|0:0|0:0,0:0:0:0:
169,179,268538,1,0,0:0:0:0:
217,231,268657,6,0,P|285:276|364:281,1,135.000005149841,4|0,0:0|0:0,0:0:0:0:
447,209,269372,1,0,0:0:0:0:
447,209,269491,2,0,L|499:219,2,30,0|0|12,0:0|0:0|0:0,0:0:0:0:
419,79,269848,1,0,0:0:0:0:
419,79,269967,2,0,L|465:53,2,30,0|0|12,0:0|0:0|0:0,0:0:0:0:
290,47,270324,5,0,0:0:0:0:
290,47,270443,2,0,P|222:64|212:73,1,60,0|12,0:0|0:0,0:0:0:0:
161,169,270800,2,0,P|229:152|239:143,1,60,0|8,0:0|0:0,0:0:0:0:
349,110,271276,6,8,P|367:167|360:197,1,60,8|0,0:0|0:0,0:0:0:0:
345,228,271515,1,4,0:0:0:0:
311,284,271634,1,0,0:0:0:0:
260,326,271753,1,0,0:0:0:0:
194,335,271872,1,0,0:0:0:0:
116,293,271991,6,8,L|55:332,1,60,8|8,0:0|0:0,0:0:0:0:
83,207,272229,2,8,L|16:220,1,60,8|0,0:0|0:0,0:0:0:0:
99,87,272467,1,4,0:0:0:0:
256,192,272705,12,0,274372,2:0:0:0:
