osu file format v14

[General]
AudioFilename: audio.mp3
AudioLeadIn: 0
PreviewTime: 75268
Countdown: 1
SampleSet: Soft
StackLeniency: 0.7
Mode: 0
LetterboxInBreaks: 0
WidescreenStoryboard: 0

[Editor]
Bookmarks: 1640,12611,20840,30268,42782,53754,64725,75697,86668,97640
DistanceSpacing: 0.4
BeatDivisor: 4
GridSize: 32
TimelineZoom: 1

[Metadata]
Title:White clover
TitleUnicode:鈴木このみ「カオスシンドローム」カップリング曲「White clover」試聴
Artist:Yuyoyuppe ft. Konomi Suzuki
ArtistUnicode:Yuyoyuppe ft. Konomi Suzuki
Creator:-Smine-
Version:Extra
Source:
Tags:
BeatmapID:2140686
BeatmapSetID:1023279

[Difficulty]
HPDrainRate:6
CircleSize:3.8
OverallDifficulty:8
ApproachRate:9.1
SliderMultiplier:2.00000000596046
SliderTickRate:1

[Events]
//Background and Video events
0,0,"closed_eyes_original_characters_white_hair_long_hair_rain_grey_hair_bangs_solo-119741.jpg",0,0
//Break Periods
2,65267,106570
//Storyboard Layer 0 (Background)
//Storyboard Layer 1 (Fail)
//Storyboard Layer 2 (Pass)
//Storyboard Layer 3 (Foreground)
//Storyboard Layer 4 (Overlay)
//Storyboard Sound Samples

[TimingPoints]
1640,342.857142857143,4,2,0,30,1,0
1640,-125,4,2,0,30,0,0
12611,-100,4,2,0,30,0,0
20840,-66.6666666666667,4,2,0,30,0,1
30268,-125,4,2,0,30,0,0
42440,-83.3333333333333,4,2,0,30,0,0
42782,-125,4,2,0,30,0,0
53754,-100,4,2,0,30,0,0

[Colours]
Combo1 : 149,117,155
Combo2 : 128,145,140
Combo3 : 191,193,255
Combo4 : 156,188,162

[HitObjects]
59,224,1640,6,0,B|45:267|45:267|50:318,1,80.0000002384184
167,358,1982,1,0,0:0:0:0:
271,226,2154,2,0,B|285:269|285:269|280:320,1,80.0000002384184
170,325,2497,1,0,0:0:0:0:
158,150,2668,2,0,B|208:114|208:114|329:113,1,160.000000476837
380,200,3182,1,0,0:0:0:0:
446,77,3354,2,0,P|410:47|369:35,1,80.0000002384184
448,109,3697,2,0,P|443:62|423:24,1,80.0000002384184
449,133,4040,2,0,P|478:97|491:56,1,80.0000002384184
358,202,4382,6,0,B|323:198|323:198|280:212,1,80.0000002384184
435,288,4724,1,0,0:0:0:0:
353,362,4896,2,0,B|318:365|318:365|275:351,1,80.0000002384184
458,291,5240,1,0,0:0:0:0:
319,124,5411,2,0,B|283:147|283:147|283:284,1,160.000000476837
68,125,6097,2,0,P|47:84|44:36,2,80.0000002384184
142,68,6611,1,0,0:0:0:0:
84,154,6782,2,0,P|40:139|4:108,1,80.0000002384184
168,72,7125,6,0,B|218:62|218:62|282:78,1,80.0000002384184
326,155,7468,1,0,0:0:0:0:
166,235,7640,2,0,B|216:245|216:245|280:229,1,80.0000002384184
349,156,7982,1,0,0:0:0:0:
414,45,8154,2,0,B|460:32|460:32|457:104|472:143,1,160.000000476837
455,241,8668,1,0,0:0:0:0:
284,249,8840,2,0,P|254:285|242:326,1,80.0000002384184
316,247,9183,2,0,P|269:251|231:271,1,80.0000002384184
340,246,9526,2,0,P|304:216|263:204,1,80.0000002384184
463,349,9868,6,0,B|485:307|485:307|483:234,1,120.000000357628
481,194,10211,1,0,0:0:0:0:
366,347,10382,2,0,L|241:346,1,120.000000357628
205,348,10725,1,0,0:0:0:0:
121,263,10897,2,0,L|281:263,1,160.000000476837
200,77,11582,2,0,P|146:46|98:46,2,80.0000002384184
161,171,12097,1,0,0:0:0:0:
222,89,12268,2,0,P|216:50|196:16,1,80.0000002384184
242,264,12611,6,0,B|285:278|285:278|343:271,1,100.000000298023
433,188,12953,1,0,0:0:0:0:
240,113,13125,2,0,B|283:99|283:99|338:103,1,100.000000298023
456,187,13468,1,0,0:0:0:0:
448,310,13640,2,0,B|413:347|331:358,1,100.000000298023
254,344,13982,6,0,B|184:332|184:332|51:365,1,200.000000596046
37,258,14497,1,0,0:0:0:0:
37,258,14668,2,0,P|65:207|67:162,1,100.000000298023
46,61,15011,2,0,P|95:66|137:91,1,100.000000298023
224,202,15354,6,0,B|281:224|281:224|328:223,1,100.000000298023
142,118,15697,1,0,0:0:0:0:
224,38,15868,2,0,B|281:16|281:16|328:17,1,100.000000298023
141,139,16211,1,0,0:0:0:0:
256,248,16382,2,0,L|379:248,1,100.000000298023
447,185,16725,6,0,P|411:155|358:143,1,100.000000298023
449,217,17068,2,0,P|444:170|419:125,1,100.000000298023
450,241,17411,2,0,P|479:205|492:150,1,100.000000298023
361,30,17754,2,0,B|326:62|326:62|319:181,1,150.000000447035
276,189,18097,6,0,B|216:177|216:177|182:144,1,100.000000298023
134,60,18440,1,0,0:0:0:0:
0,187,18611,2,0,B|60:175|60:175|94:142,1,100.000000298023
134,32,18954,1,0,0:0:0:0:
131,260,19125,1,0,0:0:0:0:
256,192,19211,12,0,20754,0:0:0:0:
350,331,20840,5,0,0:0:0:0:
140,300,21011,1,0,0:0:0:0:
227,141,21182,2,0,B|339:164|339:164|290:195,1,150.000006169081
55,211,21525,2,0,P|40:125|60:55,1,150.000006169081
172,70,21868,2,0,P|139:139|162:190,1,75.0000030845403
208,236,22040,2,0,P|242:250|233:211,1,75.0000030845403
329,346,22211,6,0,B|408:323|408:323|469:161,1,225.000009253621
469,161,22554,2,0,P|413:68|292:67,1,225.000009253621
293,88,22897,2,0,P|304:124|343:158,1,75.0000030845403
154,45,23068,1,0,0:0:0:0:
138,265,23240,1,0,0:0:0:0:
138,265,23411,1,0,0:0:0:0:
1,226,23582,5,0,0:0:0:0:
271,266,23754,1,0,0:0:0:0:
53,384,23925,2,0,B|106:351|106:351|173:364|214:318,1,150.000006169081
345,194,24268,1,0,0:0:0:0:
345,194,24440,1,0,0:0:0:0:
241,128,24611,2,0,P|223:182|223:232,1,75.0000030845403
423,252,24782,2,0,P|435:307|431:357,1,75.0000030845403
450,79,24954,6,0,B|376:44|376:44|209:40,1,225.000009253621
199,44,25297,1,0,0:0:0:0:
78,190,25468,1,0,0:0:0:0:
73,153,25554,1,0,0:0:0:0:
84,117,25640,1,0,0:0:0:0:
250,233,25811,1,0,0:0:0:0:
255,270,25897,1,0,0:0:0:0:
244,306,25982,2,0,L|158:295,1,75.0000030845403
66,277,26154,1,0,0:0:0:0:
374,323,26325,5,0,0:0:0:0:
247,143,26497,1,0,0:0:0:0:
127,360,26668,2,0,B|17:357|17:357|-19:282,1,150.000006169081
150,61,27011,2,0,P|151:138|141:232,1,150.000006169081
39,171,27354,2,0,P|50:122|12:108,1,75.0000030845403
254,32,27525,2,0,P|276:73|284:114,1,75.0000030845403
280,272,27697,6,0,B|219:323|219:323|145:322,1,150.000006169081
396,340,28040,2,0,B|447:279|447:279|446:205,1,150.000006169081
343,44,28382,1,0,0:0:0:0:
343,44,28554,1,0,0:0:0:0:
168,117,28725,1,0,0:0:0:0:
361,241,28897,1,0,0:0:0:0:
111,25,29068,5,0,0:0:0:0:
68,67,29154,1,0,0:0:0:0:
58,126,29240,1,0,0:0:0:0:
79,181,29325,1,0,0:0:0:0:
130,212,29411,1,0,0:0:0:0:
189,221,29497,1,0,0:0:0:0:
242,195,29582,1,0,0:0:0:0:
271,142,29668,1,0,0:0:0:0:
271,81,29754,6,0,B|323:60|323:60|388:120|388:120|491:121,1,225.000009253621
506,121,30097,2,0,P|503:165|485:212,1,75.0000030845403
370,350,30268,1,0,0:0:0:0:
256,192,30354,12,0,31725,0:0:0:0:
193,213,31811,6,0,B|135:275|135:275|52:317,1,160.000000476837
291,139,32497,2,0,P|293:97|282:49,1,80.0000002384184
388,201,32840,2,0,P|430:203|478:192,1,80.0000002384184
403,89,33182,5,0,0:0:0:0:
385,311,33525,2,0,P|331:328|301:334,1,80.0000002384184
216,299,33868,1,0,0:0:0:0:
52,167,34211,2,0,L|56:119,3,40.0000001192092
64,88,34554,6,0,B|96:53|96:53|218:54,1,160.000000476837
293,139,35068,1,0,0:0:0:0:
412,48,35240,2,0,B|386:78|386:78|385:204,1,160.000000476837
479,248,35754,1,0,0:0:0:0:
394,332,35925,6,0,P|346:315|316:290,1,80.0000002384184
230,249,36268,2,0,P|208:294|204:333,1,80.0000002384184
90,349,36611,2,0,L|42:345,3,40.0000001192092
10,339,36954,2,0,P|13:260|33:192,1,120.000000357628
61,209,37297,6,0,B|136:207|136:207|177:162|173:101,1,160.000000476837
382,51,37982,2,0,P|359:95|361:156,1,80.0000002384184
457,132,38325,1,0,0:0:0:0:
404,223,38497,1,0,0:0:0:0:
469,308,38668,5,0,0:0:0:0:
358,323,38840,1,0,0:0:0:0:
249,334,39011,1,0,0:0:0:0:
94,182,39354,2,0,L|96:281,1,80.0000002384184
204,133,39697,2,0,P|207:185|220:231,1,80.0000002384184
296,74,40040,6,0,P|251:30|153:40,1,160.000000476837
88,99,40554,1,0,0:0:0:0:
122,186,40725,2,0,P|78:188|34:186,1,80.0000002384184
0,268,41068,2,0,P|69:274|174:267,1,160.000000476837
364,321,41754,1,0,0:0:0:0:
390,216,41925,1,0,0:0:0:0:
416,114,42097,1,0,0:0:0:0:
104,53,42440,6,0,L|118:243,1,179.999995043277
127,270,42782,6,0,B|158:319|158:319|275:330,1,160.000000476837
438,233,43468,2,0,P|388:204|366:171,1,80.0000002384184
476,76,43811,2,0,L|476:124,3,40.0000001192092
474,156,44154,6,0,P|431:122|397:20,1,160.000000476837
298,27,44668,1,0,0:0:0:0:
215,102,44840,2,0,L|216:181,1,80.0000002384184
125,165,45182,2,0,P|129:204|128:244,1,80.0000002384184
20,138,45525,6,0,P|59:70|135:52,1,160.000000476837
125,165,46040,1,0,0:0:0:0:
38,243,46211,2,0,L|39:286,3,40.0000001192092
43,322,46554,1,0,0:0:0:0:
145,275,46725,1,0,0:0:0:0:
260,212,46897,6,0,P|255:261|257:318,1,80.0000002384184
349,353,47240,2,0,P|346:308|365:262,1,80.0000002384184
431,158,47582,2,0,P|455:213|453:303,1,120.000000357628
453,311,47925,1,0,0:0:0:0:
309,99,48268,6,0,B|329:52|329:52|458:45,1,160.000000476837
67,169,48954,2,0,P|67:209|79:248,1,80.0000002384184
255,187,49297,2,0,P|215:187|177:199,1,80.0000002384184
157,333,49640,5,0,0:0:0:0:
272,328,49811,1,0,0:0:0:0:
387,323,49982,2,0,B|433:298|433:298|445:249,2,80.0000002384184
262,109,50668,2,0,B|293:64|366:79,1,80.0000002384184
487,157,51011,6,0,B|458:182|458:182|323:182,1,160.000000476837
223,214,51525,1,0,0:0:0:0:
133,288,51697,2,0,P|137:329|140:374,1,80.0000002384184
37,284,52040,2,0,L|51:118,1,160.000000476837
297,50,52725,6,0,P|243:69|203:127,1,120.000000357628
198,157,53068,5,0,0:0:0:0:
382,330,53240,1,0,0:0:0:0:
306,153,53411,1,0,0:0:0:0:
306,153,53582,1,0,0:0:0:0:
95,341,53754,6,0,B|66:292|66:292|63:130,1,200.000000596046
172,67,54268,1,0,0:0:0:0:
172,213,54440,2,0,B|228:244|228:244|288:241,1,100.000000298023
412,258,54782,1,0,0:0:0:0:
441,149,54954,2,0,P|383:146|344:174,1,100.000000298023
401,363,55297,1,0,0:0:0:0:
411,257,55468,2,0,P|458:270|489:309,1,100.000000298023
298,338,55811,2,0,B|272:292|272:292|273:217,1,100.000000298023
182,341,56154,1,0,0:0:0:0:
182,341,56325,1,0,0:0:0:0:
95,258,56497,6,0,B|126:216|126:216|178:208,1,100.000000298023
86,361,56840,2,0,L|12:353,1,50.0000001490115
16,352,57011,1,0,0:0:0:0:
21,332,57097,1,0,0:0:0:0:
25,312,57182,1,0,0:0:0:0:
203,360,57354,1,0,0:0:0:0:
203,360,57525,1,0,0:0:0:0:
262,239,57697,6,0,B|262:180|262:180|217:120,1,100.000000298023
156,60,58040,1,0,0:0:0:0:
272,52,58211,2,0,B|331:52|331:52|391:7,1,100.000000298023
485,127,58554,2,0,P|418:127|350:206,1,150.000000447035
470,291,58897,1,0,0:0:0:0:
485,127,59068,1,0,0:0:0:0:
317,309,59240,6,0,B|178:307|178:307|109:271,1,200.000000596046
167,166,59754,1,0,0:0:0:0:
50,133,59925,2,0,P|76:81|122:59,1,100.000000298023
167,166,60268,1,0,0:0:0:0:
207,49,60439,2,0,P|259:75|281:121,1,100.000000298023
318,205,60782,1,0,0:0:0:0:
288,298,60954,2,0,P|347:300|384:273,1,100.000000298023
510,109,61297,2,0,B|468:93|468:93|362:94,1,150.000000447035
222,229,61640,1,0,0:0:0:0:
222,229,61811,1,0,0:0:0:0:
466,191,61982,6,0,B|482:233|482:233|481:339,1,150.000000447035
478,357,62325,1,0,0:0:0:0:
458,361,62411,1,0,0:0:0:0:
438,364,62497,1,0,0:0:0:0:
418,368,62582,1,0,0:0:0:0:
398,370,62668,1,0,0:0:0:0:
237,347,62840,2,0,B|229:304|229:304|254:247,1,100.000000298023
364,144,63182,2,0,B|372:187|372:187|347:244,1,100.000000298023
153,346,63525,1,0,0:0:0:0:
84,180,63697,2,0,P|124:209|180:203,1,100.000000298023
283,85,64040,2,0,P|272:36|237:1,1,100.000000298023
144,86,64382,1,0,0:0:0:0:
262,243,64554,1,0,0:0:0:0:
446,166,64725,6,0,B|424:101|450:30|450:30|404:55|379:53,1,200.000000596046
256,192,107154,12,0,108611,0:0:0:0:
