osu file format v14

[General]
AudioFilename: audio.mp3
AudioLeadIn: 0
PreviewTime: -1
Countdown: 1
SampleSet: Normal
StackLeniency: 0.7
Mode: 3
LetterboxInBreaks: 0
SpecialStyle: 1
WidescreenStoryboard: 0

[Editor]
DistanceSpacing: 0.8
BeatDivisor: 4
GridSize: 32
TimelineZoom: 0.78

[Metadata]
Title:Only my Railgun
TitleUnicode:Only my Railgun
Artist:Yuyoyuppe feat. Megurine Luka
ArtistUnicode:ゆよゆっぺ feat. 巡音ルカ
Creator:devourment992
Version:Hard
Source:VOCALOUD 01 - Breaking of the Emotion
Tags:ゆよゆっぺ Album VOCALOUD 01
BeatmapID:1578221
BeatmapSetID:749254

[Difficulty]
HPDrainRate:7
CircleSize:4
OverallDifficulty:7
ApproachRate:5
SliderMultiplier:1.3
SliderTickRate:2

[Events]
//Background and Video events
0,0,"IMG-20170806-WA0100.jpg",0,0
//Break Periods
2,36203,40596
//Storyboard Layer 0 (Background)
//Storyboard Layer 1 (Fail)
//Storyboard Layer 2 (Pass)
//Storyboard Layer 3 (Foreground)
//Storyboard Sound Samples

[TimingPoints]
-410,413.793103448276,4,1,0,25,1,0
19031,-500,4,1,0,25,0,0
19261,-52.6315789473684,4,1,0,25,0,0
19448,-100,4,1,0,25,0,1
24424,-100,4,1,0,25,0,0
26079,-100,4,1,0,25,0,1
35996,-100,4,1,0,25,0,0
62796,-66.6666666666667,4,1,0,25,0,0
63730,-1000,4,1,0,25,0,0
63944,-55.5555555555556,4,1,0,25,0,0
64139,-100,4,1,0,25,0,1
75731,-100,4,1,0,25,0,0
77397,-100,4,1,0,25,0,1
95185,-181.818181818181,4,1,0,25,0,0
95578,-113.636363636364,4,1,0,25,0,0
97245,-100,4,1,0,25,0,0
125388,-100,4,1,0,25,0,1
137794,-100,4,1,0,25,0,0
138632,-100,4,1,0,25,0,1
156832,-100,4,1,0,25,0,0
169262,-10,4,1,0,25,0,0
169670,-10000,4,1,0,25,0,0
169970,-55.5555555555556,4,1,0,25,0,0
170075,-100,4,1,0,25,0,0
224285,-500,4,1,0,25,0,0
224495,-125,4,1,0,25,0,0
224598,-52.6315789473684,4,1,0,25,0,0
224687,-100,4,1,0,25,0,1
237121,-100,4,1,0,25,0,0
237939,-100,4,1,0,25,0,1
256038,-100,4,1,0,25,0,0

[HitObjects]
448,192,1245,5,0,0:0:0:0:
192,192,1245,1,0,0:0:0:0:
320,192,1348,1,0,0:0:0:0:
64,192,1452,1,0,0:0:0:0:
192,192,1555,1,0,0:0:0:0:
448,192,1658,1,0,0:0:0:0:
192,192,1762,1,0,0:0:0:0:
320,192,1865,1,0,0:0:0:0:
448,192,1969,1,0,0:0:0:0:
192,192,2072,1,0,0:0:0:0:
64,192,2072,1,0,0:0:0:0:
320,192,2176,1,0,0:0:0:0:
448,192,2279,1,0,0:0:0:0:
192,192,2383,1,0,0:0:0:0:
320,192,2486,1,0,0:0:0:0:
64,192,2590,1,0,0:0:0:0:
320,192,2693,1,0,0:0:0:0:
448,192,2796,1,0,0:0:0:0:
64,192,2900,1,0,0:0:0:0:
192,192,3003,1,0,0:0:0:0:
448,192,3107,1,0,0:0:0:0:
320,192,3210,1,0,0:0:0:0:
192,192,3314,1,0,0:0:0:0:
320,192,3417,1,0,0:0:0:0:
64,192,3521,1,0,0:0:0:0:
192,192,3624,1,0,0:0:0:0:
320,192,3727,1,0,0:0:0:0:
448,192,3727,1,0,0:0:0:0:
64,192,3831,1,0,0:0:0:0:
320,192,3934,1,0,0:0:0:0:
192,192,4038,1,0,0:0:0:0:
64,192,4038,1,0,0:0:0:0:
320,192,4141,1,0,0:0:0:0:
192,192,4245,1,0,0:0:0:0:
320,192,4348,1,0,0:0:0:0:
448,192,4348,1,0,0:0:0:0:
192,192,4452,1,0,0:0:0:0:
448,192,4555,1,0,0:0:0:0:
64,192,4555,1,0,0:0:0:0:
192,192,4658,1,0,0:0:0:0:
320,192,4762,1,0,0:0:0:0:
64,192,4865,1,0,0:0:0:0:
448,192,4969,1,0,0:0:0:0:
192,192,5072,1,0,0:0:0:0:
320,192,5176,1,0,0:0:0:0:
192,192,5279,1,0,0:0:0:0:
448,192,5383,1,0,0:0:0:0:
64,192,5383,1,0,0:0:0:0:
320,192,5486,1,0,0:0:0:0:
64,192,5590,1,0,0:0:0:0:
320,192,5693,1,0,0:0:0:0:
192,192,5796,1,0,0:0:0:0:
448,192,5900,1,0,0:0:0:0:
320,192,6003,1,0,0:0:0:0:
192,192,6107,1,0,0:0:0:0:
320,192,6210,1,0,0:0:0:0:
64,192,6314,1,0,0:0:0:0:
192,192,6417,1,0,0:0:0:0:
320,192,6521,1,0,0:0:0:0:
64,192,6624,1,0,0:0:0:0:
448,192,6727,1,0,0:0:0:0:
192,192,6831,1,0,0:0:0:0:
320,192,6934,1,0,0:0:0:0:
64,192,7038,1,0,0:0:0:0:
448,192,7038,1,0,0:0:0:0:
320,192,7141,1,0,0:0:0:0:
64,192,7245,1,0,0:0:0:0:
192,192,7348,1,0,0:0:0:0:
320,192,7348,1,0,0:0:0:0:
448,192,7452,1,0,0:0:0:0:
192,192,7555,1,0,0:0:0:0:
448,192,7658,1,0,0:0:0:0:
320,192,7658,1,0,0:0:0:0:
192,192,7762,1,0,0:0:0:0:
64,192,7865,1,0,0:0:0:0:
320,192,7865,1,0,0:0:0:0:
192,192,7969,1,0,0:0:0:0:
320,192,8072,1,0,0:0:0:0:
448,192,8176,1,0,0:0:0:0:
64,192,8279,1,0,0:0:0:0:
320,192,8383,1,0,0:0:0:0:
64,192,8486,1,0,0:0:0:0:
448,192,8590,1,0,0:0:0:0:
192,192,8693,1,0,0:0:0:0:
320,192,8693,1,0,0:0:0:0:
64,192,8796,1,0,0:0:0:0:
320,192,8900,1,0,0:0:0:0:
192,192,9003,1,0,0:0:0:0:
448,192,9107,1,0,0:0:0:0:
192,192,9210,1,0,0:0:0:0:
320,192,9314,1,0,0:0:0:0:
64,192,9417,1,0,0:0:0:0:
320,192,9521,1,0,0:0:0:0:
64,192,9624,1,0,0:0:0:0:
192,192,9727,1,0,0:0:0:0:
448,192,9831,1,0,0:0:0:0:
320,192,9934,1,0,0:0:0:0:
448,192,10038,1,0,0:0:0:0:
64,192,10141,1,0,0:0:0:0:
320,192,10245,1,0,0:0:0:0:
192,192,10348,1,0,0:0:0:0:
448,192,10348,1,0,0:0:0:0:
320,192,10452,1,0,0:0:0:0:
192,192,10555,1,0,0:0:0:0:
64,192,10658,1,0,0:0:0:0:
320,192,10658,1,0,0:0:0:0:
192,192,10762,1,0,0:0:0:0:
448,192,10865,1,0,0:0:0:0:
192,192,10969,1,0,0:0:0:0:
320,192,10969,1,0,0:0:0:0:
448,192,11072,1,0,0:0:0:0:
64,192,11176,1,0,0:0:0:0:
192,192,11176,1,0,0:0:0:0:
320,192,11279,1,0,0:0:0:0:
448,192,11383,1,0,0:0:0:0:
320,192,11486,1,0,0:0:0:0:
64,192,11590,1,0,0:0:0:0:
192,192,11693,1,0,0:0:0:0:
448,192,11796,1,0,0:0:0:0:
320,192,11900,1,0,0:0:0:0:
64,192,12003,1,0,0:0:0:0:
448,192,12003,1,0,0:0:0:0:
320,192,12107,1,0,0:0:0:0:
64,192,12210,1,0,0:0:0:0:
192,192,12314,1,0,0:0:0:0:
320,192,12417,1,0,0:0:0:0:
64,192,12521,1,0,0:0:0:0:
448,192,12624,1,0,0:0:0:0:
320,192,12727,1,0,0:0:0:0:
192,192,12831,1,0,0:0:0:0:
448,192,12934,1,0,0:0:0:0:
320,192,13038,1,0,0:0:0:0:
64,192,13141,1,0,0:0:0:0:
448,192,13245,1,0,0:0:0:0:
320,192,13348,1,0,0:0:0:0:
192,192,13452,1,0,0:0:0:0:
64,192,13555,1,0,0:0:0:0:
448,192,13658,1,0,0:0:0:0:
320,192,13658,1,0,0:0:0:0:
192,192,13762,1,0,0:0:0:0:
320,192,13865,1,0,0:0:0:0:
64,192,13969,1,0,0:0:0:0:
192,192,13969,1,0,0:0:0:0:
320,192,14072,1,0,0:0:0:0:
192,192,14176,1,0,0:0:0:0:
320,192,14279,1,0,0:0:0:0:
448,192,14279,1,0,0:0:0:0:
192,192,14383,1,0,0:0:0:0:
64,192,14486,1,0,0:0:0:0:
448,192,14486,1,0,0:0:0:0:
320,192,14590,1,0,0:0:0:0:
192,192,14693,1,0,0:0:0:0:
320,192,14796,1,0,0:0:0:0:
64,192,14900,1,0,0:0:0:0:
448,192,14900,1,0,0:0:0:0:
192,192,15003,1,0,0:0:0:0:
320,192,15107,1,0,0:0:0:0:
192,192,15210,1,0,0:0:0:0:
64,192,15314,1,0,0:0:0:0:
448,192,15314,1,0,0:0:0:0:
320,192,15417,1,0,0:0:0:0:
192,192,15521,1,0,0:0:0:0:
320,192,15624,1,0,0:0:0:0:
64,192,15727,1,0,0:0:0:0:
448,192,15727,1,0,0:0:0:0:
192,192,15831,1,0,0:0:0:0:
320,192,15934,1,0,0:0:0:0:
192,192,16038,1,0,0:0:0:0:
64,192,16141,1,0,0:0:0:0:
448,192,16141,1,0,0:0:0:0:
320,192,16245,1,0,0:0:0:0:
192,192,16348,1,0,0:0:0:0:
64,192,16348,1,0,0:0:0:0:
320,192,16452,1,0,0:0:0:0:
192,192,16555,1,0,0:0:0:0:
448,192,16555,1,0,0:0:0:0:
64,192,16658,1,0,0:0:0:0:
192,192,16762,1,0,0:0:0:0:
320,192,16762,1,0,0:0:0:0:
448,192,16865,1,0,0:0:0:0:
64,192,16969,1,0,0:0:0:0:
192,192,16969,1,0,0:0:0:0:
320,192,17072,1,0,0:0:0:0:
448,192,17176,1,0,0:0:0:0:
192,192,17176,1,0,0:0:0:0:
64,192,17279,1,0,0:0:0:0:
320,192,17383,1,0,0:0:0:0:
448,192,17383,1,0,0:0:0:0:
192,192,17486,1,0,0:0:0:0:
64,192,17590,1,0,0:0:0:0:
320,192,17590,1,0,0:0:0:0:
192,192,17693,1,0,0:0:0:0:
320,192,17796,1,0,0:0:0:0:
448,192,17796,1,0,0:0:0:0:
64,192,17900,1,0,0:0:0:0:
192,192,17900,1,0,0:0:0:0:
320,192,18003,1,0,0:0:0:0:
448,192,18003,1,0,0:0:0:0:
64,192,18107,1,0,0:0:0:0:
192,192,18107,1,0,0:0:0:0:
320,192,18210,1,0,0:0:0:0:
448,192,18210,1,0,0:0:0:0:
64,192,18314,1,0,0:0:0:0:
192,192,18314,1,0,0:0:0:0:
320,192,18417,1,0,0:0:0:0:
448,192,18417,1,0,0:0:0:0:
64,192,18521,1,0,0:0:0:0:
192,192,18521,1,0,0:0:0:0:
448,192,18624,1,0,0:0:0:0:
320,192,18693,1,0,0:0:0:0:
192,192,18762,1,0,0:0:0:0:
64,192,18831,1,0,0:0:0:0:
192,192,18900,1,0,0:0:0:0:
320,192,18969,1,0,0:0:0:0:
448,192,19038,128,0,19452:0:0:0:0:
64,192,19452,1,0,0:0:0:0:
192,192,19452,1,0,0:0:0:0:
320,192,19555,1,0,0:0:0:0:
448,192,19658,1,0,0:0:0:0:
64,192,19865,1,0,0:0:0:0:
448,192,20072,1,0,0:0:0:0:
192,192,20176,1,0,0:0:0:0:
320,192,20279,1,0,0:0:0:0:
448,192,20279,1,0,0:0:0:0:
192,192,20383,1,0,0:0:0:0:
64,192,20486,1,0,0:0:0:0:
448,192,20693,1,0,0:0:0:0:
320,192,20796,1,0,0:0:0:0:
192,192,20900,1,0,0:0:0:0:
320,192,21003,1,0,0:0:0:0:
192,192,21107,1,0,0:0:0:0:
448,192,21107,1,0,0:0:0:0:
64,192,21210,1,0,0:0:0:0:
192,192,21314,1,0,0:0:0:0:
448,192,21521,1,0,0:0:0:0:
320,192,21727,1,0,0:0:0:0:
192,192,21831,1,0,0:0:0:0:
64,192,21934,128,0,22348:0:0:0:0:
448,192,21934,1,0,0:0:0:0:
320,192,21934,1,0,0:0:0:0:
320,192,22141,1,0,0:0:0:0:
192,192,22348,1,0,0:0:0:0:
448,192,22452,1,0,0:0:0:0:
320,192,22555,1,0,0:0:0:0:
192,192,22658,1,0,0:0:0:0:
320,192,22762,1,0,0:0:0:0:
448,192,22762,1,0,0:0:0:0:
64,192,22865,1,0,0:0:0:0:
192,192,22969,1,0,0:0:0:0:
448,192,23176,1,0,0:0:0:0:
320,192,23383,1,0,0:0:0:0:
192,192,23486,1,0,0:0:0:0:
320,192,23590,1,0,0:0:0:0:
448,192,23590,1,0,0:0:0:0:
192,192,23693,1,0,0:0:0:0:
64,192,23796,1,0,0:0:0:0:
320,192,24003,1,0,0:0:0:0:
448,192,24003,1,0,0:0:0:0:
320,192,24210,1,0,0:0:0:0:
192,192,24314,1,0,0:0:0:0:
64,192,24417,1,0,0:0:0:0:
320,192,24417,1,0,0:0:0:0:
192,192,24624,1,0,0:0:0:0:
320,192,24727,1,0,0:0:0:0:
448,192,24727,1,0,0:0:0:0:
320,192,24934,1,0,0:0:0:0:
64,192,25038,1,0,0:0:0:0:
192,192,25038,1,0,0:0:0:0:
64,192,25245,1,0,0:0:0:0:
192,192,25314,1,0,0:0:0:0:
448,192,25383,1,0,0:0:0:0:
320,192,25452,1,0,0:0:0:0:
192,192,25521,1,0,0:0:0:0:
64,192,25590,1,0,0:0:0:0:
320,192,25658,1,0,0:0:0:0:
448,192,25658,128,0,26072:0:0:0:0:
64,192,25865,1,0,0:0:0:0:
64,192,25969,1,0,0:0:0:0:
64,192,26072,1,0,0:0:0:0:
320,192,26072,1,0,0:0:0:0:
192,192,26279,1,0,0:0:0:0:
320,192,26486,1,0,0:0:0:0:
192,192,26693,1,0,0:0:0:0:
320,192,26796,1,0,0:0:0:0:
192,192,26900,1,0,0:0:0:0:
64,192,26900,1,0,0:0:0:0:
448,192,27003,1,0,0:0:0:0:
320,192,27107,1,0,0:0:0:0:
64,192,27314,1,0,0:0:0:0:
192,192,27417,1,0,0:0:0:0:
448,192,27521,1,0,0:0:0:0:
320,192,27624,1,0,0:0:0:0:
192,192,27727,1,0,0:0:0:0:
64,192,27727,1,0,0:0:0:0:
448,192,27831,1,0,0:0:0:0:
320,192,27934,1,0,0:0:0:0:
192,192,28141,1,0,0:0:0:0:
320,192,28348,1,0,0:0:0:0:
64,192,28452,1,0,0:0:0:0:
192,192,28555,1,0,0:0:0:0:
320,192,28555,1,0,0:0:0:0:
448,192,28762,1,0,0:0:0:0:
320,192,28865,1,0,0:0:0:0:
64,192,28969,1,0,0:0:0:0:
192,192,28969,1,0,0:0:0:0:
448,192,29072,1,0,0:0:0:0:
320,192,29176,1,0,0:0:0:0:
192,192,29279,1,0,0:0:0:0:
64,192,29383,1,0,0:0:0:0:
320,192,29383,1,0,0:0:0:0:
448,192,29486,1,0,0:0:0:0:
320,192,29590,1,0,0:0:0:0:
448,192,29693,1,0,0:0:0:0:
192,192,29796,1,0,0:0:0:0:
320,192,29796,1,0,0:0:0:0:
64,192,29900,1,0,0:0:0:0:
192,192,30003,1,0,0:0:0:0:
320,192,30107,1,0,0:0:0:0:
64,192,30210,1,0,0:0:0:0:
448,192,30210,1,0,0:0:0:0:
320,192,30314,1,0,0:0:0:0:
192,192,30417,1,0,0:0:0:0:
320,192,30521,1,0,0:0:0:0:
448,192,30624,1,0,0:0:0:0:
64,192,30624,1,0,0:0:0:0:
320,192,30727,1,0,0:0:0:0:
192,192,30831,1,0,0:0:0:0:
320,192,30934,1,0,0:0:0:0:
64,192,31038,1,0,0:0:0:0:
448,192,31038,1,0,0:0:0:0:
192,192,31141,1,0,0:0:0:0:
448,192,31245,1,0,0:0:0:0:
192,192,31348,1,0,0:0:0:0:
64,192,31348,1,0,0:0:0:0:
448,192,31452,1,0,0:0:0:0:
320,192,31555,1,0,0:0:0:0:
448,192,31658,1,0,0:0:0:0:
192,192,31658,1,0,0:0:0:0:
64,192,31762,1,0,0:0:0:0:
448,192,31865,128,0,31969:0:0:0:0:
320,192,31969,128,0,32072:0:0:0:0:
192,192,32072,128,0,32176:0:0:0:0:
448,192,32176,128,0,32279:0:0:0:0:
64,192,32279,128,0,32383:0:0:0:0:
192,192,32383,128,0,32486:0:0:0:0:
448,192,32486,128,0,32590:0:0:0:0:
320,192,32590,128,0,32693:0:0:0:0:
192,192,32693,1,0,0:0:0:0:
64,192,32693,128,0,33934:0:0:0:0:
448,192,33003,1,0,0:0:0:0:
448,192,33314,1,0,0:0:0:0:
448,192,33727,1,0,0:0:0:0:
320,192,33796,1,0,0:0:0:0:
192,192,33865,1,0,0:0:0:0:
448,192,33934,1,0,0:0:0:0:
320,192,34141,1,0,0:0:0:0:
320,192,34348,1,0,0:0:0:0:
448,192,34452,1,0,0:0:0:0:
192,192,34555,1,0,0:0:0:0:
64,192,34658,1,0,0:0:0:0:
320,192,34762,1,0,0:0:0:0:
448,192,34865,1,0,0:0:0:0:
64,192,34969,1,0,0:0:0:0:
192,192,34969,1,0,0:0:0:0:
320,192,35072,1,0,0:0:0:0:
448,192,35176,1,0,0:0:0:0:
320,192,35279,1,0,0:0:0:0:
64,192,35383,1,0,0:0:0:0:
192,192,35486,1,0,0:0:0:0:
320,192,35590,1,0,0:0:0:0:
448,192,35590,1,0,0:0:0:0:
64,192,35693,1,0,0:0:0:0:
192,192,35693,1,0,0:0:0:0:
320,192,35796,1,0,0:0:0:0:
448,192,35796,1,0,0:0:0:0:
64,192,35900,1,0,0:0:0:0:
192,192,36003,1,0,0:0:0:0:
320,192,36003,1,0,0:0:0:0:
320,192,41796,5,0,0:0:0:0:
192,192,41796,128,0,42210:0:0:0:0:
64,192,42210,1,0,0:0:0:0:
320,192,42210,128,0,42624:0:0:0:0:
64,192,42624,1,0,0:0:0:0:
448,192,42624,1,0,0:0:0:0:
192,192,42831,1,0,0:0:0:0:
320,192,42934,1,0,0:0:0:0:
192,192,43038,1,0,0:0:0:0:
448,192,43141,1,0,0:0:0:0:
64,192,43245,1,0,0:0:0:0:
192,192,43348,1,0,0:0:0:0:
320,192,43452,1,0,0:0:0:0:
448,192,43555,128,0,43865:0:0:0:0:
320,192,43865,1,0,0:0:0:0:
64,192,43969,128,0,44279:0:0:0:0:
320,192,44072,1,0,0:0:0:0:
192,192,44176,1,0,0:0:0:0:
448,192,44279,128,0,44486:0:0:0:0:
192,192,44486,1,0,0:0:0:0:
64,192,44590,1,0,0:0:0:0:
192,192,44693,1,0,0:0:0:0:
64,192,44796,1,0,0:0:0:0:
320,192,44900,1,0,0:0:0:0:
448,192,45003,1,0,0:0:0:0:
320,192,45107,1,0,0:0:0:0:
192,192,45210,1,0,0:0:0:0:
320,192,45314,1,0,0:0:0:0:
448,192,45314,128,0,45521:0:0:0:0:
64,192,45521,1,0,0:0:0:0:
192,192,45624,1,0,0:0:0:0:
320,192,45727,1,0,0:0:0:0:
448,192,45831,1,0,0:0:0:0:
192,192,45934,1,0,0:0:0:0:
64,192,45934,128,0,46348:0:0:0:0:
192,192,46348,1,0,0:0:0:0:
320,192,46348,128,0,46762:0:0:0:0:
192,192,46762,1,0,0:0:0:0:
448,192,46762,128,0,47176:0:0:0:0:
192,192,47176,128,0,47590:0:0:0:0:
320,192,47176,1,0,0:0:0:0:
64,192,47383,1,0,0:0:0:0:
320,192,47486,1,0,0:0:0:0:
448,192,47590,1,0,0:0:0:0:
320,192,47693,1,0,0:0:0:0:
192,192,47796,1,0,0:0:0:0:
64,192,47900,1,0,0:0:0:0:
448,192,47900,1,0,0:0:0:0:
320,192,48107,1,0,0:0:0:0:
64,192,48210,1,0,0:0:0:0:
192,192,48210,1,0,0:0:0:0:
320,192,48417,1,0,0:0:0:0:
448,192,48417,1,0,0:0:0:0:
192,192,48521,1,0,0:0:0:0:
64,192,48624,1,0,0:0:0:0:
448,192,48727,1,0,0:0:0:0:
320,192,48831,1,0,0:0:0:0:
192,192,48934,1,0,0:0:0:0:
448,192,49038,1,0,0:0:0:0:
320,192,49141,1,0,0:0:0:0:
64,192,49245,128,0,50900:0:0:0:0:
192,192,49245,1,0,0:0:0:0:
448,192,49658,1,0,0:0:0:0:
320,192,50072,1,0,0:0:0:0:
192,192,50486,1,0,0:0:0:0:
448,192,50486,1,0,0:0:0:0:
320,192,50693,1,0,0:0:0:0:
320,192,50900,1,0,0:0:0:0:
448,192,50900,128,0,52555:0:0:0:0:
64,192,51314,1,0,0:0:0:0:
192,192,51727,1,0,0:0:0:0:
64,192,51934,1,0,0:0:0:0:
320,192,51934,1,0,0:0:0:0:
64,192,52141,1,0,0:0:0:0:
320,192,52141,1,0,0:0:0:0:
320,192,52348,1,0,0:0:0:0:
192,192,52452,1,0,0:0:0:0:
320,192,52555,128,0,54210:0:0:0:0:
64,192,52555,1,0,0:0:0:0:
448,192,52969,1,0,0:0:0:0:
192,192,53383,1,0,0:0:0:0:
64,192,53796,1,0,0:0:0:0:
192,192,53796,1,0,0:0:0:0:
192,192,54210,128,0,55865:0:0:0:0:
448,192,54210,1,0,0:0:0:0:
64,192,54624,1,0,0:0:0:0:
320,192,55038,1,0,0:0:0:0:
320,192,55245,1,0,0:0:0:0:
448,192,55245,1,0,0:0:0:0:
448,192,55452,1,0,0:0:0:0:
64,192,55555,1,0,0:0:0:0:
320,192,55658,1,0,0:0:0:0:
448,192,55762,1,0,0:0:0:0:
320,192,55865,1,0,0:0:0:0:
64,192,56279,1,0,0:0:0:0:
320,192,56279,1,0,0:0:0:0:
448,192,56279,1,0,0:0:0:0:
192,192,56693,1,0,0:0:0:0:
320,192,56693,1,0,0:0:0:0:
64,192,57107,1,0,0:0:0:0:
192,192,57107,1,0,0:0:0:0:
448,192,57107,1,0,0:0:0:0:
320,192,57314,128,0,57521:0:0:0:0:
192,192,57521,1,0,0:0:0:0:
64,192,57934,1,0,0:0:0:0:
320,192,57934,1,0,0:0:0:0:
448,192,57934,1,0,0:0:0:0:
192,192,58348,1,0,0:0:0:0:
320,192,58348,1,0,0:0:0:0:
64,192,58762,1,0,0:0:0:0:
192,192,58762,1,0,0:0:0:0:
448,192,58762,1,0,0:0:0:0:
320,192,58865,1,0,0:0:0:0:
192,192,58969,1,0,0:0:0:0:
320,192,59072,1,0,0:0:0:0:
64,192,59176,1,0,0:0:0:0:
192,192,59176,1,0,0:0:0:0:
448,192,59383,1,0,0:0:0:0:
192,192,59590,1,0,0:0:0:0:
320,192,59590,1,0,0:0:0:0:
64,192,59796,1,0,0:0:0:0:
192,192,60003,1,0,0:0:0:0:
320,192,60003,1,0,0:0:0:0:
448,192,60210,1,0,0:0:0:0:
192,192,60417,1,0,0:0:0:0:
320,192,60417,1,0,0:0:0:0:
64,192,60624,1,0,0:0:0:0:
192,192,60727,1,0,0:0:0:0:
448,192,60831,1,0,0:0:0:0:
64,192,60934,1,0,0:0:0:0:
320,192,61038,1,0,0:0:0:0:
448,192,61141,1,0,0:0:0:0:
64,192,61245,1,0,0:0:0:0:
320,192,61348,1,0,0:0:0:0:
64,192,61452,1,0,0:0:0:0:
192,192,61555,1,0,0:0:0:0:
448,192,61658,1,0,0:0:0:0:
320,192,61727,1,0,0:0:0:0:
192,192,61796,1,0,0:0:0:0:
64,192,61865,1,0,0:0:0:0:
448,192,61934,1,0,0:0:0:0:
320,192,62003,1,0,0:0:0:0:
64,192,62072,1,0,0:0:0:0:
192,192,62072,1,0,0:0:0:0:
448,192,62176,1,0,0:0:0:0:
64,192,62279,1,0,0:0:0:0:
192,192,62383,1,0,0:0:0:0:
320,192,62486,1,0,0:0:0:0:
448,192,62486,128,0,62693:0:0:0:0:
192,192,63727,1,0,0:0:0:0:
320,192,63727,128,0,64141:0:0:0:0:
64,192,64141,1,0,0:0:0:0:
448,192,64141,1,0,0:0:0:0:
192,192,64348,1,0,0:0:0:0:
320,192,64555,1,0,0:0:0:0:
448,192,64555,1,0,0:0:0:0:
192,192,64762,1,0,0:0:0:0:
320,192,64969,1,0,0:0:0:0:
64,192,64969,1,0,0:0:0:0:
448,192,65176,1,0,0:0:0:0:
192,192,65176,1,0,0:0:0:0:
320,192,65383,1,0,0:0:0:0:
448,192,65590,1,0,0:0:0:0:
64,192,65693,1,0,0:0:0:0:
320,192,65796,1,0,0:0:0:0:
192,192,66003,1,0,0:0:0:0:
64,192,66210,1,0,0:0:0:0:
320,192,66210,1,0,0:0:0:0:
192,192,66417,1,0,0:0:0:0:
448,192,66521,1,0,0:0:0:0:
64,192,66624,1,0,0:0:0:0:
192,192,66831,1,0,0:0:0:0:
64,192,67038,1,0,0:0:0:0:
448,192,67038,128,0,67452:0:0:0:0:
320,192,67245,1,0,0:0:0:0:
64,192,67452,128,0,67865:0:0:0:0:
192,192,67452,1,0,0:0:0:0:
320,192,67658,1,0,0:0:0:0:
448,192,67865,128,0,68279:0:0:0:0:
192,192,67865,1,0,0:0:0:0:
320,192,68072,1,0,0:0:0:0:
192,192,68279,128,0,68693:0:0:0:0:
64,192,68279,1,0,0:0:0:0:
64,192,68486,1,0,0:0:0:0:
320,192,68693,128,0,69107:0:0:0:0:
448,192,68693,1,0,0:0:0:0:
64,192,68900,1,0,0:0:0:0:
192,192,69003,1,0,0:0:0:0:
64,192,69107,128,0,69521:0:0:0:0:
448,192,69107,1,0,0:0:0:0:
448,192,69314,1,0,0:0:0:0:
320,192,69521,1,0,0:0:0:0:
192,192,69521,128,0,69934:0:0:0:0:
448,192,69727,1,0,0:0:0:0:
320,192,69831,1,0,0:0:0:0:
64,192,69934,1,0,0:0:0:0:
64,192,70141,1,0,0:0:0:0:
448,192,70348,1,0,0:0:0:0:
320,192,70348,1,0,0:0:0:0:
192,192,70555,1,0,0:0:0:0:
64,192,70762,1,0,0:0:0:0:
320,192,70762,1,0,0:0:0:0:
448,192,70762,1,0,0:0:0:0:
192,192,70969,1,0,0:0:0:0:
64,192,71176,1,0,0:0:0:0:
320,192,71176,1,0,0:0:0:0:
192,192,71383,1,0,0:0:0:0:
320,192,71590,1,0,0:0:0:0:
448,192,71590,1,0,0:0:0:0:
192,192,71796,1,0,0:0:0:0:
64,192,72003,1,0,0:0:0:0:
320,192,72003,1,0,0:0:0:0:
64,192,72210,1,0,0:0:0:0:
448,192,72314,1,0,0:0:0:0:
192,192,72417,1,0,0:0:0:0:
64,192,72624,1,0,0:0:0:0:
448,192,72831,1,0,0:0:0:0:
320,192,72831,1,0,0:0:0:0:
320,192,73038,1,0,0:0:0:0:
64,192,73141,1,0,0:0:0:0:
448,192,73245,1,0,0:0:0:0:
192,192,73452,1,0,0:0:0:0:
64,192,73658,1,0,0:0:0:0:
448,192,73658,128,0,74072:0:0:0:0:
320,192,73865,1,0,0:0:0:0:
192,192,74072,1,0,0:0:0:0:
320,192,74279,1,0,0:0:0:0:
64,192,74486,1,0,0:0:0:0:
192,192,74486,1,0,0:0:0:0:
320,192,74693,1,0,0:0:0:0:
192,192,74900,1,0,0:0:0:0:
448,192,74900,1,0,0:0:0:0:
64,192,75107,1,0,0:0:0:0:
320,192,75314,1,0,0:0:0:0:
448,192,75314,1,0,0:0:0:0:
320,192,75521,1,0,0:0:0:0:
192,192,75624,1,0,0:0:0:0:
320,192,75727,1,0,0:0:0:0:
448,192,75727,1,0,0:0:0:0:
192,192,75934,1,0,0:0:0:0:
64,192,76038,1,0,0:0:0:0:
320,192,76038,1,0,0:0:0:0:
320,192,76245,1,0,0:0:0:0:
192,192,76348,1,0,0:0:0:0:
448,192,76348,1,0,0:0:0:0:
64,192,76555,1,0,0:0:0:0:
320,192,76555,1,0,0:0:0:0:
192,192,76658,1,0,0:0:0:0:
448,192,76762,1,0,0:0:0:0:
320,192,76865,1,0,0:0:0:0:
64,192,76969,1,0,0:0:0:0:
320,192,77072,1,0,0:0:0:0:
192,192,77176,1,0,0:0:0:0:
448,192,77279,1,0,0:0:0:0:
192,192,77383,1,0,0:0:0:0:
64,192,77383,128,0,79038:0:0:0:0:
448,192,77590,1,0,0:0:0:0:
320,192,77693,1,0,0:0:0:0:
448,192,78003,1,0,0:0:0:0:
192,192,78107,1,0,0:0:0:0:
320,192,78210,1,0,0:0:0:0:
448,192,78210,1,0,0:0:0:0:
192,192,78417,1,0,0:0:0:0:
448,192,78521,1,0,0:0:0:0:
448,192,78831,1,0,0:0:0:0:
192,192,78934,1,0,0:0:0:0:
320,192,79038,1,0,0:0:0:0:
448,192,79038,128,0,80279:0:0:0:0:
64,192,79245,1,0,0:0:0:0:
192,192,79348,1,0,0:0:0:0:
64,192,79658,1,0,0:0:0:0:
320,192,79762,1,0,0:0:0:0:
64,192,79865,1,0,0:0:0:0:
192,192,79865,1,0,0:0:0:0:
64,192,80072,1,0,0:0:0:0:
64,192,80279,1,0,0:0:0:0:
192,192,80279,1,0,0:0:0:0:
64,192,80693,128,0,82348:0:0:0:0:
320,192,80693,1,0,0:0:0:0:
192,192,80900,1,0,0:0:0:0:
448,192,81003,1,0,0:0:0:0:
320,192,81314,1,0,0:0:0:0:
192,192,81417,1,0,0:0:0:0:
320,192,81521,1,0,0:0:0:0:
448,192,81521,1,0,0:0:0:0:
448,192,81727,1,0,0:0:0:0:
192,192,81831,1,0,0:0:0:0:
448,192,82141,1,0,0:0:0:0:
320,192,82245,1,0,0:0:0:0:
192,192,82348,1,0,0:0:0:0:
448,192,82348,128,0,83176:0:0:0:0:
320,192,82555,1,0,0:0:0:0:
64,192,82658,1,0,0:0:0:0:
64,192,82969,1,0,0:0:0:0:
192,192,83072,1,0,0:0:0:0:
320,192,83176,1,0,0:0:0:0:
64,192,83383,1,0,0:0:0:0:
192,192,83452,1,0,0:0:0:0:
320,192,83521,1,0,0:0:0:0:
448,192,83590,1,0,0:0:0:0:
64,192,83590,1,0,0:0:0:0:
192,192,83796,1,0,0:0:0:0:
448,192,83900,1,0,0:0:0:0:
192,192,84003,1,0,0:0:0:0:
64,192,84003,128,0,85658:0:0:0:0:
448,192,84210,1,0,0:0:0:0:
320,192,84314,1,0,0:0:0:0:
448,192,84624,1,0,0:0:0:0:
192,192,84727,1,0,0:0:0:0:
320,192,84831,1,0,0:0:0:0:
448,192,84831,1,0,0:0:0:0:
192,192,85038,1,0,0:0:0:0:
448,192,85141,1,0,0:0:0:0:
448,192,85452,1,0,0:0:0:0:
192,192,85555,1,0,0:0:0:0:
320,192,85658,1,0,0:0:0:0:
448,192,85658,128,0,86900:0:0:0:0:
64,192,85865,1,0,0:0:0:0:
192,192,85969,1,0,0:0:0:0:
64,192,86279,1,0,0:0:0:0:
320,192,86383,1,0,0:0:0:0:
64,192,86486,1,0,0:0:0:0:
192,192,86486,1,0,0:0:0:0:
320,192,86693,1,0,0:0:0:0:
64,192,86900,1,0,0:0:0:0:
192,192,86900,1,0,0:0:0:0:
64,192,87314,128,0,88969:0:0:0:0:
320,192,87314,1,0,0:0:0:0:
448,192,87521,1,0,0:0:0:0:
320,192,87624,1,0,0:0:0:0:
448,192,87934,1,0,0:0:0:0:
192,192,88038,1,0,0:0:0:0:
320,192,88141,1,0,0:0:0:0:
448,192,88141,1,0,0:0:0:0:
192,192,88348,1,0,0:0:0:0:
448,192,88452,1,0,0:0:0:0:
448,192,88762,1,0,0:0:0:0:
320,192,88865,1,0,0:0:0:0:
192,192,88969,1,0,0:0:0:0:
448,192,88969,1,0,0:0:0:0:
320,192,89176,1,0,0:0:0:0:
64,192,89279,1,0,0:0:0:0:
192,192,89279,1,0,0:0:0:0:
448,192,89486,1,0,0:0:0:0:
192,192,89590,1,0,0:0:0:0:
320,192,89590,1,0,0:0:0:0:
448,192,89796,1,0,0:0:0:0:
192,192,89900,1,0,0:0:0:0:
320,192,90003,1,0,0:0:0:0:
64,192,90107,1,0,0:0:0:0:
320,192,90210,1,0,0:0:0:0:
192,192,90314,1,0,0:0:0:0:
320,192,90417,1,0,0:0:0:0:
448,192,90417,1,0,0:0:0:0:
64,192,90521,1,0,0:0:0:0:
192,192,90521,1,0,0:0:0:0:
448,192,90624,1,0,0:0:0:0:
192,192,90727,1,0,0:0:0:0:
448,192,90831,1,0,0:0:0:0:
320,192,90934,1,0,0:0:0:0:
64,192,91038,1,0,0:0:0:0:
192,192,91038,1,0,0:0:0:0:
448,192,91141,1,0,0:0:0:0:
320,192,91245,1,0,0:0:0:0:
192,192,91348,1,0,0:0:0:0:
64,192,91452,1,0,0:0:0:0:
192,192,91555,1,0,0:0:0:0:
448,192,91658,1,0,0:0:0:0:
320,192,91762,1,0,0:0:0:0:
192,192,91865,1,0,0:0:0:0:
448,192,91865,1,0,0:0:0:0:
64,192,91969,1,0,0:0:0:0:
448,192,92072,1,0,0:0:0:0:
320,192,92176,1,0,0:0:0:0:
64,192,92279,1,0,0:0:0:0:
192,192,92279,1,0,0:0:0:0:
320,192,92486,1,0,0:0:0:0:
192,192,92590,1,0,0:0:0:0:
448,192,92590,1,0,0:0:0:0:
320,192,92796,1,0,0:0:0:0:
192,192,92900,1,0,0:0:0:0:
448,192,92900,1,0,0:0:0:0:
64,192,93107,1,0,0:0:0:0:
192,192,93210,1,0,0:0:0:0:
448,192,93314,1,0,0:0:0:0:
320,192,93417,1,0,0:0:0:0:
192,192,93521,1,0,0:0:0:0:
320,192,93624,1,0,0:0:0:0:
192,192,93727,1,0,0:0:0:0:
448,192,93727,1,0,0:0:0:0:
64,192,93831,1,0,0:0:0:0:
320,192,93831,1,0,0:0:0:0:
192,192,93934,1,0,0:0:0:0:
448,192,93934,1,0,0:0:0:0:
64,192,94141,1,0,0:0:0:0:
192,192,94245,1,0,0:0:0:0:
320,192,94245,1,0,0:0:0:0:
448,192,94452,1,0,0:0:0:0:
192,192,94555,1,0,0:0:0:0:
320,192,94555,1,0,0:0:0:0:
448,192,94762,1,0,0:0:0:0:
64,192,94865,1,0,0:0:0:0:
320,192,94969,1,0,0:0:0:0:
192,192,95072,1,0,0:0:0:0:
320,192,95176,1,0,0:0:0:0:
448,192,95176,128,0,95590:0:0:0:0:
64,192,95590,1,0,0:0:0:0:
192,192,95693,1,0,0:0:0:0:
448,192,95796,1,0,0:0:0:0:
192,192,95900,1,0,0:0:0:0:
320,192,96003,1,0,0:0:0:0:
64,192,96107,1,0,0:0:0:0:
192,192,96210,1,0,0:0:0:0:
64,192,96314,1,0,0:0:0:0:
448,192,96417,1,0,0:0:0:0:
320,192,96486,1,0,0:0:0:0:
64,192,96555,1,0,0:0:0:0:
192,192,96624,1,0,0:0:0:0:
448,192,96693,1,0,0:0:0:0:
320,192,96762,1,0,0:0:0:0:
64,192,96831,1,0,0:0:0:0:
448,192,96934,1,0,0:0:0:0:
192,192,97038,1,0,0:0:0:0:
448,192,97141,1,0,0:0:0:0:
192,192,97245,1,0,0:0:0:0:
64,192,97348,1,0,0:0:0:0:
192,192,97452,1,0,0:0:0:0:
448,192,97658,1,0,0:0:0:0:
192,192,97762,1,0,0:0:0:0:
320,192,97865,1,0,0:0:0:0:
192,192,98072,1,0,0:0:0:0:
448,192,98072,1,0,0:0:0:0:
64,192,98279,1,0,0:0:0:0:
320,192,98383,1,0,0:0:0:0:
192,192,98590,1,0,0:0:0:0:
448,192,98693,1,0,0:0:0:0:
448,192,99107,1,0,0:0:0:0:
192,192,99107,1,0,0:0:0:0:
64,192,99210,1,0,0:0:0:0:
320,192,99210,1,0,0:0:0:0:
448,192,99314,1,0,0:0:0:0:
192,192,99314,1,0,0:0:0:0:
192,192,99727,1,0,0:0:0:0:
448,192,99727,1,0,0:0:0:0:
320,192,99831,1,0,0:0:0:0:
64,192,99934,1,0,0:0:0:0:
320,192,100141,1,0,0:0:0:0:
192,192,100245,1,0,0:0:0:0:
320,192,100348,1,0,0:0:0:0:
64,192,100555,1,0,0:0:0:0:
192,192,100555,1,0,0:0:0:0:
320,192,100658,1,0,0:0:0:0:
192,192,100762,1,0,0:0:0:0:
448,192,100969,1,0,0:0:0:0:
64,192,101072,1,0,0:0:0:0:
192,192,101176,1,0,0:0:0:0:
320,192,101383,1,0,0:0:0:0:
192,192,101383,1,0,0:0:0:0:
448,192,101383,1,0,0:0:0:0:
64,192,101590,1,0,0:0:0:0:
192,192,101693,1,0,0:0:0:0:
448,192,101900,1,0,0:0:0:0:
320,192,102003,1,0,0:0:0:0:
320,192,102417,1,0,0:0:0:0:
192,192,102486,1,0,0:0:0:0:
320,192,102555,1,0,0:0:0:0:
192,192,102624,1,0,0:0:0:0:
320,192,102831,1,0,0:0:0:0:
64,192,103038,1,0,0:0:0:0:
192,192,103038,1,0,0:0:0:0:
448,192,103038,1,0,0:0:0:0:
192,192,103245,1,0,0:0:0:0:
64,192,103452,1,0,0:0:0:0:
320,192,103452,1,0,0:0:0:0:
448,192,103452,1,0,0:0:0:0:
192,192,103555,1,0,0:0:0:0:
448,192,103658,1,0,0:0:0:0:
320,192,103762,1,0,0:0:0:0:
192,192,103865,1,0,0:0:0:0:
64,192,103969,1,0,0:0:0:0:
192,192,104072,1,0,0:0:0:0:
320,192,104279,1,0,0:0:0:0:
448,192,104279,1,0,0:0:0:0:
192,192,104383,1,0,0:0:0:0:
64,192,104486,1,0,0:0:0:0:
448,192,104693,1,0,0:0:0:0:
448,192,104900,1,0,0:0:0:0:
320,192,105003,1,0,0:0:0:0:
64,192,105107,1,0,0:0:0:0:
192,192,105107,1,0,0:0:0:0:
448,192,105210,1,0,0:0:0:0:
320,192,105314,1,0,0:0:0:0:
64,192,105727,1,0,0:0:0:0:
192,192,105831,1,0,0:0:0:0:
320,192,105934,1,0,0:0:0:0:
448,192,105934,1,0,0:0:0:0:
448,192,106348,1,0,0:0:0:0:
320,192,106452,1,0,0:0:0:0:
448,192,106555,1,0,0:0:0:0:
64,192,106762,1,0,0:0:0:0:
192,192,106762,1,0,0:0:0:0:
448,192,106865,1,0,0:0:0:0:
320,192,106969,1,0,0:0:0:0:
192,192,107072,1,0,0:0:0:0:
64,192,107176,128,0,108003:0:0:0:0:
320,192,107176,1,0,0:0:0:0:
448,192,107279,1,0,0:0:0:0:
192,192,107383,1,0,0:0:0:0:
448,192,107590,1,0,0:0:0:0:
320,192,107590,1,0,0:0:0:0:
192,192,107693,1,0,0:0:0:0:
320,192,107796,1,0,0:0:0:0:
320,192,108003,128,0,108831:0:0:0:0:
448,192,108003,1,0,0:0:0:0:
192,192,108210,1,0,0:0:0:0:
64,192,108314,1,0,0:0:0:0:
192,192,108417,1,0,0:0:0:0:
64,192,108521,1,0,0:0:0:0:
192,192,108624,1,0,0:0:0:0:
448,192,108831,1,0,0:0:0:0:
320,192,109038,1,0,0:0:0:0:
64,192,109141,1,0,0:0:0:0:
192,192,109141,1,0,0:0:0:0:
192,192,109348,1,0,0:0:0:0:
320,192,109452,1,0,0:0:0:0:
448,192,109452,1,0,0:0:0:0:
192,192,109658,1,0,0:0:0:0:
320,192,109762,1,0,0:0:0:0:
192,192,109865,1,0,0:0:0:0:
64,192,109969,1,0,0:0:0:0:
448,192,110072,1,0,0:0:0:0:
320,192,110176,1,0,0:0:0:0:
448,192,110279,1,0,0:0:0:0:
64,192,110383,1,0,0:0:0:0:
320,192,110486,1,0,0:0:0:0:
448,192,110486,128,0,112141:0:0:0:0:
64,192,110900,1,0,0:0:0:0:
320,192,111314,1,0,0:0:0:0:
64,192,111727,1,0,0:0:0:0:
320,192,111727,1,0,0:0:0:0:
192,192,111934,1,0,0:0:0:0:
192,192,112141,1,0,0:0:0:0:
64,192,112141,128,0,113796:0:0:0:0:
320,192,112555,1,0,0:0:0:0:
448,192,112969,1,0,0:0:0:0:
320,192,113176,1,0,0:0:0:0:
448,192,113176,1,0,0:0:0:0:
192,192,113383,1,0,0:0:0:0:
320,192,113383,1,0,0:0:0:0:
448,192,113590,1,0,0:0:0:0:
320,192,113693,1,0,0:0:0:0:
192,192,113796,128,0,115452:0:0:0:0:
448,192,113796,1,0,0:0:0:0:
64,192,114210,1,0,0:0:0:0:
320,192,114624,1,0,0:0:0:0:
64,192,115038,1,0,0:0:0:0:
320,192,115038,1,0,0:0:0:0:
320,192,115452,128,0,117107:0:0:0:0:
448,192,115452,1,0,0:0:0:0:
192,192,115865,1,0,0:0:0:0:
64,192,116279,1,0,0:0:0:0:
448,192,116486,1,0,0:0:0:0:
192,192,116486,1,0,0:0:0:0:
448,192,116693,1,0,0:0:0:0:
64,192,116796,1,0,0:0:0:0:
192,192,116900,1,0,0:0:0:0:
448,192,117003,1,0,0:0:0:0:
192,192,117107,1,0,0:0:0:0:
64,192,117521,1,0,0:0:0:0:
192,192,117521,1,0,0:0:0:0:
448,192,117521,1,0,0:0:0:0:
192,192,117934,1,0,0:0:0:0:
320,192,117934,1,0,0:0:0:0:
64,192,118348,1,0,0:0:0:0:
320,192,118348,1,0,0:0:0:0:
448,192,118348,1,0,0:0:0:0:
192,192,118555,128,0,118762:0:0:0:0:
320,192,118762,1,0,0:0:0:0:
64,192,119176,1,0,0:0:0:0:
192,192,119176,1,0,0:0:0:0:
448,192,119176,1,0,0:0:0:0:
192,192,119590,1,0,0:0:0:0:
320,192,119590,1,0,0:0:0:0:
64,192,120003,1,0,0:0:0:0:
192,192,120003,1,0,0:0:0:0:
448,192,120003,1,0,0:0:0:0:
320,192,120107,1,0,0:0:0:0:
192,192,120210,1,0,0:0:0:0:
320,192,120314,1,0,0:0:0:0:
64,192,120417,1,0,0:0:0:0:
448,192,120417,1,0,0:0:0:0:
320,192,120624,1,0,0:0:0:0:
192,192,120831,1,0,0:0:0:0:
448,192,120831,1,0,0:0:0:0:
192,192,121038,1,0,0:0:0:0:
64,192,121245,1,0,0:0:0:0:
320,192,121245,1,0,0:0:0:0:
320,192,121452,1,0,0:0:0:0:
192,192,121658,1,0,0:0:0:0:
448,192,121658,1,0,0:0:0:0:
448,192,121865,1,0,0:0:0:0:
320,192,121969,1,0,0:0:0:0:
64,192,122072,1,0,0:0:0:0:
448,192,122176,1,0,0:0:0:0:
192,192,122279,1,0,0:0:0:0:
320,192,122383,1,0,0:0:0:0:
64,192,122486,1,0,0:0:0:0:
448,192,122590,1,0,0:0:0:0:
320,192,122693,1,0,0:0:0:0:
64,192,122796,1,0,0:0:0:0:
448,192,122900,1,0,0:0:0:0:
320,192,122969,1,0,0:0:0:0:
192,192,123038,1,0,0:0:0:0:
64,192,123107,1,0,0:0:0:0:
448,192,123176,1,0,0:0:0:0:
320,192,123245,1,0,0:0:0:0:
64,192,123314,1,0,0:0:0:0:
192,192,123314,1,0,0:0:0:0:
320,192,123417,1,0,0:0:0:0:
448,192,123521,1,0,0:0:0:0:
320,192,123624,1,0,0:0:0:0:
64,192,123727,1,0,0:0:0:0:
192,192,123727,1,0,0:0:0:0:
448,192,123934,1,0,0:0:0:0:
192,192,124038,1,0,0:0:0:0:
320,192,124038,1,0,0:0:0:0:
64,192,124245,1,0,0:0:0:0:
320,192,124348,1,0,0:0:0:0:
448,192,124348,1,0,0:0:0:0:
64,192,124555,1,0,0:0:0:0:
192,192,124624,1,0,0:0:0:0:
448,192,124693,1,0,0:0:0:0:
320,192,124762,1,0,0:0:0:0:
64,192,124831,1,0,0:0:0:0:
192,192,124900,1,0,0:0:0:0:
320,192,124969,1,0,0:0:0:0:
448,192,124969,1,0,0:0:0:0:
64,192,125072,1,0,0:0:0:0:
320,192,125176,1,0,0:0:0:0:
192,192,125279,1,0,0:0:0:0:
64,192,125383,1,0,0:0:0:0:
448,192,125383,1,0,0:0:0:0:
192,192,125590,1,0,0:0:0:0:
320,192,125796,1,0,0:0:0:0:
448,192,125796,1,0,0:0:0:0:
192,192,126003,1,0,0:0:0:0:
320,192,126210,1,0,0:0:0:0:
64,192,126210,1,0,0:0:0:0:
448,192,126417,1,0,0:0:0:0:
192,192,126417,1,0,0:0:0:0:
320,192,126624,1,0,0:0:0:0:
448,192,126831,1,0,0:0:0:0:
64,192,126934,1,0,0:0:0:0:
320,192,127038,1,0,0:0:0:0:
192,192,127245,1,0,0:0:0:0:
64,192,127452,1,0,0:0:0:0:
320,192,127452,1,0,0:0:0:0:
192,192,127658,1,0,0:0:0:0:
448,192,127762,1,0,0:0:0:0:
64,192,127865,1,0,0:0:0:0:
192,192,128072,1,0,0:0:0:0:
64,192,128279,1,0,0:0:0:0:
448,192,128279,128,0,128693:0:0:0:0:
320,192,128486,1,0,0:0:0:0:
64,192,128693,128,0,129107:0:0:0:0:
192,192,128693,1,0,0:0:0:0:
320,192,128900,1,0,0:0:0:0:
448,192,129107,128,0,129521:0:0:0:0:
192,192,129107,1,0,0:0:0:0:
320,192,129314,1,0,0:0:0:0:
192,192,129521,128,0,129934:0:0:0:0:
64,192,129521,1,0,0:0:0:0:
64,192,129727,1,0,0:0:0:0:
320,192,129934,128,0,130348:0:0:0:0:
448,192,129934,1,0,0:0:0:0:
64,192,130141,1,0,0:0:0:0:
192,192,130245,1,0,0:0:0:0:
64,192,130348,128,0,130762:0:0:0:0:
448,192,130348,1,0,0:0:0:0:
448,192,130555,1,0,0:0:0:0:
320,192,130762,1,0,0:0:0:0:
192,192,130762,128,0,131176:0:0:0:0:
448,192,130969,1,0,0:0:0:0:
320,192,131072,1,0,0:0:0:0:
64,192,131176,1,0,0:0:0:0:
64,192,131383,1,0,0:0:0:0:
448,192,131590,1,0,0:0:0:0:
320,192,131590,1,0,0:0:0:0:
192,192,131796,1,0,0:0:0:0:
64,192,132003,1,0,0:0:0:0:
320,192,132003,1,0,0:0:0:0:
448,192,132003,1,0,0:0:0:0:
192,192,132210,1,0,0:0:0:0:
64,192,132417,1,0,0:0:0:0:
320,192,132417,1,0,0:0:0:0:
192,192,132624,1,0,0:0:0:0:
320,192,132831,1,0,0:0:0:0:
448,192,132831,1,0,0:0:0:0:
192,192,133038,1,0,0:0:0:0:
64,192,133245,1,0,0:0:0:0:
320,192,133245,1,0,0:0:0:0:
64,192,133452,1,0,0:0:0:0:
448,192,133555,1,0,0:0:0:0:
192,192,133658,1,0,0:0:0:0:
64,192,133865,1,0,0:0:0:0:
448,192,134072,1,0,0:0:0:0:
320,192,134072,1,0,0:0:0:0:
320,192,134279,1,0,0:0:0:0:
64,192,134383,1,0,0:0:0:0:
448,192,134486,1,0,0:0:0:0:
192,192,134693,1,0,0:0:0:0:
64,192,134900,1,0,0:0:0:0:
448,192,134900,128,0,135314:0:0:0:0:
320,192,135107,1,0,0:0:0:0:
192,192,135314,1,0,0:0:0:0:
320,192,135521,1,0,0:0:0:0:
64,192,135727,1,0,0:0:0:0:
192,192,135727,1,0,0:0:0:0:
320,192,135934,1,0,0:0:0:0:
192,192,136141,1,0,0:0:0:0:
448,192,136141,1,0,0:0:0:0:
64,192,136348,1,0,0:0:0:0:
320,192,136555,1,0,0:0:0:0:
448,192,136555,1,0,0:0:0:0:
192,192,136762,1,0,0:0:0:0:
320,192,136865,1,0,0:0:0:0:
192,192,136969,1,0,0:0:0:0:
64,192,136969,1,0,0:0:0:0:
320,192,137176,1,0,0:0:0:0:
192,192,137383,1,0,0:0:0:0:
448,192,137383,1,0,0:0:0:0:
448,192,137590,1,0,0:0:0:0:
320,192,137693,1,0,0:0:0:0:
192,192,137796,1,0,0:0:0:0:
64,192,137796,1,0,0:0:0:0:
320,192,137900,1,0,0:0:0:0:
192,192,138003,1,0,0:0:0:0:
448,192,138107,1,0,0:0:0:0:
320,192,138107,1,0,0:0:0:0:
192,192,138210,1,0,0:0:0:0:
320,192,138314,1,0,0:0:0:0:
192,192,138417,1,0,0:0:0:0:
64,192,138417,1,0,0:0:0:0:
320,192,138521,1,0,0:0:0:0:
448,192,138624,1,0,0:0:0:0:
192,192,138624,1,0,0:0:0:0:
320,192,138727,1,0,0:0:0:0:
64,192,138831,1,0,0:0:0:0:
320,192,138934,1,0,0:0:0:0:
192,192,139038,1,0,0:0:0:0:
448,192,139141,1,0,0:0:0:0:
192,192,139245,1,0,0:0:0:0:
320,192,139348,1,0,0:0:0:0:
64,192,139452,1,0,0:0:0:0:
192,192,139452,1,0,0:0:0:0:
320,192,139762,1,0,0:0:0:0:
448,192,140072,1,0,0:0:0:0:
192,192,140176,1,0,0:0:0:0:
320,192,140279,1,0,0:0:0:0:
64,192,140383,1,0,0:0:0:0:
320,192,140486,1,0,0:0:0:0:
448,192,140590,1,0,0:0:0:0:
64,192,140693,1,0,0:0:0:0:
320,192,140796,1,0,0:0:0:0:
192,192,140900,1,0,0:0:0:0:
64,192,141003,1,0,0:0:0:0:
320,192,141107,1,0,0:0:0:0:
448,192,141107,128,0,141521:0:0:0:0:
192,192,141314,1,0,0:0:0:0:
64,192,141521,1,0,0:0:0:0:
320,192,141521,1,0,0:0:0:0:
192,192,141934,1,0,0:0:0:0:
320,192,142038,1,0,0:0:0:0:
64,192,142141,1,0,0:0:0:0:
320,192,142245,1,0,0:0:0:0:
192,192,142348,1,0,0:0:0:0:
448,192,142452,1,0,0:0:0:0:
64,192,142555,1,0,0:0:0:0:
192,192,142658,1,0,0:0:0:0:
448,192,142762,1,0,0:0:0:0:
64,192,142762,1,0,0:0:0:0:
320,192,143072,1,0,0:0:0:0:
192,192,143383,1,0,0:0:0:0:
320,192,143486,1,0,0:0:0:0:
448,192,143590,1,0,0:0:0:0:
320,192,143693,1,0,0:0:0:0:
64,192,143796,1,0,0:0:0:0:
320,192,143900,1,0,0:0:0:0:
192,192,144003,1,0,0:0:0:0:
448,192,144107,1,0,0:0:0:0:
64,192,144210,1,0,0:0:0:0:
320,192,144314,1,0,0:0:0:0:
192,192,144417,1,0,0:0:0:0:
64,192,144417,1,0,0:0:0:0:
448,192,144624,1,0,0:0:0:0:
320,192,144693,1,0,0:0:0:0:
192,192,144762,1,0,0:0:0:0:
64,192,144831,1,0,0:0:0:0:
448,192,144831,1,0,0:0:0:0:
320,192,145038,1,0,0:0:0:0:
192,192,145141,1,0,0:0:0:0:
320,192,145245,1,0,0:0:0:0:
64,192,145348,1,0,0:0:0:0:
192,192,145452,1,0,0:0:0:0:
448,192,145555,1,0,0:0:0:0:
320,192,145658,1,0,0:0:0:0:
64,192,145762,1,0,0:0:0:0:
192,192,145865,1,0,0:0:0:0:
448,192,145969,1,0,0:0:0:0:
192,192,146072,1,0,0:0:0:0:
320,192,146072,1,0,0:0:0:0:
320,192,146383,1,0,0:0:0:0:
192,192,146693,1,0,0:0:0:0:
64,192,146796,1,0,0:0:0:0:
320,192,146900,1,0,0:0:0:0:
448,192,147003,1,0,0:0:0:0:
192,192,147107,1,0,0:0:0:0:
64,192,147210,1,0,0:0:0:0:
320,192,147314,1,0,0:0:0:0:
448,192,147417,1,0,0:0:0:0:
320,192,147521,1,0,0:0:0:0:
64,192,147624,1,0,0:0:0:0:
192,192,147727,1,0,0:0:0:0:
320,192,147727,1,0,0:0:0:0:
320,192,147934,1,0,0:0:0:0:
64,192,148141,1,0,0:0:0:0:
192,192,148141,1,0,0:0:0:0:
448,192,148141,1,0,0:0:0:0:
192,192,148555,1,0,0:0:0:0:
64,192,148555,128,0,148969:0:0:0:0:
192,192,148762,1,0,0:0:0:0:
448,192,148969,128,0,149383:0:0:0:0:
320,192,148969,1,0,0:0:0:0:
320,192,149176,1,0,0:0:0:0:
192,192,149383,1,0,0:0:0:0:
64,192,149383,128,0,149796:0:0:0:0:
192,192,149590,1,0,0:0:0:0:
320,192,149796,1,0,0:0:0:0:
448,192,150003,1,0,0:0:0:0:
320,192,150107,1,0,0:0:0:0:
64,192,150210,1,0,0:0:0:0:
192,192,150210,1,0,0:0:0:0:
320,192,150417,1,0,0:0:0:0:
192,192,150521,1,0,0:0:0:0:
448,192,150521,1,0,0:0:0:0:
192,192,150727,1,0,0:0:0:0:
64,192,150831,1,0,0:0:0:0:
320,192,150831,1,0,0:0:0:0:
320,192,151038,1,0,0:0:0:0:
192,192,151141,1,0,0:0:0:0:
320,192,151245,1,0,0:0:0:0:
448,192,151348,1,0,0:0:0:0:
320,192,151452,1,0,0:0:0:0:
192,192,151555,1,0,0:0:0:0:
64,192,151658,1,0,0:0:0:0:
320,192,151658,1,0,0:0:0:0:
192,192,151762,1,0,0:0:0:0:
448,192,151762,1,0,0:0:0:0:
320,192,151865,1,0,0:0:0:0:
192,192,151969,1,0,0:0:0:0:
448,192,152072,1,0,0:0:0:0:
320,192,152176,1,0,0:0:0:0:
64,192,152279,1,0,0:0:0:0:
192,192,152279,1,0,0:0:0:0:
448,192,152383,1,0,0:0:0:0:
320,192,152486,1,0,0:0:0:0:
192,192,152590,1,0,0:0:0:0:
64,192,152693,1,0,0:0:0:0:
192,192,152796,1,0,0:0:0:0:
448,192,152900,1,0,0:0:0:0:
320,192,153003,1,0,0:0:0:0:
192,192,153107,1,0,0:0:0:0:
448,192,153107,1,0,0:0:0:0:
64,192,153210,1,0,0:0:0:0:
448,192,153314,1,0,0:0:0:0:
320,192,153417,1,0,0:0:0:0:
64,192,153521,1,0,0:0:0:0:
192,192,153521,1,0,0:0:0:0:
320,192,153727,1,0,0:0:0:0:
192,192,153831,1,0,0:0:0:0:
448,192,153831,1,0,0:0:0:0:
320,192,154038,1,0,0:0:0:0:
192,192,154141,1,0,0:0:0:0:
448,192,154141,1,0,0:0:0:0:
64,192,154348,1,0,0:0:0:0:
192,192,154452,1,0,0:0:0:0:
448,192,154555,1,0,0:0:0:0:
320,192,154658,1,0,0:0:0:0:
192,192,154762,1,0,0:0:0:0:
320,192,154865,1,0,0:0:0:0:
192,192,154969,1,0,0:0:0:0:
448,192,154969,1,0,0:0:0:0:
64,192,155072,1,0,0:0:0:0:
320,192,155072,1,0,0:0:0:0:
192,192,155176,1,0,0:0:0:0:
448,192,155176,1,0,0:0:0:0:
64,192,155383,1,0,0:0:0:0:
192,192,155486,1,0,0:0:0:0:
320,192,155486,1,0,0:0:0:0:
448,192,155693,1,0,0:0:0:0:
192,192,155796,1,0,0:0:0:0:
320,192,155796,1,0,0:0:0:0:
448,192,156003,1,0,0:0:0:0:
64,192,156107,1,0,0:0:0:0:
320,192,156210,1,0,0:0:0:0:
192,192,156314,1,0,0:0:0:0:
320,192,156417,1,0,0:0:0:0:
448,192,156417,128,0,156831:0:0:0:0:
64,192,156831,128,0,159727:0:0:0:0:
448,192,157658,128,0,157762:0:0:0:0:
448,192,158486,128,0,158590:0:0:0:0:
448,192,159314,128,0,159417:0:0:0:0:
192,192,159727,1,0,0:0:0:0:
448,192,160141,128,0,162624:0:0:0:0:
320,192,160141,1,0,0:0:0:0:
64,192,160969,128,0,161072:0:0:0:0:
64,192,161796,128,0,161900:0:0:0:0:
64,192,162417,1,0,0:0:0:0:
192,192,162486,1,0,0:0:0:0:
320,192,162555,1,0,0:0:0:0:
64,192,162624,1,0,0:0:0:0:
192,192,162624,1,0,0:0:0:0:
320,192,162831,1,0,0:0:0:0:
64,192,163038,1,0,0:0:0:0:
192,192,163038,128,0,163452:0:0:0:0:
448,192,163452,128,0,165107:0:0:0:0:
320,192,163452,1,0,0:0:0:0:
192,192,163865,128,0,163969:0:0:0:0:
192,192,164279,128,0,164383:0:0:0:0:
192,192,164693,128,0,164796:0:0:0:0:
64,192,165107,128,0,165934:0:0:0:0:
192,192,165107,1,0,0:0:0:0:
320,192,165521,128,0,165624:0:0:0:0:
448,192,165934,128,0,166762:0:0:0:0:
320,192,165934,1,0,0:0:0:0:
192,192,166348,128,0,166452:0:0:0:0:
64,192,166762,1,0,0:0:0:0:
192,192,166762,1,0,0:0:0:0:
320,192,166865,1,0,0:0:0:0:
192,192,166969,1,0,0:0:0:0:
64,192,167072,1,0,0:0:0:0:
448,192,167176,1,0,0:0:0:0:
192,192,167279,1,0,0:0:0:0:
320,192,167383,1,0,0:0:0:0:
448,192,167486,1,0,0:0:0:0:
64,192,167590,1,0,0:0:0:0:
192,192,167658,1,0,0:0:0:0:
448,192,167727,1,0,0:0:0:0:
320,192,167796,1,0,0:0:0:0:
64,192,167865,1,0,0:0:0:0:
320,192,168003,1,0,0:0:0:0:
192,192,168107,1,0,0:0:0:0:
320,192,168210,1,0,0:0:0:0:
192,192,168314,1,0,0:0:0:0:
320,192,168417,1,0,0:0:0:0:
448,192,168417,1,0,0:0:0:0:
64,192,168417,1,0,0:0:0:0:
320,192,170072,1,0,0:0:0:0:
64,192,170072,1,0,0:0:0:0:
448,192,170072,1,0,0:0:0:0:
192,192,170383,1,0,0:0:0:0:
64,192,170383,1,0,0:0:0:0:
320,192,170693,1,0,0:0:0:0:
192,192,170693,1,0,0:0:0:0:
192,192,170900,1,0,0:0:0:0:
64,192,170900,1,0,0:0:0:0:
320,192,171003,1,0,0:0:0:0:
448,192,171314,128,0,171624:0:0:0:0:
320,192,171624,1,0,0:0:0:0:
192,192,171624,1,0,0:0:0:0:
64,192,171934,1,0,0:0:0:0:
192,192,171934,1,0,0:0:0:0:
320,192,172245,1,0,0:0:0:0:
192,192,172245,1,0,0:0:0:0:
64,192,172555,1,0,0:0:0:0:
320,192,172555,1,0,0:0:0:0:
448,192,172555,1,0,0:0:0:0:
64,192,172865,1,0,0:0:0:0:
448,192,172865,1,0,0:0:0:0:
192,192,173176,1,0,0:0:0:0:
320,192,173176,1,0,0:0:0:0:
64,192,173383,1,0,0:0:0:0:
448,192,173383,1,0,0:0:0:0:
192,192,173383,1,0,0:0:0:0:
320,192,173693,1,0,0:0:0:0:
448,192,173693,1,0,0:0:0:0:
320,192,174003,1,0,0:0:0:0:
192,192,174003,1,0,0:0:0:0:
320,192,174210,1,0,0:0:0:0:
448,192,174210,1,0,0:0:0:0:
192,192,174314,1,0,0:0:0:0:
64,192,174624,128,0,174934:0:0:0:0:
192,192,174934,1,0,0:0:0:0:
320,192,174934,1,0,0:0:0:0:
320,192,175245,1,0,0:0:0:0:
448,192,175245,1,0,0:0:0:0:
192,192,175555,1,0,0:0:0:0:
320,192,175555,1,0,0:0:0:0:
64,192,175865,1,0,0:0:0:0:
320,192,175865,1,0,0:0:0:0:
192,192,175865,128,0,176176:0:0:0:0:
448,192,175865,1,0,0:0:0:0:
64,192,176176,1,0,0:0:0:0:
320,192,176176,1,0,0:0:0:0:
448,192,176176,128,0,176486:0:0:0:0:
192,192,176486,1,0,0:0:0:0:
320,192,176486,1,0,0:0:0:0:
64,192,176486,128,0,176693:0:0:0:0:
320,192,176693,1,0,0:0:0:0:
448,192,176693,1,0,0:0:0:0:
64,192,177003,1,0,0:0:0:0:
192,192,177003,1,0,0:0:0:0:
320,192,177314,1,0,0:0:0:0:
448,192,177314,1,0,0:0:0:0:
64,192,177521,1,0,0:0:0:0:
192,192,177521,1,0,0:0:0:0:
320,192,177624,1,0,0:0:0:0:
192,192,177934,128,0,178245:0:0:0:0:
320,192,178245,1,0,0:0:0:0:
448,192,178245,1,0,0:0:0:0:
64,192,178555,1,0,0:0:0:0:
192,192,178555,1,0,0:0:0:0:
192,192,178865,1,0,0:0:0:0:
320,192,178865,1,0,0:0:0:0:
320,192,179176,1,0,0:0:0:0:
448,192,179176,1,0,0:0:0:0:
64,192,179176,1,0,0:0:0:0:
64,192,179486,1,0,0:0:0:0:
320,192,179486,1,0,0:0:0:0:
192,192,179796,1,0,0:0:0:0:
448,192,179796,1,0,0:0:0:0:
64,192,180003,1,0,0:0:0:0:
192,192,180003,1,0,0:0:0:0:
448,192,180003,1,0,0:0:0:0:
320,192,180314,1,0,0:0:0:0:
448,192,180314,1,0,0:0:0:0:
192,192,180624,1,0,0:0:0:0:
320,192,180624,1,0,0:0:0:0:
64,192,180831,1,0,0:0:0:0:
192,192,180831,1,0,0:0:0:0:
320,192,180934,1,0,0:0:0:0:
320,192,181245,128,0,181555:0:0:0:0:
192,192,181555,1,0,0:0:0:0:
192,192,181865,1,0,0:0:0:0:
64,192,181865,1,0,0:0:0:0:
320,192,182176,1,0,0:0:0:0:
192,192,182176,1,0,0:0:0:0:
64,192,182486,128,0,183003:0:0:0:0:
448,192,182486,1,0,0:0:0:0:
64,192,183107,1,0,0:0:0:0:
64,192,183210,1,0,0:0:0:0:
320,192,183314,128,0,183727:0:0:0:0:
448,192,183314,1,0,0:0:0:0:
192,192,183521,1,0,0:0:0:0:
448,192,183727,1,0,0:0:0:0:
64,192,183727,128,0,184141:0:0:0:0:
320,192,183934,1,0,0:0:0:0:
192,192,184141,128,0,184555:0:0:0:0:
448,192,184141,1,0,0:0:0:0:
64,192,184348,1,0,0:0:0:0:
320,192,184555,128,0,184969:0:0:0:0:
448,192,184555,1,0,0:0:0:0:
64,192,184762,1,0,0:0:0:0:
448,192,184969,128,0,185383:0:0:0:0:
192,192,184969,1,0,0:0:0:0:
320,192,185176,1,0,0:0:0:0:
320,192,185383,128,0,185796:0:0:0:0:
64,192,185383,1,0,0:0:0:0:
448,192,185590,1,0,0:0:0:0:
192,192,185796,128,0,186210:0:0:0:0:
64,192,185796,1,0,0:0:0:0:
448,192,186003,1,0,0:0:0:0:
64,192,186210,128,0,186624:0:0:0:0:
320,192,186210,1,0,0:0:0:0:
192,192,186417,1,0,0:0:0:0:
448,192,186624,1,0,0:0:0:0:
320,192,186624,128,0,187038:0:0:0:0:
192,192,186831,1,0,0:0:0:0:
192,192,187038,128,0,187452:0:0:0:0:
448,192,187038,1,0,0:0:0:0:
448,192,187245,1,0,0:0:0:0:
320,192,187452,1,0,0:0:0:0:
64,192,187452,128,0,187865:0:0:0:0:
448,192,187658,1,0,0:0:0:0:
320,192,187865,1,0,0:0:0:0:
192,192,187865,128,0,188279:0:0:0:0:
64,192,188072,1,0,0:0:0:0:
320,192,188279,128,0,188693:0:0:0:0:
448,192,188279,1,0,0:0:0:0:
64,192,188486,1,0,0:0:0:0:
448,192,188693,128,0,189107:0:0:0:0:
192,192,188693,1,0,0:0:0:0:
320,192,188900,1,0,0:0:0:0:
64,192,189107,1,0,0:0:0:0:
192,192,189107,1,0,0:0:0:0:
64,192,189417,1,0,0:0:0:0:
192,192,189417,1,0,0:0:0:0:
64,192,189727,1,0,0:0:0:0:
192,192,189727,1,0,0:0:0:0:
448,192,189934,128,0,190038:0:0:0:0:
320,192,190038,1,0,0:0:0:0:
64,192,190141,1,0,0:0:0:0:
320,192,190245,128,0,190348:0:0:0:0:
448,192,190348,1,0,0:0:0:0:
64,192,190452,1,0,0:0:0:0:
192,192,190555,128,0,190658:0:0:0:0:
448,192,190658,1,0,0:0:0:0:
320,192,190762,1,0,0:0:0:0:
64,192,190865,128,0,190969:0:0:0:0:
192,192,190969,1,0,0:0:0:0:
320,192,191072,1,0,0:0:0:0:
448,192,191176,128,0,191486:0:0:0:0:
64,192,191279,1,0,0:0:0:0:
320,192,191383,1,0,0:0:0:0:
192,192,191486,128,0,191590:0:0:0:0:
320,192,191590,1,0,0:0:0:0:
448,192,191693,1,0,0:0:0:0:
320,192,191796,128,0,191900:0:0:0:0:
192,192,191900,1,0,0:0:0:0:
448,192,192003,1,0,0:0:0:0:
64,192,192107,128,0,192210:0:0:0:0:
192,192,192210,1,0,0:0:0:0:
448,192,192314,1,0,0:0:0:0:
320,192,192417,128,0,192521:0:0:0:0:
192,192,192521,1,0,0:0:0:0:
64,192,192624,1,0,0:0:0:0:
192,192,192727,128,0,192831:0:0:0:0:
448,192,192831,1,0,0:0:0:0:
320,192,192934,1,0,0:0:0:0:
448,192,193038,128,0,193245:0:0:0:0:
192,192,193141,1,0,0:0:0:0:
64,192,193245,1,0,0:0:0:0:
192,192,193555,1,0,0:0:0:0:
320,192,193555,1,0,0:0:0:0:
64,192,193865,1,0,0:0:0:0:
448,192,193865,1,0,0:0:0:0:
64,192,194176,1,0,0:0:0:0:
192,192,194176,1,0,0:0:0:0:
320,192,194176,1,0,0:0:0:0:
448,192,194176,1,0,0:0:0:0:
320,192,194486,1,0,0:0:0:0:
448,192,194486,1,0,0:0:0:0:
192,192,194590,1,0,0:0:0:0:
64,192,194693,1,0,0:0:0:0:
448,192,194796,1,0,0:0:0:0:
320,192,194900,1,0,0:0:0:0:
192,192,194900,1,0,0:0:0:0:
448,192,195107,1,0,0:0:0:0:
64,192,195210,1,0,0:0:0:0:
320,192,195210,1,0,0:0:0:0:
64,192,195417,1,0,0:0:0:0:
192,192,195521,1,0,0:0:0:0:
448,192,195521,1,0,0:0:0:0:
320,192,195727,1,0,0:0:0:0:
64,192,195796,1,0,0:0:0:0:
192,192,195865,1,0,0:0:0:0:
448,192,195934,1,0,0:0:0:0:
320,192,196003,1,0,0:0:0:0:
448,192,196141,1,0,0:0:0:0:
64,192,196141,1,0,0:0:0:0:
192,192,196245,1,0,0:0:0:0:
320,192,196245,1,0,0:0:0:0:
64,192,196348,1,0,0:0:0:0:
448,192,196348,1,0,0:0:0:0:
192,192,196452,1,0,0:0:0:0:
320,192,196452,1,0,0:0:0:0:
64,192,198210,1,0,0:0:0:0:
448,192,198210,1,0,0:0:0:0:
320,192,198314,1,0,0:0:0:0:
192,192,198417,1,0,0:0:0:0:
448,192,198521,1,0,0:0:0:0:
192,192,198624,1,0,0:0:0:0:
64,192,198727,1,0,0:0:0:0:
448,192,198831,1,0,0:0:0:0:
320,192,198934,1,0,0:0:0:0:
64,192,199038,1,0,0:0:0:0:
192,192,199141,1,0,0:0:0:0:
320,192,199245,1,0,0:0:0:0:
64,192,199348,1,0,0:0:0:0:
448,192,199452,1,0,0:0:0:0:
192,192,199555,1,0,0:0:0:0:
320,192,199658,1,0,0:0:0:0:
64,192,199762,1,0,0:0:0:0:
192,192,199865,1,0,0:0:0:0:
320,192,199969,1,0,0:0:0:0:
192,192,200072,1,0,0:0:0:0:
448,192,200176,1,0,0:0:0:0:
320,192,200279,1,0,0:0:0:0:
192,192,200383,1,0,0:0:0:0:
448,192,200486,1,0,0:0:0:0:
64,192,200590,1,0,0:0:0:0:
192,192,200693,1,0,0:0:0:0:
448,192,200796,1,0,0:0:0:0:
192,192,200900,1,0,0:0:0:0:
320,192,201003,1,0,0:0:0:0:
448,192,201107,1,0,0:0:0:0:
64,192,201210,1,0,0:0:0:0:
320,192,201314,1,0,0:0:0:0:
64,192,201417,1,0,0:0:0:0:
320,192,201521,1,0,0:0:0:0:
192,192,201624,1,0,0:0:0:0:
320,192,201727,1,0,0:0:0:0:
192,192,201831,1,0,0:0:0:0:
64,192,201934,1,0,0:0:0:0:
448,192,202038,1,0,0:0:0:0:
320,192,202141,1,0,0:0:0:0:
64,192,202245,1,0,0:0:0:0:
320,192,202348,1,0,0:0:0:0:
192,192,202452,1,0,0:0:0:0:
448,192,202555,1,0,0:0:0:0:
192,192,202658,1,0,0:0:0:0:
320,192,202762,1,0,0:0:0:0:
192,192,202865,1,0,0:0:0:0:
448,192,202969,1,0,0:0:0:0:
64,192,203072,1,0,0:0:0:0:
448,192,203176,1,0,0:0:0:0:
192,192,203279,1,0,0:0:0:0:
320,192,203383,1,0,0:0:0:0:
192,192,203486,1,0,0:0:0:0:
64,192,203590,1,0,0:0:0:0:
192,192,203693,1,0,0:0:0:0:
320,192,203796,1,0,0:0:0:0:
448,192,203900,1,0,0:0:0:0:
320,192,204003,1,0,0:0:0:0:
192,192,204107,1,0,0:0:0:0:
320,192,204210,1,0,0:0:0:0:
64,192,204314,1,0,0:0:0:0:
320,192,204417,1,0,0:0:0:0:
448,192,204521,1,0,0:0:0:0:
320,192,204624,1,0,0:0:0:0:
64,192,204727,1,0,0:0:0:0:
448,192,204831,1,0,0:0:0:0:
64,192,204934,1,0,0:0:0:0:
320,192,205038,1,0,0:0:0:0:
448,192,205141,1,0,0:0:0:0:
320,192,205245,1,0,0:0:0:0:
192,192,205348,1,0,0:0:0:0:
64,192,205452,1,0,0:0:0:0:
448,192,205555,1,0,0:0:0:0:
320,192,205658,1,0,0:0:0:0:
64,192,205762,1,0,0:0:0:0:
192,192,205865,1,0,0:0:0:0:
320,192,205969,1,0,0:0:0:0:
192,192,206072,1,0,0:0:0:0:
448,192,206176,1,0,0:0:0:0:
320,192,206279,1,0,0:0:0:0:
192,192,206383,1,0,0:0:0:0:
320,192,206486,1,0,0:0:0:0:
192,192,206590,1,0,0:0:0:0:
320,192,206693,1,0,0:0:0:0:
64,192,206796,1,0,0:0:0:0:
448,192,206900,1,0,0:0:0:0:
192,192,207003,1,0,0:0:0:0:
320,192,207107,1,0,0:0:0:0:
448,192,207210,1,0,0:0:0:0:
192,192,207314,1,0,0:0:0:0:
320,192,207417,1,0,0:0:0:0:
64,192,207521,1,0,0:0:0:0:
192,192,207624,1,0,0:0:0:0:
448,192,207727,1,0,0:0:0:0:
320,192,207831,1,0,0:0:0:0:
192,192,207934,1,0,0:0:0:0:
320,192,208038,1,0,0:0:0:0:
64,192,208141,1,0,0:0:0:0:
192,192,208245,1,0,0:0:0:0:
448,192,208348,1,0,0:0:0:0:
320,192,208452,1,0,0:0:0:0:
192,192,208555,1,0,0:0:0:0:
320,192,208658,1,0,0:0:0:0:
192,192,208762,1,0,0:0:0:0:
64,192,208865,1,0,0:0:0:0:
448,192,208969,1,0,0:0:0:0:
320,192,209072,1,0,0:0:0:0:
192,192,209176,1,0,0:0:0:0:
320,192,209279,1,0,0:0:0:0:
192,192,209383,1,0,0:0:0:0:
64,192,209486,1,0,0:0:0:0:
320,192,209590,1,0,0:0:0:0:
192,192,209693,1,0,0:0:0:0:
64,192,209796,1,0,0:0:0:0:
320,192,209900,1,0,0:0:0:0:
448,192,210003,1,0,0:0:0:0:
64,192,210107,1,0,0:0:0:0:
192,192,210210,1,0,0:0:0:0:
320,192,210314,1,0,0:0:0:0:
192,192,210417,1,0,0:0:0:0:
448,192,210521,1,0,0:0:0:0:
192,192,210624,1,0,0:0:0:0:
320,192,210727,1,0,0:0:0:0:
64,192,210831,1,0,0:0:0:0:
320,192,210934,1,0,0:0:0:0:
192,192,211038,1,0,0:0:0:0:
64,192,211141,1,0,0:0:0:0:
448,192,211245,1,0,0:0:0:0:
64,192,211348,1,0,0:0:0:0:
448,192,211452,5,0,0:0:0:0:
192,192,211452,1,0,0:0:0:0:
320,192,211555,1,0,0:0:0:0:
64,192,211658,1,0,0:0:0:0:
192,192,211762,1,0,0:0:0:0:
448,192,211865,1,0,0:0:0:0:
192,192,211969,1,0,0:0:0:0:
320,192,212072,1,0,0:0:0:0:
448,192,212176,1,0,0:0:0:0:
192,192,212279,1,0,0:0:0:0:
64,192,212279,1,0,0:0:0:0:
320,192,212383,1,0,0:0:0:0:
448,192,212486,1,0,0:0:0:0:
192,192,212590,1,0,0:0:0:0:
320,192,212693,1,0,0:0:0:0:
64,192,212796,1,0,0:0:0:0:
320,192,212900,1,0,0:0:0:0:
448,192,213003,1,0,0:0:0:0:
64,192,213107,1,0,0:0:0:0:
192,192,213210,1,0,0:0:0:0:
448,192,213314,1,0,0:0:0:0:
320,192,213417,1,0,0:0:0:0:
192,192,213521,1,0,0:0:0:0:
320,192,213624,1,0,0:0:0:0:
64,192,213727,1,0,0:0:0:0:
192,192,213831,1,0,0:0:0:0:
320,192,213934,1,0,0:0:0:0:
448,192,213934,1,0,0:0:0:0:
64,192,214038,1,0,0:0:0:0:
320,192,214141,1,0,0:0:0:0:
192,192,214245,1,0,0:0:0:0:
64,192,214245,1,0,0:0:0:0:
320,192,214348,1,0,0:0:0:0:
192,192,214452,1,0,0:0:0:0:
320,192,214555,1,0,0:0:0:0:
448,192,214555,1,0,0:0:0:0:
192,192,214658,1,0,0:0:0:0:
448,192,214762,1,0,0:0:0:0:
64,192,214762,1,0,0:0:0:0:
192,192,214865,1,0,0:0:0:0:
320,192,214969,1,0,0:0:0:0:
64,192,215072,1,0,0:0:0:0:
448,192,215176,1,0,0:0:0:0:
192,192,215279,1,0,0:0:0:0:
320,192,215383,1,0,0:0:0:0:
192,192,215486,1,0,0:0:0:0:
448,192,215590,1,0,0:0:0:0:
64,192,215590,1,0,0:0:0:0:
320,192,215693,1,0,0:0:0:0:
64,192,215796,1,0,0:0:0:0:
320,192,215900,1,0,0:0:0:0:
192,192,216003,1,0,0:0:0:0:
448,192,216107,1,0,0:0:0:0:
320,192,216210,1,0,0:0:0:0:
192,192,216314,1,0,0:0:0:0:
320,192,216417,1,0,0:0:0:0:
64,192,216521,1,0,0:0:0:0:
192,192,216624,1,0,0:0:0:0:
320,192,216727,1,0,0:0:0:0:
64,192,216831,1,0,0:0:0:0:
448,192,216934,1,0,0:0:0:0:
192,192,217038,1,0,0:0:0:0:
320,192,217141,1,0,0:0:0:0:
64,192,217245,1,0,0:0:0:0:
448,192,217245,1,0,0:0:0:0:
320,192,217348,1,0,0:0:0:0:
64,192,217452,1,0,0:0:0:0:
192,192,217555,1,0,0:0:0:0:
320,192,217555,1,0,0:0:0:0:
448,192,217658,1,0,0:0:0:0:
192,192,217762,1,0,0:0:0:0:
448,192,217865,1,0,0:0:0:0:
320,192,217865,1,0,0:0:0:0:
192,192,217969,1,0,0:0:0:0:
64,192,218072,1,0,0:0:0:0:
448,192,218072,1,0,0:0:0:0:
320,192,218176,1,0,0:0:0:0:
192,192,218279,1,0,0:0:0:0:
320,192,218383,1,0,0:0:0:0:
64,192,218486,1,0,0:0:0:0:
448,192,218486,1,0,0:0:0:0:
192,192,218590,1,0,0:0:0:0:
320,192,218693,1,0,0:0:0:0:
192,192,218796,1,0,0:0:0:0:
64,192,218900,1,0,0:0:0:0:
448,192,218900,1,0,0:0:0:0:
320,192,219003,1,0,0:0:0:0:
192,192,219107,1,0,0:0:0:0:
320,192,219210,1,0,0:0:0:0:
64,192,219314,1,0,0:0:0:0:
448,192,219314,1,0,0:0:0:0:
192,192,219417,1,0,0:0:0:0:
320,192,219521,1,0,0:0:0:0:
192,192,219624,1,0,0:0:0:0:
64,192,219727,1,0,0:0:0:0:
448,192,219727,1,0,0:0:0:0:
320,192,219831,1,0,0:0:0:0:
192,192,219934,1,0,0:0:0:0:
64,192,219934,1,0,0:0:0:0:
448,192,220038,1,0,0:0:0:0:
192,192,220141,1,0,0:0:0:0:
320,192,220141,1,0,0:0:0:0:
64,192,220245,1,0,0:0:0:0:
320,192,220348,1,0,0:0:0:0:
448,192,220348,1,0,0:0:0:0:
192,192,220452,1,0,0:0:0:0:
64,192,220555,1,0,0:0:0:0:
320,192,220555,1,0,0:0:0:0:
448,192,220658,1,0,0:0:0:0:
320,192,220762,1,0,0:0:0:0:
192,192,220762,1,0,0:0:0:0:
64,192,220865,1,0,0:0:0:0:
320,192,220969,1,0,0:0:0:0:
448,192,220969,1,0,0:0:0:0:
192,192,221072,1,0,0:0:0:0:
64,192,221176,1,0,0:0:0:0:
320,192,221176,1,0,0:0:0:0:
192,192,221279,1,0,0:0:0:0:
320,192,221383,1,0,0:0:0:0:
448,192,221383,1,0,0:0:0:0:
64,192,221486,1,0,0:0:0:0:
192,192,221486,1,0,0:0:0:0:
320,192,221590,1,0,0:0:0:0:
448,192,221590,1,0,0:0:0:0:
64,192,221693,1,0,0:0:0:0:
192,192,221693,1,0,0:0:0:0:
320,192,221796,1,0,0:0:0:0:
448,192,221796,1,0,0:0:0:0:
64,192,221900,1,0,0:0:0:0:
192,192,221900,1,0,0:0:0:0:
320,192,222003,1,0,0:0:0:0:
448,192,222003,1,0,0:0:0:0:
64,192,222107,1,0,0:0:0:0:
192,192,222107,1,0,0:0:0:0:
448,192,222210,1,0,0:0:0:0:
320,192,222279,1,0,0:0:0:0:
64,192,222348,1,0,0:0:0:0:
192,192,222417,1,0,0:0:0:0:
448,192,222486,1,0,0:0:0:0:
320,192,222555,1,0,0:0:0:0:
64,192,222624,1,0,0:0:0:0:
192,192,222693,1,0,0:0:0:0:
448,192,222762,1,0,0:0:0:0:
320,192,222831,1,0,0:0:0:0:
64,192,222900,1,0,0:0:0:0:
192,192,222969,1,0,0:0:0:0:
448,192,223038,1,0,0:0:0:0:
320,192,223038,1,0,0:0:0:0:
64,192,224279,128,0,224693:0:0:0:0:
448,192,224279,128,0,224693:0:0:0:0:
192,192,224279,1,0,0:0:0:0:
320,192,224279,1,0,0:0:0:0:
320,192,224693,1,0,0:0:0:0:
192,192,224796,1,0,0:0:0:0:
448,192,224900,1,0,0:0:0:0:
320,192,225003,1,0,0:0:0:0:
192,192,225107,1,0,0:0:0:0:
448,192,225107,1,0,0:0:0:0:
64,192,225210,1,0,0:0:0:0:
320,192,225314,1,0,0:0:0:0:
448,192,225417,1,0,0:0:0:0:
64,192,225521,1,0,0:0:0:0:
192,192,225624,1,0,0:0:0:0:
320,192,225727,1,0,0:0:0:0:
192,192,225831,1,0,0:0:0:0:
64,192,225934,1,0,0:0:0:0:
320,192,225934,1,0,0:0:0:0:
448,192,226038,1,0,0:0:0:0:
192,192,226141,1,0,0:0:0:0:
320,192,226245,1,0,0:0:0:0:
448,192,226348,1,0,0:0:0:0:
64,192,226452,1,0,0:0:0:0:
320,192,226555,1,0,0:0:0:0:
64,192,226658,1,0,0:0:0:0:
320,192,226762,1,0,0:0:0:0:
448,192,226762,1,0,0:0:0:0:
192,192,226865,1,0,0:0:0:0:
64,192,226969,1,0,0:0:0:0:
192,192,227072,1,0,0:0:0:0:
64,192,227176,1,0,0:0:0:0:
448,192,227279,1,0,0:0:0:0:
320,192,227383,1,0,0:0:0:0:
192,192,227486,1,0,0:0:0:0:
64,192,227590,1,0,0:0:0:0:
448,192,227590,1,0,0:0:0:0:
320,192,227590,128,0,228003:0:0:0:0:
192,192,227693,1,0,0:0:0:0:
64,192,227796,1,0,0:0:0:0:
192,192,227900,1,0,0:0:0:0:
64,192,228003,1,0,0:0:0:0:
192,192,228107,1,0,0:0:0:0:
448,192,228210,1,0,0:0:0:0:
64,192,228314,1,0,0:0:0:0:
192,192,228417,1,0,0:0:0:0:
320,192,228417,1,0,0:0:0:0:
448,192,228521,1,0,0:0:0:0:
64,192,228624,1,0,0:0:0:0:
448,192,228727,1,0,0:0:0:0:
64,192,228831,1,0,0:0:0:0:
320,192,228934,1,0,0:0:0:0:
64,192,229038,1,0,0:0:0:0:
192,192,229141,1,0,0:0:0:0:
64,192,229245,1,0,0:0:0:0:
448,192,229245,1,0,0:0:0:0:
320,192,229348,1,0,0:0:0:0:
448,192,229452,1,0,0:0:0:0:
192,192,229555,1,0,0:0:0:0:
448,192,229658,1,0,0:0:0:0:
64,192,229762,1,0,0:0:0:0:
448,192,229865,1,0,0:0:0:0:
192,192,229969,1,0,0:0:0:0:
320,192,230072,1,0,0:0:0:0:
448,192,230072,1,0,0:0:0:0:
192,192,230176,1,0,0:0:0:0:
320,192,230279,1,0,0:0:0:0:
448,192,230383,1,0,0:0:0:0:
64,192,230486,1,0,0:0:0:0:
320,192,230486,1,0,0:0:0:0:
192,192,230486,128,0,230900:0:0:0:0:
448,192,230590,1,0,0:0:0:0:
320,192,230693,1,0,0:0:0:0:
64,192,230796,1,0,0:0:0:0:
448,192,230900,128,0,231314:0:0:0:0:
64,192,231003,1,0,0:0:0:0:
192,192,231107,1,0,0:0:0:0:
320,192,231210,1,0,0:0:0:0:
192,192,231314,1,0,0:0:0:0:
64,192,231417,1,0,0:0:0:0:
448,192,231521,1,0,0:0:0:0:
320,192,231624,1,0,0:0:0:0:
64,192,231727,1,0,0:0:0:0:
192,192,231727,1,0,0:0:0:0:
448,192,231831,1,0,0:0:0:0:
192,192,231934,1,0,0:0:0:0:
320,192,232038,1,0,0:0:0:0:
64,192,232141,1,0,0:0:0:0:
192,192,232245,1,0,0:0:0:0:
448,192,232348,1,0,0:0:0:0:
64,192,232452,1,0,0:0:0:0:
192,192,232555,1,0,0:0:0:0:
320,192,232555,1,0,0:0:0:0:
448,192,232658,1,0,0:0:0:0:
320,192,232762,1,0,0:0:0:0:
192,192,232865,1,0,0:0:0:0:
64,192,232969,1,0,0:0:0:0:
192,192,233072,1,0,0:0:0:0:
320,192,233176,1,0,0:0:0:0:
192,192,233279,1,0,0:0:0:0:
320,192,233383,1,0,0:0:0:0:
448,192,233383,1,0,0:0:0:0:
64,192,233486,1,0,0:0:0:0:
320,192,233590,1,0,0:0:0:0:
448,192,233693,1,0,0:0:0:0:
192,192,233796,1,0,0:0:0:0:
64,192,233900,1,0,0:0:0:0:
448,192,234003,1,0,0:0:0:0:
320,192,234107,1,0,0:0:0:0:
64,192,234210,1,0,0:0:0:0:
192,192,234210,128,0,234624:0:0:0:0:
448,192,234210,1,0,0:0:0:0:
320,192,234314,1,0,0:0:0:0:
448,192,234417,1,0,0:0:0:0:
320,192,234521,1,0,0:0:0:0:
64,192,234624,1,0,0:0:0:0:
320,192,234727,1,0,0:0:0:0:
64,192,234831,1,0,0:0:0:0:
320,192,234934,1,0,0:0:0:0:
192,192,235038,1,0,0:0:0:0:
448,192,235038,1,0,0:0:0:0:
320,192,235141,1,0,0:0:0:0:
64,192,235245,1,0,0:0:0:0:
192,192,235348,1,0,0:0:0:0:
448,192,235452,1,0,0:0:0:0:
320,192,235555,1,0,0:0:0:0:
192,192,235658,1,0,0:0:0:0:
448,192,235762,1,0,0:0:0:0:
64,192,235865,1,0,0:0:0:0:
320,192,235865,1,0,0:0:0:0:
192,192,235969,1,0,0:0:0:0:
448,192,236072,1,0,0:0:0:0:
320,192,236176,1,0,0:0:0:0:
64,192,236279,1,0,0:0:0:0:
192,192,236383,1,0,0:0:0:0:
448,192,236486,1,0,0:0:0:0:
192,192,236590,1,0,0:0:0:0:
64,192,236693,1,0,0:0:0:0:
448,192,236693,1,0,0:0:0:0:
320,192,236796,1,0,0:0:0:0:
64,192,236900,1,0,0:0:0:0:
448,192,237003,1,0,0:0:0:0:
192,192,237107,1,0,0:0:0:0:
320,192,237107,1,0,0:0:0:0:
320,192,237314,1,0,0:0:0:0:
64,192,237417,1,0,0:0:0:0:
192,192,237417,1,0,0:0:0:0:
448,192,237624,1,0,0:0:0:0:
192,192,237624,1,0,0:0:0:0:
320,192,237727,1,0,0:0:0:0:
64,192,237727,1,0,0:0:0:0:
192,192,237831,1,0,0:0:0:0:
448,192,237831,1,0,0:0:0:0:
64,192,237934,128,0,239590:0:0:0:0:
320,192,237934,1,0,0:0:0:0:
448,192,238141,1,0,0:0:0:0:
320,192,238245,1,0,0:0:0:0:
448,192,238555,1,0,0:0:0:0:
192,192,238658,1,0,0:0:0:0:
448,192,238762,1,0,0:0:0:0:
320,192,238762,1,0,0:0:0:0:
192,192,238969,1,0,0:0:0:0:
448,192,239072,1,0,0:0:0:0:
448,192,239383,1,0,0:0:0:0:
192,192,239486,1,0,0:0:0:0:
448,192,239590,128,0,240831:0:0:0:0:
320,192,239590,1,0,0:0:0:0:
64,192,239796,1,0,0:0:0:0:
192,192,239900,1,0,0:0:0:0:
64,192,240210,1,0,0:0:0:0:
320,192,240314,1,0,0:0:0:0:
192,192,240417,1,0,0:0:0:0:
64,192,240417,1,0,0:0:0:0:
320,192,240624,1,0,0:0:0:0:
192,192,240831,1,0,0:0:0:0:
64,192,240831,1,0,0:0:0:0:
320,192,241245,1,0,0:0:0:0:
64,192,241245,128,0,242900:0:0:0:0:
192,192,241452,1,0,0:0:0:0:
448,192,241555,1,0,0:0:0:0:
320,192,241865,1,0,0:0:0:0:
192,192,241969,1,0,0:0:0:0:
448,192,242072,1,0,0:0:0:0:
320,192,242072,1,0,0:0:0:0:
448,192,242279,1,0,0:0:0:0:
192,192,242383,1,0,0:0:0:0:
448,192,242693,1,0,0:0:0:0:
320,192,242796,1,0,0:0:0:0:
448,192,242900,128,0,243727:0:0:0:0:
192,192,242900,1,0,0:0:0:0:
320,192,243107,1,0,0:0:0:0:
64,192,243210,1,0,0:0:0:0:
64,192,243521,1,0,0:0:0:0:
192,192,243624,1,0,0:0:0:0:
320,192,243727,1,0,0:0:0:0:
448,192,243934,1,0,0:0:0:0:
320,192,244003,1,0,0:0:0:0:
192,192,244072,1,0,0:0:0:0:
64,192,244141,1,0,0:0:0:0:
448,192,244141,1,0,0:0:0:0:
192,192,244348,1,0,0:0:0:0:
448,192,244452,1,0,0:0:0:0:
64,192,244555,128,0,246210:0:0:0:0:
192,192,244555,1,0,0:0:0:0:
448,192,244762,1,0,0:0:0:0:
320,192,244865,1,0,0:0:0:0:
448,192,245176,1,0,0:0:0:0:
192,192,245279,1,0,0:0:0:0:
448,192,245383,1,0,0:0:0:0:
320,192,245383,1,0,0:0:0:0:
192,192,245590,1,0,0:0:0:0:
448,192,245693,1,0,0:0:0:0:
448,192,246003,1,0,0:0:0:0:
192,192,246107,1,0,0:0:0:0:
448,192,246210,128,0,247452:0:0:0:0:
320,192,246210,1,0,0:0:0:0:
64,192,246417,1,0,0:0:0:0:
192,192,246521,1,0,0:0:0:0:
64,192,246831,1,0,0:0:0:0:
320,192,246934,1,0,0:0:0:0:
192,192,247038,1,0,0:0:0:0:
64,192,247038,1,0,0:0:0:0:
320,192,247245,1,0,0:0:0:0:
192,192,247452,1,0,0:0:0:0:
64,192,247452,1,0,0:0:0:0:
320,192,247865,1,0,0:0:0:0:
64,192,247865,128,0,249521:0:0:0:0:
448,192,248072,1,0,0:0:0:0:
320,192,248176,1,0,0:0:0:0:
448,192,248486,1,0,0:0:0:0:
192,192,248590,1,0,0:0:0:0:
448,192,248693,1,0,0:0:0:0:
320,192,248693,1,0,0:0:0:0:
192,192,248900,1,0,0:0:0:0:
448,192,249003,1,0,0:0:0:0:
448,192,249314,1,0,0:0:0:0:
320,192,249417,1,0,0:0:0:0:
448,192,249521,1,0,0:0:0:0:
192,192,249521,1,0,0:0:0:0:
320,192,249727,1,0,0:0:0:0:
192,192,249831,1,0,0:0:0:0:
64,192,249831,1,0,0:0:0:0:
448,192,250038,1,0,0:0:0:0:
320,192,250141,1,0,0:0:0:0:
192,192,250141,1,0,0:0:0:0:
448,192,250348,1,0,0:0:0:0:
192,192,250452,1,0,0:0:0:0:
320,192,250555,1,0,0:0:0:0:
64,192,250658,1,0,0:0:0:0:
320,192,250762,1,0,0:0:0:0:
192,192,250865,1,0,0:0:0:0:
448,192,250969,1,0,0:0:0:0:
320,192,250969,1,0,0:0:0:0:
192,192,251072,1,0,0:0:0:0:
64,192,251072,1,0,0:0:0:0:
448,192,251176,1,0,0:0:0:0:
192,192,251279,1,0,0:0:0:0:
448,192,251383,1,0,0:0:0:0:
320,192,251486,1,0,0:0:0:0:
64,192,251590,1,0,0:0:0:0:
192,192,251590,1,0,0:0:0:0:
448,192,251693,1,0,0:0:0:0:
192,192,251796,1,0,0:0:0:0:
320,192,251900,1,0,0:0:0:0:
64,192,252003,1,0,0:0:0:0:
320,192,252107,1,0,0:0:0:0:
448,192,252210,1,0,0:0:0:0:
192,192,252314,1,0,0:0:0:0:
64,192,252417,1,0,0:0:0:0:
448,192,252417,1,0,0:0:0:0:
192,192,252521,1,0,0:0:0:0:
448,192,252624,1,0,0:0:0:0:
320,192,252727,1,0,0:0:0:0:
64,192,252831,1,0,0:0:0:0:
192,192,252831,1,0,0:0:0:0:
320,192,253038,1,0,0:0:0:0:
192,192,253141,1,0,0:0:0:0:
448,192,253141,1,0,0:0:0:0:
192,192,253348,1,0,0:0:0:0:
64,192,253452,1,0,0:0:0:0:
320,192,253452,1,0,0:0:0:0:
320,192,253658,1,0,0:0:0:0:
192,192,253762,1,0,0:0:0:0:
64,192,253865,1,0,0:0:0:0:
448,192,253969,1,0,0:0:0:0:
192,192,254072,1,0,0:0:0:0:
320,192,254176,1,0,0:0:0:0:
192,192,254279,1,0,0:0:0:0:
448,192,254279,1,0,0:0:0:0:
64,192,254383,1,0,0:0:0:0:
320,192,254383,1,0,0:0:0:0:
192,192,254486,1,0,0:0:0:0:
448,192,254486,1,0,0:0:0:0:
64,192,254693,1,0,0:0:0:0:
192,192,254796,1,0,0:0:0:0:
320,192,254796,1,0,0:0:0:0:
448,192,255003,1,0,0:0:0:0:
192,192,255107,1,0,0:0:0:0:
320,192,255107,1,0,0:0:0:0:
448,192,255314,1,0,0:0:0:0:
64,192,255417,1,0,0:0:0:0:
320,192,255521,1,0,0:0:0:0:
192,192,255624,1,0,0:0:0:0:
320,192,255727,1,0,0:0:0:0:
448,192,255831,1,0,0:0:0:0:
192,192,255934,1,0,0:0:0:0:
64,192,255934,1,0,0:0:0:0:
448,192,256038,1,0,0:0:0:0:
