osu file format v14

[General]
AudioFilename: Megurine Luka - Mentalism [Yuyoyuppe].mp3
AudioLeadIn: 0
PreviewTime: 77723
Countdown: 0
SampleSet: Soft
StackLeniency: 0.7
Mode: 0
LetterboxInBreaks: 1
WidescreenStoryboard: 0

[Editor]
Bookmarks: 26854,37288,58158,79027,98593,110332,131201,152071,172940,193810,214680
DistanceSpacing: 1
BeatDivisor: 2
GridSize: 4
TimelineZoom: 2

[Metadata]
Title:Mentalism
TitleUnicode:唯心論
Artist:Yuyoyuppe feat. Megurine Luka
ArtistUnicode:ゆよゆっぺ feat. 巡音 ルカ
Creator:- Milhofo -
Version:Easy
Source:
Tags:vocaloud collection 01 spiritualism lefia [hiiro sakaki] estellia- emilia skinnyjommy yuishinron
BeatmapID:812426
BeatmapSetID:368234

[Difficulty]
HPDrainRate:2
CircleSize:2.5
OverallDifficulty:2
ApproachRate:3
SliderMultiplier:0.699999999999999
SliderTickRate:1

[Events]
//Background and Video events
0,0,"mentalism.jpg",0,0
//Break Periods
2,105314,108566
2,156836,161066
//Storyboard Layer 0 (Background)
//Storyboard Layer 1 (Fail)
//Storyboard Layer 2 (Pass)
//Storyboard Layer 3 (Foreground)
//Storyboard Layer 4 (Overlay)
//Storyboard Sound Samples

[TimingPoints]
40,352.941176470588,4,2,1,45,1,0
4275,-125,4,2,1,45,0,0
15569,-125,4,2,1,45,0,0
26854,326.086956521739,4,1,1,60,1,0
26854,-100,4,1,1,60,0,1
37288,-100,4,1,1,60,0,0
77723,-100,4,2,1,60,0,0
79027,-100,4,1,1,60,0,1
98593,-100,4,1,1,60,0,0
99897,-100,4,1,1,60,0,0
110332,-100,4,1,1,60,0,0
129897,-100,4,2,1,60,0,0
131201,-100,4,1,1,60,0,1
152071,-100,4,1,1,60,0,0
192832,-100,4,2,1,60,0,0
193810,-100,4,1,1,60,0,0
204245,-100,4,1,1,60,0,1
213375,-100,4,1,1,60,0,0
214680,-100,4,1,1,60,0,1
225114,-100,4,1,1,60,0,0

[Colours]
Combo1 : 0,128,64
Combo2 : 255,0,255
Combo3 : 0,128,192
Combo4 : 255,0,0

[HitObjects]
145,104,4275,6,0,B|185:62|185:62|247:58,1,111.999996582031
330,122,5686,2,0,B|292:165|292:165|229:167,1,111.999996582031
179,262,7098,6,0,L|311:262,1,111.999996582031
349,166,8510,2,0,L|221:166,1,111.999996582031
131,204,9922,6,0,P|125:143|154:90,1,111.999996582031
252,63,11333,2,0,P|258:124|230:177,1,111.999996582031
139,223,12745,6,0,B|178:266|178:266|241:277,1,111.999996582031
296,184,14157,2,0,B|349:193|349:193|388:236,1,111.999996582031
287,285,15569,6,0,P|223:259|202:202,2,111.999996582031,10|0|0,0:0|0:0|0:0,0:0:0:0:
388,236,17686,1,8,0:0:0:0:
367,125,18392,6,0,P|296:164|282:214,2,111.999996582031,0|0|8,0:0|0:0|0:0,0:0:0:0:
463,182,20509,1,8,0:0:0:0:
412,282,21216,6,0,P|348:316|286:317,1,111.999996582031
266,216,22628,2,0,P|204:222|158:245,1,112
100,338,24039,1,0,0:0:0:0:
107,114,25451,5,0,0:0:0:0:
203,56,26157,1,0,0:0:0:0:
304,200,26854,6,0,P|351:172|417:177,2,105,6|2|2,0:0|0:0|0:0,0:0:0:0:
378,274,28321,1,2,0:0:0:0:
282,316,28810,2,0,L|191:316,1,69.9999999999999,6|6,0:2|0:2,0:0:0:0:
142,308,29462,6,0,B|81:308|81:308|57:267,2,105,6|2|2,0:0|0:0|0:0,0:0:0:0:
142,202,30930,1,6,0:2:0:0:
68,126,31419,2,0,L|111:54,1,69.9999999999999,2|8,0:0|0:3,0:0:0:0:
173,68,32071,6,0,P|230:76|292:64,2,105,6|8|8,0:0|0:0|0:0,0:0:0:0:
127,121,33375,2,0,L|127:276,1,140,6|8,0:2|0:0,0:0:0:0:
169,316,34354,1,2,0:0:0:0:
236,334,34680,1,6,0:0:0:0:
375,330,35332,2,0,P|424:306|438:283,2,69.9999999999999,8|8|6,0:0|0:3|0:0,0:0:0:0:
325,199,36636,1,2,0:0:0:0:
239,88,37288,6,0,P|169:57|117:56,1,105,6|2,0:0|0:0,0:0:0:0:
59,119,38267,2,0,P|129:150|181:151,1,105,8|2,0:0|0:0,0:0:0:0:
239,88,39245,1,2,0:0:0:0:
354,166,39897,6,0,L|441:255,1,105,6|2,0:0|0:0,0:0:0:0:
327,274,40875,2,0,L|237:360,1,105,8|2,0:0|0:0,0:0:0:0:
207,252,41853,2,0,P|169:228|122:215,1,69.9999999999999,8|8,0:3|0:0,0:0:0:0:
75,222,42506,6,0,P|33:166|46:112,1,105,6|2,0:0|0:0,0:0:0:0:
63,33,43484,2,0,P|123:68|132:122,1,105,8|2,0:0|0:0,0:0:0:0:
167,197,44462,2,0,L|231:237,1,69.9999999999999,2|8,0:0|0:0,0:0:0:0:
280,278,45114,6,0,P|352:288|439:276,1,140,6|0,0:0|0:0,0:0:0:0:
475,153,46419,2,0,P|431:89|359:64,1,140,2|8,0:0|0:0,0:0:0:0:
236,78,47723,6,0,L|184:173,1,105,6|2,0:0|0:0,0:0:0:0:
128,258,48701,2,0,L|77:165,1,105,8|2,0:0|0:0,0:0:0:0:
185,170,49680,1,6,0:2:0:0:
313,225,50332,6,0,P|389:239|433:228,1,105,6|2,0:0|0:0,0:0:0:0:
478,150,51310,2,0,P|402:136|358:147,1,105,8|2,0:0|0:0,0:0:0:0:
313,225,52288,2,0,L|269:286,1,69.9999999999999,8|8,0:3|0:0,0:0:0:0:
211,317,52940,6,0,P|139:332|97:327,1,105,6|2,0:0|0:0,0:0:0:0:
31,257,53919,2,0,P|16:185|21:143,1,105,8|2,0:0|0:0,0:0:0:0:
117,190,54897,2,0,L|187:213,1,69.9999999999999,2|8,0:0|0:0,0:0:0:0:
246,241,55549,6,0,P|291:187|293:102,1,140,6|0,0:0|0:0,0:0:0:0:
168,68,56853,2,0,P|123:122|121:207,1,140,2|2,0:0|0:0,0:0:0:0:
225,277,58158,6,0,B|281:317|281:317|369:293,1,140,6|2,0:0|0:0,0:0:0:0:
296,168,59462,2,0,B|240:128|240:128|152:152,1,140,6|2,0:2|0:0,0:0:0:0:
115,275,60767,2,0,P|51:234|36:161,1,140,2|2,0:0|0:0,0:0:0:0:
128,71,62071,2,0,L|203:33,1,69.9999999999999,2|6,0:0|0:2,0:0:0:0:
260,39,62723,2,0,L|322:70,1,69.9999999999999,2|6,0:0|0:2,0:0:0:0:
369,122,63375,6,0,L|460:91,2,69.9999999999999,6|2|2,0:0|0:0|0:0,0:0:0:0:
252,200,64680,2,0,L|161:169,2,69.9999999999999,6|2|2,0:2|0:0|0:0,0:0:0:0:
370,273,65984,2,0,L|461:242,2,69.9999999999999,6|2|6,0:2|0:0|0:0,0:0:0:0:
305,300,66962,1,6,0:0:0:0:
238,320,67288,6,0,P|171:330|142:326,2,69.9999999999999,8|2|12,0:0|0:0|0:2,0:0:0:0:
256,252,68267,1,8,0:0:0:0:
236,184,68593,6,0,P|184:120|120:112,1,140,6|2,0:0|0:0,0:0:0:0:
68,144,69571,1,2,0:0:0:0:
72,212,69897,2,0,L|180:316,1,140,6|2,0:2|0:0,0:0:0:0:
240,324,70875,1,2,0:0:0:0:
284,268,71201,6,0,P|324:244|432:260,1,140,6|2,0:2|0:0,0:0:0:0:
452,308,72180,1,2,0:0:0:0:
504,260,72506,2,0,L|504:120,1,140,2|2,0:0|0:0,0:0:0:0:
444,84,73484,1,6,0:2:0:0:
388,128,73810,6,0,L|356:196,2,69.9999999999999,2|2|2,0:0|0:0|0:0,0:0:0:0:
324,100,74788,2,0,L|294:36,2,69.9999999999999,2|2|2,0:0|0:0|0:0,0:0:0:0:
260,128,75767,2,0,L|228:196,1,69.9999999999999,2|2,0:0|0:0,0:0:0:0:
200,256,76419,1,6,0:0:0:0:
200,256,77723,6,0,L|232:324,2,69.9999999999999,0|0|8,0:0|0:0|0:3,0:0:0:0:
172,192,78701,1,0,0:0:0:0:
156,124,79027,6,0,P|192:76|224:64,2,69.9999999999999,6|8|2,0:0|0:0|0:0,0:0:0:0:
288,164,80332,2,0,P|315:142|331:111,2,69.9999999999999,2|8|2,0:0|0:0|0:0,0:0:0:0:
152,196,81636,2,0,P|160:244|180:268,1,69.9999999999999,6|8,0:0|0:0,0:0:0:0:
240,240,82288,2,0,P|257:269|259:304,1,69.9999999999999,2|8,0:0|0:0,0:0:0:0:
220,364,82940,2,0,B|291:363|291:363|368:320,1,140,2|2,0:0|0:0,0:0:0:0:
412,204,84245,6,0,L|464:264,2,69.9999999999999,6|8|2,0:0|0:0|0:0,0:0:0:0:
368,148,85223,2,0,L|320:88,1,69.9999999999999,8|2,0:0|0:0,0:0:0:0:
276,44,85875,2,0,B|207:44|207:44|163:106,1,140,8|8,0:0|0:0,0:0:0:0:
140,164,86853,6,0,P|168:240|224:264,1,140,6|2,0:0|0:0,0:0:0:0:
272,136,88158,2,0,P|244:60|188:36,1,140,2|2,0:0|0:0,0:0:0:0:
80,116,89462,6,0,L|36:48,2,69.9999999999999,6|8|2,0:0|0:0|0:0,0:0:0:0:
80,256,90767,2,0,L|36:324,2,69.9999999999999,2|8|2,0:0|0:0|0:0,0:0:0:0:
216,216,92071,2,0,P|272:188|280:176,1,69.9999999999999,6|8,0:0|0:0,0:0:0:0:
256,116,92723,2,0,P|281:92|315:83,1,69.9999999999999,2|8,0:0|0:0,0:0:0:0:
384,88,93375,2,0,B|456:96|456:96|492:180,1,140,2|2,0:0|0:0,0:0:0:0:
420,284,94680,6,0,L|452:360,2,69.9999999999999,6|8|2,0:0|0:0|0:0,0:0:0:0:
392,220,95658,2,0,P|344:204|312:208,1,69.9999999999999,8|2,0:0|0:0,0:0:0:0:
268,244,96310,2,0,B|228:300|228:300|148:304,1,140,8|8,0:0|0:0,0:0:0:0:
92,276,97288,6,0,P|68:200|84:132,1,140,12|12,0:2|0:2,0:0:0:0:
128,92,98267,1,12,0:2:0:0:
196,72,98593,1,12,0:0:0:0:
196,72,99897,5,6,0:0:0:0:
256,192,100223,12,0,105114,0:0:0:0:
104,136,110006,5,2,0:0:0:0:
128,200,110332,2,0,B|204:248,1,69.9999999999999,6|0,0:0|0:0,0:0:0:0:
200,304,110984,1,8,0:0:0:0:
304,316,111473,2,0,P|348:292|376:248,1,69.9999999999999,2|2,0:0|0:0,0:0:0:0:
322,179,112288,1,8,0:0:0:0:
312,109,112614,5,2,0:0:0:0:
372,72,112940,2,0,P|420:84|456:120,1,69.9999999999999,2|4,0:0|0:2,0:0:0:0:
472,156,113593,1,8,0:0:0:0:
448,256,114082,2,0,P|404:232|376:188,1,69.9999999999999,2|2,0:0|0:0,0:0:0:0:
305,156,114897,1,12,0:2:0:0:
236,168,115223,5,8,0:3:0:0:
180,212,115549,2,0,L|224:280,1,69.9999999999999,6|0,0:0|0:0,0:0:0:0:
184,332,116201,1,8,0:0:0:0:
80,324,116690,2,0,P|48:260|56:204,1,105,2|0,0:0|0:0,0:0:0:0:
92,172,117506,2,0,P|116:136|124:100,1,69.9999999999999,8|2,0:0|0:0,0:0:0:0:
156,48,118158,6,0,P|220:80|296:64,1,140,6|8,0:2|0:0,0:0:0:0:
422,39,119462,1,2,0:0:0:0:
490,160,120114,1,8,0:0:0:0:
423,183,120440,1,8,0:0:0:0:
353,188,120767,6,0,P|286:172|234:122,1,140,6|2,0:0|0:0,0:0:0:0:
204,60,121745,1,2,0:0:0:0:
144,28,122071,2,0,P|81:56|40:113,1,140,6|0,0:2|0:0,0:0:0:0:
56,180,123049,1,2,0:0:0:0:
112,224,123375,6,0,L|244:152,1,140,2|2,0:0|0:0,0:0:0:0:
304,164,124353,1,2,0:0:0:0:
368,192,124680,2,0,L|319:323,1,140,2|2,0:0|0:0,0:0:0:0:
252,348,125658,1,6,0:2:0:0:
192,316,125984,6,0,L|148:236,2,69.9999999999999,6|8|2,0:0|0:0|0:0,0:0:0:0:
124,336,126962,2,0,L|48:304,2,69.9999999999999,8|2|2,0:0|0:0|0:0,0:0:0:0:
192,316,127940,2,0,L|280:276,1,69.9999999999999,2|2,0:0|0:0,0:0:0:0:
320,260,128593,1,6,0:0:0:0:
76,120,129897,6,0,L|12:64,2,69.9999999999999
144,144,130875,1,0,0:0:0:0:
200,104,131201,6,0,P|264:76|340:96,1,140,6|8,0:0|0:0,0:0:0:0:
276,220,132506,2,0,P|343:233|406:205,1,140,0|8,0:0|0:0,0:0:0:0:
384,68,133810,6,0,L|316:132,1,69.9999999999999,6|0,0:0|0:0,0:0:0:0:
268,88,134462,2,0,L|200:152,1,69.9999999999999,8|0,0:0|0:0,0:0:0:0:
168,184,135114,1,0,0:0:0:0:
108,148,135440,2,0,P|60:160|44:172,1,69.9999999999999,2|12,0:0|0:2,0:0:0:0:
132,284,136419,6,0,B|204:288|204:288|268:232,1,140,6|8,0:0|0:0,0:0:0:0:
152,148,137723,2,0,B|203:103|203:103|275:107,1,140,0|8,0:0|0:0,0:0:0:0:
332,148,138701,1,2,0:0:0:0:
396,180,139027,6,0,B|476:104|476:104|456:56,1,140,6|8,0:0|0:0,0:0:0:0:
404,40,140006,1,2,0:0:0:0:
336,40,140332,2,0,B|260:120|260:120|212:100,1,140,2|8,0:0|0:3,0:0:0:0:
92,96,141636,6,0,L|92:176,2,69.9999999999999,6|8|2,0:0|0:0|0:0,0:0:0:0:
180,204,142940,2,0,L|180:124,2,69.9999999999999,2|8|2,0:0|0:0|0:0,0:0:0:0:
92,312,144245,2,0,P|140:340|172:340,1,69.9999999999999,6|8,0:0|0:0,0:0:0:0:
204,292,144897,2,0,P|237:283|271:289,1,69.9999999999999,2|8,0:0|0:0,0:0:0:0:
316,344,145549,2,0,B|388:332|388:332|428:264,1,140,2|2,0:0|0:0,0:0:0:0:
376,144,146853,6,0,L|404:52,2,69.9999999999999,6|8|2,0:0|0:0|0:0,0:0:0:0:
336,200,147832,2,0,P|292:212|256:208,1,69.9999999999999,8|2,0:0|0:0,0:0:0:0:
220,160,148484,2,0,B|148:168|148:168|116:236,1,140,8|8,0:0|0:0,0:0:0:0:
144,296,149462,2,0,P|232:312|304:284,1,140,8|12,0:0|0:2,0:0:0:0:
316,164,150767,6,0,P|380:188|412:256,1,140,12|8,0:0|0:3,0:0:0:0:
256,192,152071,12,0,156636,0:0:0:0:
128,104,162506,6,0,B|224:168|284:48|404:108,1,280,6|8,0:0|0:0,0:0:0:0:
397,279,165114,2,0,B|284:336|224:216|128:280,1,280,6|8,0:0|0:0,0:0:0:0:
84,148,167071,2,0,P|120:96|144:80,1,69.9999999999999,8|8,0:0|0:0,0:0:0:0:
192,76,167723,6,0,B|314:109|278:238|392:255,1,280,6|2,0:0|0:0,0:0:0:0:
416,92,170332,2,0,B|293:125|329:254|215:271,1,280,6|0,0:0|0:0,0:0:0:0:
180,136,172288,1,8,0:3:0:0:
292,220,172940,6,0,B|355:192|355:192|379:104,1,140,6|2,0:0|0:0,0:0:0:0:
235,103,174244,2,0,B|171:130|171:130|147:218,1,140,6|2,0:0|0:0,0:0:0:0:
233,313,175549,2,0,P|164:346|94:322,1,140,6|2,0:0|0:0,0:0:0:0:
65,197,176853,2,0,L|71:113,1,69.9999999999999,8|2,0:0|0:0,0:0:0:0:
106,67,177505,2,0,L|164:29,1,69.9999999999999,8|2,0:0|0:0,0:0:0:0:
236,36,178158,6,0,L|319:82,2,69.9999999999999,6|2|2,0:0|0:0|0:0,0:0:0:0:
160,152,179462,2,0,L|76:198,2,69.9999999999999,6|2|2,0:0|0:0|0:0,0:0:0:0:
260,252,180767,2,0,L|343:298,2,69.9999999999999,6|2|2,0:0|0:0|0:0,0:0:0:0:
248,184,181745,1,8,0:0:0:0:
244,116,182071,6,0,P|192:84|176:60,2,69.9999999999999,8|2|2,0:3|0:0|0:0,0:0:0:0:
312,128,183049,1,2,0:0:0:0:
380,140,183375,6,0,P|416:192|384:260,1,140,6|2,0:0|0:0,0:0:0:0:
320,268,184353,1,2,0:0:0:0:
264,224,184680,2,0,P|205:190|146:221,1,140,2|2,0:0|0:0,0:0:0:0:
128,288,185658,1,2,0:0:0:0:
180,336,185984,6,0,P|240:348|324:344,1,140,6|2,0:0|0:0,0:0:0:0:
380,312,186962,1,2,0:0:0:0:
420,256,187288,2,0,P|432:196|428:111,1,140,6|2,0:2|0:0,0:0:0:0:
380,68,188267,1,2,0:0:0:0:
324,112,188593,6,0,L|292:184,2,69.9999999999999,6|2|2,0:0|0:0|0:0,0:0:0:0:
264,76,189571,2,0,L|232:4,2,69.9999999999999,8|6|2,0:0|0:0|0:0,0:0:0:0:
220,132,190549,2,0,L|132:132,1,69.9999999999999,2|8,0:0|0:0,0:0:0:0:
84,104,191201,2,0,B|24:168|128:232|68:304,1,210,6|2,0:0|0:0,0:0:0:0:
116,352,192506,6,0,P|164:360|200:356,1,69.9999999999999,6|0,0:0|0:0,0:0:0:0:
212,292,193158,2,0,P|246:291|281:298,1,69.9999999999999
340,340,193810,6,0,B|412:328|412:328|452:244,1,140,6|0,0:0|0:0,0:0:0:0:
420,128,195114,2,0,B|348:140|348:140|308:224,1,140,4|0,0:2|0:0,0:0:0:0:
260,328,196419,2,0,P|312:340|335:335,2,69.9999999999999,6|0|0,0:0|0:0|0:0,0:0:0:0:
208,280,197397,1,0,0:0:0:0:
160,328,197723,2,0,P|107:340|84:335,2,69.9999999999999,2|0|2,0:0|0:0|0:0,0:0:0:0:
108,200,199027,6,0,B|152:140|152:140|204:164|240:148,1,140,6|0,0:0|0:0,0:0:0:0:
264,100,200006,1,2,0:0:0:0:
312,152,200332,2,0,B|323:161|375:137|375:137|419:197,1,140,12|8,0:2|0:3,0:0:0:0:
412,268,201310,1,8,0:0:0:0:
356,312,201636,6,0,L|280:272,1,69.9999999999999,6|2,0:0|0:0,0:0:0:0:
224,264,202288,2,0,P|176:304|148:304,1,69.9999999999999,2|2,0:0|0:0,0:0:0:0:
108,276,202940,2,0,L|59:205,1,69.9999999999999,2|2,0:0|0:0,0:0:0:0:
32,160,203593,1,6,0:2:0:0:
148,80,204245,6,0,L|216:36,2,69.9999999999999,6|8|2,0:0|0:0|0:0,0:0:0:0:
160,220,205549,2,0,L|92:264,2,69.9999999999999,2|8|2,0:0|0:0|0:0,0:0:0:0:
276,144,206853,2,0,P|320:168|336:192,1,69.9999999999999,6|8,0:0|0:0,0:0:0:0:
304,248,207506,2,0,P|327:273|359:287,1,69.9999999999999,2|8,0:0|0:0,0:0:0:0:
428,284,208158,2,0,B|484:228|484:228|448:192|444:152,1,140,2|2,0:0|0:0,0:0:0:0:
424,40,209462,6,0,P|473:36|506:54,2,69.9999999999999,6|8|2,0:0|0:0|0:0,0:0:0:0:
384,96,210440,2,0,P|334:99|301:81,1,69.9999999999999,8|2,0:0|0:0,0:0:0:0:
264,48,211093,2,0,B|192:48|192:48|124:104,1,140,8|8,0:0|0:0,0:0:0:0:
112,156,212071,2,0,P|120:224|180:274,1,140,6|6,0:0|0:2,0:0:0:0:
240,288,213049,1,6,0:2:0:0:
308,268,213375,1,6,0:0:0:0:
480,48,214680,6,0,B|480:109|480:109|439:133,2,105,6|2|2,0:0|0:0|0:0,0:0:0:0:
376,48,216147,1,2,0:0:0:0:
324,140,216636,2,0,L|244:92,1,69.9999999999999,6|6,0:2|0:2,0:0:0:0:
196,96,217288,6,0,P|143:111|102:162,2,105,6|2|2,0:0|0:0|0:0,0:0:0:0:
196,200,218756,1,2,0:0:0:0:
196,304,219245,2,0,L|284:344,1,69.9999999999999,2|8,0:0|0:3,0:0:0:0:
328,340,219897,6,0,P|388:328|428:280,2,105,6|2|2,0:0|0:0|0:0,0:0:0:0:
336,236,221364,1,2,0:0:0:0:
400,152,221853,2,0,P|413:100|407:75,1,69.9999999999999,6|6,0:2|0:2,0:0:0:0:
352,48,222506,6,0,P|272:76|232:64,2,105,6|2|6,0:0|0:0|0:0,0:0:0:0:
456,48,223973,1,6,0:0:0:0:
436,152,224462,2,0,L|384:208,1,69.9999999999999,2|2,0:0|0:0,0:0:0:0:
