osu file format v14

[General]
AudioFilename: audio.mp3
AudioLeadIn: 0
PreviewTime: -1
Countdown: 0
SampleSet: Normal
StackLeniency: 0.7
Mode: 0
LetterboxInBreaks: 0
WidescreenStoryboard: 0

[Editor]
Bookmarks: 17744,33849,61954,77112,88165,102375,107428,136480,144059,147849,151638,155428,159217,163007,166796,192059,204691,217323
DistanceSpacing: 0.8
BeatDivisor: 4
GridSize: 4
TimelineZoom: 1.8

[Metadata]
Title:Leia
TitleUnicode:Leia
Artist:Yuyoyuppe feat. Megurine Luka
ArtistUnicode:ゆよゆっぺ feat.巡音ルカ
Creator:Herbayse
Version:Extra
Source:
Tags:vocaloid
BeatmapID:1112615
BeatmapSetID:524190

[Difficulty]
HPDrainRate:5.5
CircleSize:4
OverallDifficulty:9
ApproachRate:9.3
SliderMultiplier:1.9
SliderTickRate:1

[Events]
//Background and Video events
0,0,"Leia.jpg",0,0
//Break Periods
//Storyboard Layer 0 (Background)
//Storyboard Layer 1 (Fail)
//Storyboard Layer 2 (Pass)
//Storyboard Layer 3 (Foreground)
//Storyboard Sound Samples

[TimingPoints]
1323,315.789473684211,4,1,0,100,1,0
2744,-66.6666666666667,4,1,0,70,0,0
2901,-100,4,1,0,70,0,0
17744,-100,4,1,0,80,0,1
30375,-133.333333333333,4,2,0,50,0,0
61954,-200,4,2,0,30,0,0
76480,-100,4,2,0,40,0,0
77112,-100,4,1,0,80,0,1
102375,-80,4,1,0,80,0,1
107112,-100,4,1,0,70,0,0
117217,-80,4,1,0,70,0,0
117849,-100,4,1,0,70,0,0
166796,-200,4,2,0,40,0,0
179428,-166.666666666667,4,2,0,40,0,0
188586,-181.818181818182,4,2,0,30,0,0
188901,-200,4,2,0,20,0,0
189059,-200,4,2,2,20,0,0
189217,-200,4,2,0,20,0,0
191428,-200,4,2,0,60,0,0
192059,-100,4,1,0,80,0,1
204691,-83.3333333333333,4,1,0,80,0,1

[HitObjects]
108,236,1323,5,0,0:0:0:0:
112,244,1401,1,0,0:0:0:0:
116,252,1480,1,0,0:0:0:0:
252,176,1638,5,0,0:0:0:0:
250,184,1716,1,0,0:0:0:0:
249,193,1795,1,0,0:0:0:0:
392,312,1954,5,0,0:0:0:0:
248,232,2112,1,0,0:0:0:0:
440,168,2270,1,0,0:0:0:0:
336,88,2428,1,0,0:0:0:0:
332,96,2507,1,0,0:0:0:0:
328,104,2586,1,0,0:0:0:0:
188,184,2744,6,0,B|220:176|248:180|248:180|272:208|272:208|296:208|332:200,1,142.500005435944
312,324,3059,5,0,0:0:0:0:
316,316,3138,1,0,0:0:0:0:
320,308,3217,1,0,0:0:0:0:
192,272,3375,5,0,0:0:0:0:
200,271,3454,1,0,0:0:0:0:
209,270,3533,1,0,0:0:0:0:
312,148,3691,5,0,0:0:0:0:
244,260,3849,1,0,0:0:0:0:
272,64,4007,1,0,0:0:0:0:
348,240,4165,1,0,0:0:0:0:
356,244,4244,1,0,0:0:0:0:
364,248,4323,1,0,0:0:0:0:
456,104,4480,6,0,B|464:152|464:152|456:200,1,95
280,216,4796,1,0,0:0:0:0:
444,252,4954,1,0,0:0:0:0:
348,124,5112,1,0,0:0:0:0:
340,120,5191,1,0,0:0:0:0:
332,120,5270,1,0,0:0:0:0:
188,148,5428,1,0,0:0:0:0:
196,152,5507,1,0,0:0:0:0:
204,152,5586,1,0,0:0:0:0:
304,292,5744,5,0,0:0:0:0:
244,124,5901,1,0,0:0:0:0:
228,336,6059,1,0,0:0:0:0:
332,240,6217,1,0,0:0:0:0:
340,232,6296,1,0,0:0:0:0:
348,224,6375,1,0,0:0:0:0:
148,208,6533,1,0,0:0:0:0:
148,208,6691,1,0,0:0:0:0:
376,352,6849,5,0,0:0:0:0:
380,344,6928,1,0,0:0:0:0:
376,336,7007,1,0,0:0:0:0:
292,228,7165,1,0,0:0:0:0:
288,220,7244,1,0,0:0:0:0:
292,212,7323,1,0,0:0:0:0:
448,152,7480,1,0,0:0:0:0:
392,268,7638,1,0,0:0:0:0:
344,68,7796,1,0,0:0:0:0:
156,144,7954,5,0,0:0:0:0:
164,144,8033,1,0,0:0:0:0:
172,144,8112,1,0,0:0:0:0:
128,292,8270,1,0,0:0:0:0:
136,288,8349,1,0,0:0:0:0:
144,284,8428,1,0,0:0:0:0:
152,280,8507,1,0,0:0:0:0:
160,276,8586,6,0,B|192:264|232:276|232:276|260:308|260:308|300:320|352:300,1,190
416,268,9059,2,0,P|428:216|420:172,1,95
340,68,9375,1,0,0:0:0:0:
240,168,9533,2,0,P|279:204|321:219,1,95
128,88,9849,2,0,B|124:120|124:120|132:152|132:152|128:188|128:188,1,95
176,328,10165,5,0,0:0:0:0:
180,320,10244,1,0,0:0:0:0:
184,312,10322,1,0,0:0:0:0:
300,264,10480,1,0,0:0:0:0:
304,272,10559,1,0,0:0:0:0:
308,280,10638,1,0,0:0:0:0:
436,348,10796,2,0,B|440:312|440:312|432:284|432:284|436:244,1,95
400,96,11112,5,0,0:0:0:0:
392,100,11191,1,0,0:0:0:0:
384,104,11270,1,0,0:0:0:0:
256,168,11428,1,0,0:0:0:0:
248,164,11507,1,0,0:0:0:0:
240,160,11586,1,0,0:0:0:0:
116,80,11744,2,0,L|112:244,2,142.5
188,256,12375,5,0,0:0:0:0:
188,264,12454,1,0,0:0:0:0:
192,272,12533,1,0,0:0:0:0:
352,320,12691,1,0,0:0:0:0:
352,312,12770,1,0,0:0:0:0:
348,304,12849,1,0,0:0:0:0:
216,164,13007,1,0,0:0:0:0:
376,200,13165,1,0,0:0:0:0:
244,312,13322,1,0,0:0:0:0:
320,100,13480,5,0,0:0:0:0:
328,104,13559,1,0,0:0:0:0:
336,108,13638,1,0,0:0:0:0:
376,200,13796,2,0,L|276:208,1,95
188,128,14112,1,0,0:0:0:0:
160,252,14270,2,0,L|176:360,1,95
64,136,14586,2,0,L|48:244,1,95
32,316,14901,1,0,0:0:0:0:
216,100,16954,5,0,0:0:0:0:
216,100,17033,1,0,0:0:0:0:
216,100,17112,1,0,0:0:0:0:
280,168,17270,1,0,0:0:0:0:
212,236,17428,1,0,0:0:0:0:
140,168,17586,1,0,0:0:0:0:
372,108,17744,6,0,L|372:300,1,190
268,368,18217,1,0,0:0:0:0:
184,252,18375,2,0,P|188:192|232:152,1,95
124,40,18691,2,0,P|120:100|76:140,1,95
336,168,19007,6,0,B|348:120|348:120|340:68,1,95
240,204,19323,2,0,P|336:272|424:224,1,190
240,108,19796,2,0,P|188:120|152:160,1,95
324,320,20112,5,0,0:0:0:0:
356,300,20191,1,0,0:0:0:0:
372,264,20270,2,0,P|384:208|368:168,1,95
260,236,20586,1,0,0:0:0:0:
392,72,20744,1,0,0:0:0:0:
124,72,20901,2,0,B|120:136|120:136|144:180|144:180|136:268,1,190
248,340,21375,6,0,L|260:240,1,95
380,184,21691,2,0,L|368:284,1,95
304,84,22007,5,0,0:0:0:0:
304,84,22086,1,0,0:0:0:0:
304,84,22165,1,0,0:0:0:0:
184,196,22323,1,0,0:0:0:0:
328,156,22480,1,8,0:0:0:0:
204,284,22638,1,8,0:0:0:0:
260,120,22796,1,0,0:0:0:0:
132,244,22954,2,0,B|84:252|64:240|64:240|96:204|96:204,1,95
316,200,23270,5,0,0:0:0:0:
340,228,23349,1,0,0:0:0:0:
344,264,23428,2,0,P|332:320|300:348,1,95
160,160,23744,1,0,0:0:0:0:
456,152,23901,1,0,0:0:0:0:
112,236,24059,2,0,B|66:203|66:203|80:48,1,190
259,55,24533,6,0,L|251:155,1,95
365,243,24849,2,0,L|373:143,1,95
244,229,25165,1,0,0:0:0:0:
461,200,25323,1,0,0:0:0:0:
158,187,25480,1,0,0:0:0:0:
158,187,25559,1,0,0:0:0:0:
158,187,25638,2,0,B|151:261|151:261|180:303|180:303|174:373,1,190
260,232,26112,2,0,L|268:136,1,95
400,96,26428,5,0,0:0:0:0:
400,96,26586,2,0,P|444:184|400:264,1,190
248,256,27059,1,0,0:0:0:0:
248,256,27138,1,0,0:0:0:0:
248,256,27217,2,0,B|232:212|232:212|244:160,1,95
352,180,27533,1,0,0:0:0:0:
176,72,27691,2,0,L|167:167,1,95
248,288,28007,5,0,0:0:0:0:
248,288,28165,2,0,B|256:236|256:236|240:192,1,95
84,136,28480,2,0,B|76:188|76:188|90:227,1,95
232,116,28796,1,0,0:0:0:0:
256,108,28875,1,0,0:0:0:0:
280,108,28954,1,0,0:0:0:0:
304,112,29033,1,0,0:0:0:0:
324,124,29112,5,0,0:0:0:0:
252,332,29270,1,0,0:0:0:0:
120,136,29428,5,0,0:0:0:0:
400,208,29586,1,0,0:0:0:0:
124,320,29744,5,0,0:0:0:0:
268,40,29901,1,0,0:0:0:0:
380,344,30059,5,0,0:0:0:0:
52,200,30217,1,0,0:0:0:0:
436,92,30375,6,0,B|429:163|429:163|460:228|460:228|452:308,6,213.750008153916
320,48,33375,2,0,L|272:40,1,35.625001358986
192,112,33533,1,0,0:0:0:0:
180,132,33612,1,0,0:0:0:0:
176,156,33691,1,0,0:0:0:0:
180,180,33770,1,0,0:0:0:0:
192,200,33849,6,0,P|248:224|336:200,1,142.500005435944
416,148,34323,2,0,P|444:180|448:236,1,71.2500027179719
336,100,34638,1,0,0:0:0:0:
336,100,34796,2,0,P|345:66|369:39,1,71.2500027179719
332,188,35112,2,0,P|297:195|263:187,1,71.2500027179719
144,112,35428,6,0,L|129:275,1,142.500005435944
216,344,35901,1,0,0:0:0:0:
216,344,36059,2,0,L|223:256,1,71.2500027179719
336,228,36375,1,0,0:0:0:0:
336,228,36533,2,0,L|328:315,1,71.2500027179719
268,156,36849,6,0,P|352:124|404:164,1,142.500005435944
244,236,37323,6,0,B|216:244|184:228|184:228|164:244|164:244|136:232|100:244,1,142.500005435944
252,120,37796,1,0,0:0:0:0:
252,120,37954,2,0,P|296:116|328:132,1,71.2500027179719
288,272,38270,2,0,P|272:240|276:200,1,71.2500027179719
396,180,38586,2,0,P|412:212|408:252,1,71.2500027179719
336,344,38901,1,0,0:0:0:0:
240,224,39059,1,0,0:0:0:0:
240,224,39217,6,0,B|184:219|184:219|154:240|154:240|102:236,1,142.500005435944
188,116,39849,2,0,B|228:124|228:124|260:116,1,71.2500027179719
348,76,40165,2,0,P|380:140|340:216,1,142.500005435944
460,232,40638,5,0,0:0:0:0:
460,232,40796,2,0,B|440:276|456:320|456:320|428:328|376:304,1,142.500005435944
280,236,41270,2,0,P|276:312|320:276,1,142.500005435944
328,156,41744,2,0,P|284:144|244:152,1,71.2500027179719
232,60,42059,2,0,P|192:82|169:116,1,71.2500027179719
96,60,42375,2,0,P|84:104|92:144,1,71.2500027179719
120,248,42691,6,0,B|152:256|176:244|176:244|200:264|200:264|224:248|256:256,1,142.500005435944
304,320,43165,2,0,P|336:256|308:192,1,142.500005435944
232,116,43638,2,0,B|264:96|264:96|304:100,1,71.2500027179719
392,176,43954,1,0,0:0:0:0:
300,92,44112,1,0,0:0:0:0:
472,80,44270,6,0,B|456:120|484:148|484:148|492:196|464:232,1,142.500005435944
364,256,44744,2,0,P|324:208|396:192,1,142.500005435944
344,336,45217,2,0,P|296:316|268:288,1,71.2500027179719
248,192,45533,2,0,P|200:212|172:240,1,71.2500027179719
116,328,45849,2,0,P|96:279|96:240,1,71.2500027179719
88,104,46165,6,0,B|132:104|160:72|160:72|196:92|180:148,1,142.500005435944
116,184,46638,1,0,0:0:0:0:
272,200,46796,1,0,0:0:0:0:
164,248,46954,1,0,0:0:0:0:
268,108,47112,2,0,L|352:116,1,71.2500027179719
452,192,47428,2,0,L|368:200,1,71.2500027179719
164,248,47744,6,0,P|143:181|166:115,1,142.500005435944
300,168,48217,1,0,0:0:0:0:
300,168,48375,2,0,B|308:208|308:208|296:244,1,71.2500027179719
336,88,48691,2,0,B|369:110|369:110|386:144,1,71.2500027179719
212,168,49007,2,0,B|204:208|204:208|213:236,1,71.2500027179719
176,88,49323,2,0,B|142:110|142:110|128:137,1,71.2500027179719
100,288,49638,6,0,B|151:292|151:292|181:315|181:315|241:320,1,142.500005435944
336,284,50112,2,0,P|344:244|336:208,1,71.2500027179719
216,160,50428,1,0,0:0:0:0:
216,160,50586,2,0,P|208:200|216:236,1,71.2500027179719
336,176,50901,1,0,0:0:0:0:
220,116,51059,1,0,0:0:0:0:
416,96,51217,6,0,B|424:128|416:156|416:156|432:180|432:180|424:208|432:244,1,142.500005435944
328,320,51691,2,0,B|320:284|320:284|328:240,1,71.2500027179719
232,188,52007,1,0,0:0:0:0:
232,188,52165,2,0,B|240:224|240:224|232:268,1,71.2500027179719
136,196,52480,2,0,B|128:160|128:160|136:116,1,71.2500027179719
328,124,52796,2,0,B|336:160|336:160|328:204,1,71.2500027179719
256,68,53112,6,0,P|320:36|392:64,1,142.500005435944
356,184,53586,1,0,0:0:0:0:
356,184,53744,2,0,P|316:192|280:184,1,71.2500027179719
148,144,54059,2,0,P|188:136|224:144,1,71.2500027179719
200,248,54375,5,8,3:3:0:0:
204,276,54454,1,8,3:0:0:0:
224,296,54533,1,8,3:0:0:0:
252,304,54612,1,8,3:0:0:0:
280,300,54691,2,0,B|332:312|380:296|380:296|352:288|332:256,1,142.500005435944,8|0,3:0|3:0,3:0:0:0:
416,144,55165,2,0,P|424:184|416:216,1,71.2500027179719
304,96,55480,1,0,0:0:0:0:
304,96,55638,2,0,P|296:136|304:168,1,71.2500027179719
260,260,55954,6,0,P|224:272|164:256,1,71.2500027179719
104,172,56270,2,0,P|140:160|200:176,1,71.2500027179719
292,260,56586,6,0,B|312:228|312:188|312:188|276:160|284:108,1,142.500005435944
340,328,57059,2,0,P|276:344|216:296,1,142.500005435944
368,124,57533,2,0,P|404:116|444:124,1,71.2500027179719
437,121,57849,1,0,0:0:0:0:
264,236,58165,6,0,P|240:168|264:92,1,142.500005435944
396,168,58638,2,0,P|352:200|340:128,1,142.500005435944
464,104,59112,2,0,P|481:172|457:238,1,142.500005435944
216,248,59744,6,0,P|207:213|213:178,1,71.2500027179719
344,128,60059,2,0,P|352:162|346:197,1,71.2500027179719
224,252,60375,6,0,P|215:217|221:182,1,71.2500027179719
351,131,60690,2,0,P|359:165|353:200,1,71.2500027179719
312,304,61007,1,8,3:0:0:0:
312,304,61086,1,8,3:0:0:0:
312,304,61165,1,8,3:0:0:0:
312,304,61244,1,8,3:0:0:0:
312,304,61323,2,0,P|244:332|164:300,1,142.500005435944,8|0,3:0|3:0,3:0:0:0:
152,182,61954,6,0,L|157:127,4,47.5
264,100,62901,2,0,L|268:147,4,47.5
384,120,63849,6,0,P|404:176|388:220,1,95
284,236,64480,2,0,B|272:212|272:212|284:184,1,47.5
360,104,64796,2,0,P|316:84|264:92,1,95
200,176,65270,1,0,0:0:0:0:
220,40,65428,1,0,0:0:0:0:
100,157,65744,6,0,L|105:213,3,47.5
156,272,66375,1,0,0:0:0:0:
232,308,66533,1,0,0:0:0:0:
304,260,66691,1,0,0:0:0:0:
296,176,66849,1,0,0:0:0:0:
368,132,67007,1,0,0:0:0:0:
444,168,67165,1,0,0:0:0:0:
444,252,67323,2,0,P|424:272|384:272,1,47.5
372,128,67638,2,0,P|392:108|432:108,1,47.5
304,212,67954,5,0,0:0:0:0:
304,212,68112,2,0,B|256:208|228:244|228:244|192:236|208:180,1,142.5
384,132,68901,1,0,0:0:0:0:
384,132,69217,1,0,0:0:0:0:
384,132,69533,6,0,L|393:239,1,95,0|0,3:0|0:0,0:0:0:0:
296,296,70165,2,0,L|264:288,1,23.75
212,252,70323,2,0,P|200:204|240:180,1,95
368,128,70954,2,0,B|388:156|388:156|376:228,1,95
272,156,71428,6,0,P|268:100|296:56,1,95,8|0,3:0|3:0,3:0:0:0:
304,244,72059,2,0,P|248:248|204:220,1,95
392,212,72691,2,0,P|396:268|368:312,1,95
360,120,73323,2,0,P|416:116|460:144,1,95
252,272,73954,5,0,0:0:0:0:
160,172,74270,1,0,0:0:0:0:
292,152,74586,1,0,0:0:0:0:
152,280,74901,5,0,0:0:0:0:
208,84,75217,1,0,0:0:0:0:
328,240,75533,1,0,0:0:0:0:
120,176,75849,5,0,0:0:0:0:
327,133,76165,1,0,0:0:0:0:
327,133,76480,6,0,L|332:189,1,47.5
436,228,76638,2,0,L|431:172,1,47.5
320,128,76796,6,0,L|324:183,1,47.5
428,222,76954,2,0,L|423:166,1,47.5
216,76,77112,6,0,P|184:168|216:256,1,190
396,316,77586,2,0,B|412:272|412:272|404:220,1,95
276,172,77901,1,0,0:0:0:0:
384,104,78059,2,0,B|432:92|432:92|488:108,1,95
196,192,78375,5,0,0:0:0:0:
320,52,78533,1,0,0:0:0:0:
108,80,78691,2,0,B|80:140|80:140|112:272,1,190
264,328,79165,2,0,L|240:224,1,95
312,120,79480,5,0,0:0:0:0:
312,120,79559,1,0,0:0:0:0:
312,120,79638,1,0,0:0:0:0:
440,156,79796,1,0,0:0:0:0:
244,144,79954,1,0,0:0:0:0:
512,140,80112,1,0,0:0:0:0:
184,192,80270,2,0,B|156:152|156:152|184:100|152:48,1,142.5
148,40,80586,1,0,0:0:0:0:
100,236,80744,2,0,P|132:276|196:284,1,95
356,208,81059,5,0,0:0:0:0:
252,340,81217,1,0,0:0:0:0:
304,112,81375,1,0,0:0:0:0:
384,348,81533,1,0,0:0:0:0:
192,220,81691,2,0,L|195:125,1,95,0|8,0:0|0:0,0:0:0:0:
388,40,82007,2,0,L|384:134,1,95,8|0,0:0|0:0,0:0:0:0:
352,252,82323,5,0,0:0:0:0:
236,100,82480,1,0,0:0:0:0:
432,228,82638,1,0,0:0:0:0:
432,228,82717,1,0,0:0:0:0:
432,228,82796,1,0,0:0:0:0:
188,164,82954,1,0,0:0:0:0:
464,156,83112,1,0,0:0:0:0:
196,240,83270,1,0,0:0:0:0:
452,72,83428,2,0,L|340:62,1,95
200,112,83744,5,0,0:0:0:0:
121,224,83901,2,0,L|232:214,1,95
368,164,84217,5,0,0:0:0:0:
447,276,84374,2,0,L|335:266,1,95
240,120,84691,6,0,B|228:168|228:168|244:216,1,95
332,104,85007,2,0,P|260:36|168:56,1,190
340,192,85480,2,0,P|396:172|416:132,1,95
136,160,85796,5,0,0:0:0:0:
136,160,85875,1,0,0:0:0:0:
136,160,85954,2,0,B|120:212|120:212|132:260,1,95
288,320,86270,2,0,B|304:268|304:268|292:220,1,95
240,36,86586,2,0,L|212:224,1,190
304,324,87059,6,0,B|360:332|360:332|384:324|396:288,1,95
416,156,87375,1,0,0:0:0:0:
416,156,87454,1,0,0:0:0:0:
416,156,87533,2,0,B|360:148|360:148|336:156|324:192,1,95
156,280,87849,2,0,B|212:288|212:288|236:280|248:244,1,95
400,104,88165,5,0,0:0:0:0:
160,116,88323,1,0,0:0:0:0:
360,200,88480,5,0,0:0:0:0:
104,184,88638,1,0,0:0:0:0:
284,288,88796,5,0,0:0:0:0:
40,240,88954,1,0,0:0:0:0:
268,116,89112,6,0,L|328:112,1,47.5,0|0,3:0|3:0,3:0:0:0:
424,216,89270,2,0,L|364:220,1,47.5,0|0,3:0|3:0,3:0:0:0:
328,224,89428,1,0,3:0:0:0:
280,228,89507,1,0,3:0:0:0:
232,232,89586,1,0,3:0:0:0:
184,236,89665,1,0,3:0:0:0:
136,240,89744,2,0,B|116:180|116:180|136:140|136:140|116:52,1,190
308,140,90217,6,0,P|340:212|300:328,1,190
212,112,90691,1,0,0:0:0:0:
120,276,90849,1,0,0:0:0:0:
316,260,91007,1,0,0:0:0:0:
112,156,91165,1,0,0:0:0:0:
304,140,91323,2,0,L|408:132,1,95
228,288,91638,5,0,0:0:0:0:
200,104,91796,2,0,L|232:212,1,95
368,240,92112,1,0,0:0:0:0:
368,240,92191,1,0,0:0:0:0:
368,240,92270,1,0,0:0:0:0:
212,312,92428,1,0,0:0:0:0:
344,160,92586,1,0,0:0:0:0:
156,248,92744,1,0,0:0:0:0:
392,232,92901,2,0,B|436:200|436:200|448:112|380:64,1,190
215,156,93375,2,0,B|171:188|171:188|159:276|227:324,1,190
312,260,93849,6,0,L|320:156,1,95
456,88,94165,2,0,L|448:192,1,95
364,344,94480,1,0,0:0:0:0:
248,132,94638,1,0,0:0:0:0:
216,360,94796,1,0,0:0:0:0:
388,140,94954,5,0,0:0:0:0:
124,204,95112,1,0,0:0:0:0:
376,304,95270,1,0,0:0:0:0:
228,88,95428,5,0,3:0:0:0:
182,78,95506,1,0,3:0:0:0:
137,93,95585,1,0,3:0:0:0:
107,129,95664,1,0,3:0:0:0:
98,175,95743,1,0,3:0:0:0:
115,219,95822,1,0,3:0:0:0:
151,248,95901,1,0,3:0:0:0:
198,255,95980,1,0,3:0:0:0:
241,237,96059,2,0,B|276:220|316:232|316:232|336:212|336:212|376:240|440:212,1,190
396,68,96533,6,0,P|348:68|300:100,1,95
216,244,96849,1,0,0:0:0:0:
200,84,97007,1,0,0:0:0:0:
312,264,97165,1,0,0:0:0:0:
288,108,97323,1,0,0:0:0:0:
212,308,97480,1,0,0:0:0:0:
212,308,97559,1,0,0:0:0:0:
212,308,97638,2,0,B|192:264|192:264|204:216,1,95
368,192,97954,1,0,0:0:0:0:
368,192,98112,2,0,B|388:236|388:236|376:284,1,95
256,104,98428,1,0,0:0:0:0:
256,104,98586,6,0,P|168:88|112:112,1,142.5
112,128,98901,2,0,P|104:180|124:228,1,95
204,284,99217,2,0,B|248:300|280:280|280:280|316:296|316:296|356:276|400:292|400:292,1,190
444,168,99691,2,0,P|460:120|364:140,1,190
332,236,100165,2,0,B|284:252|284:252|240:236,1,95
112,116,100480,2,0,B|160:100|160:100|204:116,1,95
352,304,100796,5,0,3:0:0:0:
128,240,100954,1,0,3:0:0:0:
336,152,101112,1,0,3:0:0:0:
204,348,101270,5,0,3:0:0:0:
212,100,101428,1,0,3:0:0:0:
392,256,101586,1,0,3:0:0:0:
192,180,101744,5,0,3:0:0:0:
151,156,101822,1,0,3:0:0:0:
129,115,101901,1,0,3:0:0:0:
133,68,101980,1,0,3:0:0:0:
162,31,102059,1,0,3:0:0:0:
207,16,102138,1,0,3:0:0:0:
252,27,102217,1,0,3:0:0:0:
284,61,102296,1,0,3:0:0:0:
293,108,102375,6,0,P|356:128|428:104,1,118.75
406,117,102691,1,0,0:0:0:0:
276,300,102849,5,0,0:0:0:0:
212,100,103007,1,0,0:0:0:0:
408,184,103165,1,0,0:0:0:0:
160,284,103323,6,0,P|140:228|148:160,1,118.75
144,169,103638,1,0,0:0:0:0:
332,80,103796,5,0,0:0:0:0:
452,252,103954,1,0,0:0:0:0:
248,236,104112,1,0,0:0:0:0:
428,68,104270,6,0,P|444:128|432:192,1,118.75
428,184,104586,1,0,0:0:0:0:
212,120,104744,5,0,0:0:0:0:
312,328,104901,1,0,0:0:0:0:
352,104,105059,1,0,0:0:0:0:
192,240,105217,6,0,P|180:304|196:364,1,118.75
191,355,105533,1,0,0:0:0:0:
452,248,105691,5,0,0:0:0:0:
208,156,105849,1,0,0:0:0:0:
456,96,106007,1,0,0:0:0:0:
144,236,106165,5,0,0:0:0:0:
388,144,106323,1,0,0:0:0:0:
140,84,106481,1,0,0:0:0:0:
400,328,106638,5,0,0:0:0:0:
204,180,106796,1,0,0:0:0:0:
440,136,106954,1,0,0:0:0:0:
440,136,107033,1,0,0:0:0:0:
440,136,107112,2,0,B|440:208|440:208|416:252|416:252|416:320,1,190
168,84,107586,6,0,P|264:52|356:88,1,190
200,256,108059,2,0,P|184:208|192:152,1,95
324,164,108375,2,0,P|327:211|312:256,1,95
200,84,108691,1,0,0:0:0:0:
312,84,108849,1,0,0:0:0:0:
344,328,109007,2,0,P|248:360|156:324,1,190
336,236,109480,2,0,B|352:280|352:280|340:344|340:344,1,95
200,152,109796,1,0,0:0:0:0:
328,232,109954,1,0,0:0:0:0:
116,296,110112,1,0,0:0:0:0:
116,296,110270,6,0,B|104:264|116:224|116:224|104:196|104:196|120:156|108:108,1,190
348,104,110901,5,0,0:0:0:0:
348,104,111059,2,0,B|352:152|352:152|336:196,1,95
212,292,111375,1,0,0:0:0:0:
212,292,111454,1,0,0:0:0:0:
212,292,111533,2,0,B|168:256|176:208|176:208|220:176|212:120,1,190
320,252,112007,1,0,0:0:0:0:
124,116,112165,2,0,P|152:60|200:40,1,95
332,156,112480,2,0,P|304:212|256:232,1,95
132,256,112796,1,0,0:0:0:0:
240,76,112954,1,0,0:0:0:0:
332,156,113112,6,0,B|352:204|352:204|340:248,1,95
188,324,113428,2,0,B|168:276|168:276|180:232,1,95
392,240,113744,1,0,0:0:0:0:
192,332,113901,1,0,0:0:0:0:
424,320,114059,1,0,0:0:0:0:
180,240,114217,2,0,P|152:148|188:48,1,190
344,180,114691,2,0,P|288:192|256:160,1,95
440,72,115007,2,0,B|456:120|456:120|448:168,1,95
368,276,115323,5,0,0:0:0:0:
268,200,115480,1,0,0:0:0:0:
180,280,115638,1,0,0:0:0:0:
96,200,115796,1,0,0:0:0:0:
180,116,115954,2,0,B|200:104|224:116|224:116|240:108|240:108|256:116|256:116|308:96|364:120,1,190
440,212,116428,1,0,0:0:0:0:
348,312,116586,2,0,B|320:268|320:268|324:216|324:216,1,95
428,120,116901,2,0,B|456:164|456:164|452:216|452:216,1,95
332,132,117217,6,0,B|296:116|268:128|268:128|248:112|248:112|220:128|220:128|168:104|108:128,1,237.5
232,312,117849,5,0,0:0:0:0:
232,312,118007,2,0,P|280:316|328:296,1,95
224,172,118323,2,0,P|176:168|128:188,1,95
184,336,118638,1,0,0:0:0:0:
300,228,118796,2,0,P|312:148|236:80,1,190
160,192,119270,1,0,0:0:0:0:
308,228,119428,6,0,B|356:216|356:216|380:176,1,95
340,40,119744,2,0,B|292:52|292:52|268:91,1,95
124,232,120059,6,0,B|76:220|76:220|52:180,1,95
92,44,120375,2,0,B|140:56|140:56|163:95,1,95
196,312,120691,5,0,0:0:0:0:
340,316,120849,1,0,0:0:0:0:
168,204,121007,1,0,0:0:0:0:
372,204,121165,1,0,0:0:0:0:
132,104,121323,6,0,P|88:124|60:168,1,95
140,320,121638,2,0,P|184:300|212:256,1,95
380,104,121954,6,0,P|424:124|452:168,1,95
372,320,122269,2,0,P|328:300|300:256,1,95
256,74,122586,5,8,0:0:0:0:
186,287,122744,1,8,0:0:0:0:
368,155,122901,1,8,0:0:0:0:
143,155,123059,1,8,0:0:0:0:
325,287,123217,6,0,L|424:288,1,95
504,176,123533,1,0,0:0:0:0:
504,176,123691,2,0,L|405:176,1,95
264,176,124007,5,0,0:0:0:0:
264,176,124086,1,0,0:0:0:0:
264,176,124165,2,0,P|248:132|260:76,1,95
160,212,124480,2,0,P|176:256|164:312,1,95
156,112,124796,2,0,P|112:128|56:116,1,95
232,268,125112,5,0,0:0:0:0:
368,148,125270,1,0,0:0:0:0:
220,148,125428,1,0,0:0:0:0:
364,264,125586,1,0,0:0:0:0:
232,268,125744,2,0,B|160:268|160:268|184:248,1,95
368,148,126059,2,0,B|440:148|440:148|416:168,1,95
328,240,126375,5,8,0:0:0:0:
76,140,126533,1,8,0:0:0:0:
320,152,126691,5,8,0:0:0:0:
76,236,126849,1,8,0:0:0:0:
208,140,127007,6,0,B|216:188|216:188|200:236,1,95
320,344,127323,2,0,B|312:296|312:296|328:248,1,95
456,156,127638,2,0,B|464:204|464:204|448:252,2,95
380,64,128112,1,0,0:0:0:0:
272,120,128270,2,0,L|280:168,1,47.5,0|0,3:0|3:0,3:0:0:0:
292,236,128428,1,0,3:0:0:0:
220,356,128586,5,0,3:0:0:0:
174,341,128665,1,0,3:0:0:0:
174,293,128744,1,0,3:0:0:0:
220,279,128823,1,0,3:0:0:0:
247,317,128901,2,0,P|296:328|348:308,1,95
384,164,129217,2,0,P|335:153|283:173,1,95
172,204,129533,2,0,B|152:160|152:160|168:108,1,95
308,240,129849,2,0,B|328:284|328:284|312:336,1,95
148,304,130165,5,8,0:0:0:0:
163,128,130323,1,8,0:0:0:0:
275,311,130480,1,8,0:0:0:0:
291,135,130638,1,8,0:0:0:0:
136,300,130796,6,0,B|132:252|132:252|152:192,1,95
291,135,131112,2,0,B|305:179|305:179|301:227,1,95
180,196,131428,5,0,0:0:0:0:
396,168,131586,1,0,0:0:0:0:
320,288,131744,1,0,0:0:0:0:
280,104,131901,1,0,0:0:0:0:
296,300,132059,2,0,L|396:304,1,95
488,192,132375,2,0,L|388:196,1,95
224,184,132691,6,0,B|192:168|184:136|184:136|156:196|184:272,1,190
276,328,133165,1,0,0:0:0:0:
388,260,133323,2,0,P|404:212|396:164,1,95
284,88,133638,1,0,0:0:0:0:
440,92,133796,1,0,0:0:0:0:
244,184,133954,2,0,B|220:168|212:144|212:144|180:144|152:164,1,95
260,308,134270,6,0,P|324:296|348:264,1,95
228,340,134586,2,0,P|336:336|392:264,1,190
324,119,135059,2,0,P|216:123|160:195,1,190
386,278,135533,2,0,P|382:170|310:114,1,190
165,180,136007,1,0,3:0:0:0:
155,210,136085,1,0,3:0:0:0:
154,241,136164,1,0,3:0:0:0:
161,272,136243,1,0,3:0:0:0:
176,300,136322,1,0,3:0:0:0:
198,322,136401,1,0,3:0:0:0:
228,340,136480,2,0,P|336:336|392:264,1,190,8|0,0:0|0:0,0:0:0:0:
464,120,136954,5,0,0:0:0:0:
368,120,137112,1,0,0:0:0:0:
304,188,137270,1,0,0:0:0:0:
208,188,137428,1,0,0:0:0:0:
140,120,137586,1,0,0:0:0:0:
44,120,137744,1,0,0:0:0:0:
40,308,137901,5,0,0:0:0:0:
136,308,138059,1,0,0:0:0:0:
136,212,138217,1,0,0:0:0:0:
232,212,138375,1,0,0:0:0:0:
232,308,138533,1,0,0:0:0:0:
328,308,138691,1,0,0:0:0:0:
444,156,138849,5,0,0:0:0:0:
372,92,139007,1,0,0:0:0:0:
304,156,139165,1,0,0:0:0:0:
232,92,139323,1,0,0:0:0:0:
144,260,139480,5,0,0:0:0:0:
72,196,139638,1,0,0:0:0:0:
136,128,139796,1,0,0:0:0:0:
208,192,139954,1,0,0:0:0:0:
280,256,140112,1,0,0:0:0:0:
348,192,140270,1,8,0:0:0:0:
280,124,140428,1,0,0:0:0:0:
144,260,140586,5,0,0:0:0:0:
212,324,140744,1,0,0:0:0:0:
308,324,140901,1,0,0:0:0:0:
376,256,141059,1,0,0:0:0:0:
256,108,141217,5,0,0:0:0:0:
256,204,141375,1,0,0:0:0:0:
160,204,141533,1,0,0:0:0:0:
352,204,141691,1,0,0:0:0:0:
256,204,141849,1,0,0:0:0:0:
256,108,142007,1,0,0:0:0:0:
256,300,142165,5,0,0:0:0:0:
352,300,142323,1,0,0:0:0:0:
448,300,142480,1,0,0:0:0:0:
448,204,142638,1,0,0:0:0:0:
448,108,142796,5,0,0:0:0:0:
352,108,142954,1,0,0:0:0:0:
352,204,143112,1,0,0:0:0:0:
256,204,143270,1,0,0:0:0:0:
256,12,143428,6,0,L|256:68,1,47.5,0|0,3:0|3:0,3:0:0:0:
160,60,143586,2,0,L|160:12,1,47.5,0|0,3:0|3:0,3:0:0:0:
160,156,143744,6,0,L|160:212,1,47.5,0|0,3:0|3:0,3:0:0:0:
64,204,143902,2,0,L|64:156,1,47.5,0|0,3:0|3:0,3:0:0:0:
64,300,144059,2,0,B|136:300|136:300|176:332|176:332|248:332,1,190
436,332,144533,5,0,0:0:0:0:
436,216,144691,1,0,0:0:0:0:
320,216,144849,1,0,0:0:0:0:
320,100,145007,1,0,0:0:0:0:
204,100,145165,1,0,0:0:0:0:
204,292,145323,5,0,0:0:0:0:
316,292,145480,1,0,0:0:0:0:
316,176,145638,1,0,0:0:0:0:
200,176,145796,1,0,0:0:0:0:
392,176,145954,5,0,0:0:0:0:
392,60,146112,1,0,0:0:0:0:
276,60,146270,1,0,0:0:0:0:
276,176,146428,1,0,0:0:0:0:
160,176,146586,1,0,0:0:0:0:
160,60,146744,1,0,0:0:0:0:
48,60,146901,1,0,0:0:0:0:
48,252,147059,5,0,0:0:0:0:
240,252,147217,1,0,0:0:0:0:
160,176,147375,1,0,0:0:0:0:
160,292,147533,1,0,0:0:0:0:
256,352,147691,1,0,0:0:0:0:
352,292,147849,5,8,0:0:0:0:
220,120,148007,1,0,0:0:0:0:
168,320,148165,1,0,0:0:0:0:
264,224,148323,1,0,0:0:0:0:
72,76,148480,1,0,0:0:0:0:
160,244,148638,1,0,0:0:0:0:
240,92,148796,5,0,0:0:0:0:
88,196,148954,1,0,0:0:0:0:
264,288,149112,1,0,0:0:0:0:
168,168,149270,1,0,0:0:0:0:
192,352,149428,1,0,0:0:0:0:
344,208,149586,1,0,0:0:0:0:
168,168,149744,5,8,0:0:0:0:
224,292,149901,1,0,0:0:0:0:
288,172,150059,1,0,0:0:0:0:
352,292,150217,1,0,0:0:0:0:
424,180,150375,5,0,0:0:0:0:
272,92,150533,1,0,0:0:0:0:
260,248,150691,1,0,0:0:0:0:
344,128,150849,1,0,0:0:0:0:
144,156,151007,5,0,3:0:0:0:
144,156,151086,1,0,3:0:0:0:
144,156,151165,1,0,3:0:0:0:
144,156,151244,1,0,3:0:0:0:
144,156,151323,2,0,B|144:216|144:216|144:240|184:240,1,95,0|0,3:0|0:0,0:0:0:0:
392,284,151638,5,8,0:0:0:0:
284,96,151796,1,0,0:0:0:0:
192,296,151954,1,0,0:0:0:0:
328,192,152112,1,0,0:0:0:0:
96,56,152270,5,0,0:0:0:0:
152,216,152428,1,0,0:0:0:0:
200,56,152586,1,0,0:0:0:0:
76,160,152744,1,0,0:0:0:0:
320,136,152901,5,0,0:0:0:0:
232,316,153059,1,0,0:0:0:0:
156,132,153217,1,0,0:0:0:0:
304,232,153375,1,0,0:0:0:0:
100,288,153533,5,0,0:0:0:0:
248,136,153691,1,0,0:0:0:0:
180,336,153849,1,0,0:0:0:0:
88,180,154007,1,0,0:0:0:0:
320,292,154165,5,0,0:0:0:0:
376,144,154323,1,0,0:0:0:0:
160,136,154480,1,0,0:0:0:0:
292,200,154638,1,0,0:0:0:0:
172,32,154796,5,0,0:0:0:0:
172,252,154954,1,0,0:0:0:0:
308,84,155112,1,0,0:0:0:0:
88,120,155270,1,0,0:0:0:0:
246,295,155428,5,8,0:0:0:0:
265,88,155586,1,0,0:0:0:0:
152,182,155744,1,0,0:0:0:0:
359,201,155902,1,0,0:0:0:0:
167,288,156059,5,0,0:0:0:0:
185,81,156217,1,0,0:0:0:0:
326,302,156375,1,0,0:0:0:0:
344,95,156533,1,0,0:0:0:0:
168,196,156691,5,0,0:0:0:0:
336,176,156849,1,0,0:0:0:0:
196,280,157007,1,0,0:0:0:0:
248,112,157165,1,0,0:0:0:0:
316,332,157323,5,0,0:0:0:0:
432,216,157480,1,0,0:0:0:0:
272,248,157638,1,0,0:0:0:0:
444,308,157796,1,0,0:0:0:0:
316,144,157954,5,0,0:0:0:0:
172,124,158112,1,0,0:0:0:0:
128,264,158270,1,0,0:0:0:0:
224,192,158428,1,0,0:0:0:0:
44,136,158586,5,0,3:0:0:0:
44,136,158665,1,0,3:0:0:0:
44,136,158744,1,0,3:0:0:0:
44,136,158823,1,0,3:0:0:0:
44,136,158901,2,0,L|44:244,1,95,0|0,3:0|0:0,0:0:0:0:
156,304,159217,5,8,0:0:0:0:
272,176,159375,1,0,0:0:0:0:
260,320,159533,1,0,0:0:0:0:
164,172,159691,1,0,0:0:0:0:
332,256,159849,5,0,0:0:0:0:
424,144,160007,1,0,0:0:0:0:
300,72,160165,1,0,0:0:0:0:
432,56,160323,1,0,0:0:0:0:
248,172,160480,5,0,0:0:0:0:
112,56,160638,1,0,0:0:0:0:
112,252,160796,1,0,0:0:0:0:
160,132,160954,1,0,0:0:0:0:
244,332,161112,5,0,0:0:0:0:
308,184,161270,1,0,0:0:0:0:
344,356,161428,1,0,0:0:0:0:
272,192,161586,1,0,0:0:0:0:
436,264,161744,5,0,0:0:0:0:
388,120,161901,1,0,0:0:0:0:
496,128,162059,1,0,0:0:0:0:
344,40,162217,1,0,0:0:0:0:
304,240,162375,5,0,0:0:0:0:
228,96,162533,1,0,0:0:0:0:
120,208,162691,1,0,0:0:0:0:
328,152,162849,1,0,0:0:0:0:
192,308,163007,5,8,0:0:0:0:
144,96,163165,1,0,0:0:0:0:
304,220,163323,1,0,0:0:0:0:
136,252,163480,1,0,0:0:0:0:
284,76,163638,5,0,0:0:0:0:
384,256,163796,1,0,0:0:0:0:
212,192,163954,1,0,0:0:0:0:
380,136,164112,1,0,0:0:0:0:
272,292,164270,5,0,0:0:0:0:
164,108,164428,1,0,0:0:0:0:
120,312,164586,1,0,0:0:0:0:
264,176,164744,1,0,0:0:0:0:
56,192,164901,5,0,0:0:0:0:
204,312,165059,1,0,0:0:0:0:
204,104,165217,2,0,L|180:152,1,47.5,0|0,3:0|3:0,3:0:0:0:
108,288,165375,1,0,3:0:0:0:
304,268,165533,5,0,3:0:0:0:
304,268,165612,1,0,3:0:0:0:
304,268,165691,1,0,3:0:0:0:
304,268,165770,1,0,3:0:0:0:
304,268,165849,2,0,P|356:272|404:264,1,95,0|0,3:0|3:0,3:0:0:0:
452,208,166086,5,0,3:0:0:0:
464,172,166165,1,0,3:0:0:0:
456,136,166244,2,0,P|448:108|452:84,1,47.5,0|0,3:0|3:0,3:0:0:0:
364,132,166480,5,0,3:0:0:0:
364,132,166559,1,0,3:0:0:0:
364,132,166638,1,0,3:0:0:0:
364,132,166717,1,0,3:0:0:0:
364,132,166796,6,0,P|384:220|368:272,1,142.5
184,304,167744,2,0,B|172:256|172:256|188:208,1,95
440,136,168375,6,0,B|404:144|404:144|376:136|376:136|348:148|348:148|308:136|308:136|364:112,1,190
224,184,169323,2,0,P|212:156|216:128,2,47.5
276,276,169796,1,0,0:0:0:0:
276,276,169954,6,0,B|304:284|328:276|328:276|360:288|392:272|392:272|424:272|432:300|424:324|400:328,1,190
356,200,170901,2,0,P|352:172|360:148,1,47.5
452,152,171217,2,0,P|456:124|448:100,1,47.5
256,80,171533,6,0,P|247:125|265:99,1,142.5
136,40,172480,2,0,P|120:76|124:132,1,95
180,224,172954,1,0,0:0:0:0:
180,224,173112,6,0,B|224:224|224:224|244:240|244:240|244:272|244:272,1,95
328,284,173586,2,0,L|328:184,1,95
328,88,174059,2,0,B|312:88|288:64|288:64|264:88|244:88,2,95
336,212,175165,1,0,0:0:0:0:
336,212,175638,6,0,B|296:216|272:236|272:236|244:216|196:212,1,142.5
164,148,176270,2,0,P|128:188|128:232,1,95
248,152,176744,2,0,P|232:96|200:72,1,95
212,248,177217,6,0,P|244:252|264:248,1,47.5
400,288,177533,2,0,P|368:292|348:288,1,47.5
214,239,177849,6,0,P|245:246|265:244,1,47.5
397,296,178165,2,0,P|365:297|346:291,1,47.5
344,208,178480,2,0,P|342:175|348:156,1,47.5
276,96,178796,6,0,P|248:104|224:104,3,47.5
152,88,179428,2,0,P|136:152|152:208,1,113.999996520996
220,240,179901,2,0,P|248:248|288:240,1,56.9999982604981
352,176,180217,1,0,0:0:0:0:
352,176,180375,2,0,P|376:224|376:248,1,56.9999982604981
440,296,180691,2,0,P|464:248|464:224,1,56.9999982604981
428,108,181007,6,0,P|380:72|308:80,1,113.999996520996
236,108,181480,2,0,P|240:144|256:168,1,56.9999982604981
260,268,181954,6,0,P|224:260|200:264,1,56.9999982604981
56,320,182270,2,0,P|83:327|111:325,1,56.9999982604981
136,224,182586,2,0,B|144:192|120:172|120:172|100:144|112:108,1,113.999996520996
220,80,183059,2,0,P|251:121|206:118,1,113.999996520996
332,64,183533,6,0,P|340:96|336:128,1,56.9999982604981
280,256,183849,2,0,P|272:224|276:192,1,56.9999982604981
340,66,184165,6,0,P|345:99|338:130,1,56.9999982604981
271,253,184481,2,0,P|266:220|273:189,1,56.9999982604981
376,204,184796,2,0,P|408:204|438:216,1,56.9999982604981
352,344,185112,6,0,P|319:343|289:331,1,56.9999982604981
201,363,185428,2,0,P|180:337|170:306,1,56.9999982604981
89,260,185744,2,0,P|112:200|152:172,1,113.999996520996
304,184,186217,1,0,0:0:0:0:
304,184,186375,6,0,P|328:220|328:248,1,56.9999982604981
384,108,186691,2,0,P|408:72|408:44,1,56.9999982604981
300,180,187007,6,0,P|321:218|319:246,1,56.9999982604981
387,111,187323,2,0,P|414:77|416:49,1,56.9999982604981
288,48,187638,5,0,0:0:0:0:
288,48,187796,2,0,B|232:28|228:76|172:52,1,113.999996520996
108,132,188270,6,0,P|104:176|124:200,1,56.9999982604981
148,310,188586,6,0,P|188:329|216:320,1,52.2500015945435
330,333,188901,6,0,P|362:301|364:280,1,47.5
400,184,189375,6,0,B|364:188|336:176|336:176|332:196|312:208,1,95
248,148,189849,2,0,P|240:116|248:96,1,47.5
168,196,190165,2,0,P|176:228|168:248,1,47.5
172,324,190480,2,0,P|244:344|312:328,1,142.5
304,328,191428,5,0,0:0:0:0:
208,156,191586,1,0,0:0:0:0:
300,200,191744,1,0,0:0:0:0:
192,256,191901,1,0,0:0:0:0:
344,112,192059,6,0,P|380:204|336:300,1,190
192,312,192533,2,0,B|172:268|172:268|188:212,1,95
300,176,192849,1,0,0:0:0:0:
300,176,192928,1,0,0:0:0:0:
300,176,193007,1,0,0:0:0:0:
172,96,193165,1,0,0:0:0:0:
372,96,193323,2,0,B|396:128|396:128|396:192,1,95
312,312,193638,6,0,P|220:344|128:312,1,190
216,148,194112,2,0,L|220:252,1,95
344,212,194428,5,0,0:0:0:0:
344,212,194507,1,0,0:0:0:0:
344,212,194586,1,0,0:0:0:0:
108,124,194744,1,0,0:0:0:0:
336,128,194901,5,0,0:0:0:0:
104,212,195059,1,0,0:0:0:0:
224,92,195217,6,0,B|240:140|240:140|224:204,1,95
176,288,195533,1,0,0:0:0:0:
328,336,195691,2,0,B|324:300|328:264|328:264|352:228|352:228|356:192|352:152,1,190
272,104,196165,2,0,P|268:152|272:208,1,95
436,204,196401,1,0,0:0:0:0:
436,204,196480,2,0,P|440:156|436:100,1,95
320,228,196796,5,8,0:0:0:0:
188,316,196954,1,8,0:0:0:0:
96,168,197112,2,0,P|140:160|200:160,1,95
277,41,197428,2,0,P|284:88|280:136,1,95
176,328,197744,5,0,0:0:0:0:
408,240,197901,1,0,0:0:0:0:
172,240,198059,5,0,0:0:0:0:
404,328,198216,1,0,0:0:0:0:
296,192,198375,6,0,P|284:144|296:80,1,95
372,60,198691,1,0,0:0:0:0:
152,56,198849,2,0,L|169:255,1,190
256,316,199323,2,0,L|247:221,1,95
324,148,199638,2,0,L|332:242,1,95
236,128,199954,6,0,P|312:64|408:112,1,190
432,184,200428,1,0,0:0:0:0:
332,242,200586,2,0,B|316:194|316:194|324:142,1,95
352,56,200901,1,0,0:0:0:0:
184,128,201059,1,0,0:0:0:0:
184,128,201138,1,0,0:0:0:0:
184,128,201217,2,0,L|193:231,1,95
376,276,201533,6,0,P|300:328|184:312,1,190
100,128,202007,2,0,L|96:324,1,190
280,220,202480,2,0,B|296:172|296:172|276:120,1,95
160,200,202717,1,0,0:0:0:0:
160,200,202796,2,0,B|152:256|152:256|184:292,1,95
332,76,203112,5,0,0:0:0:0:
212,360,203270,1,0,0:0:0:0:
204,80,203428,5,0,0:0:0:0:
344,364,203586,1,0,0:0:0:0:
344,68,203744,5,0,0:0:0:0:
204,356,203901,1,0,0:0:0:0:
240,96,204059,6,0,L|240:156,1,47.5,0|0,3:0|3:0,3:0:0:0:
304,252,204217,2,0,L|304:300,1,47.5,0|0,3:0|3:0,3:0:0:0:
356,144,204375,2,0,L|356:196,1,47.5,0|0,3:0|3:0,3:0:0:0:
212,244,204533,2,0,L|212:304,1,47.5,0|0,3:0|3:0,3:0:0:0:
400,348,204691,6,0,P|444:236|408:128,1,227.999993041992
268,56,205165,1,0,0:0:0:0:
280,252,205323,1,0,0:0:0:0:
348,120,205480,1,0,0:0:0:0:
188,104,205638,1,0,0:0:0:0:
200,300,205796,1,0,0:0:0:0:
264,152,205954,1,0,0:0:0:0:
108,176,206112,1,0,0:0:0:0:
108,176,206191,1,0,0:0:0:0:
108,176,206270,6,0,B|96:236|96:236|108:296,1,113.999996520996
280,344,206586,1,0,0:0:0:0:
280,344,206744,2,0,B|292:284|292:284|280:224,1,113.999996520996
256,70,207059,5,0,0:0:0:0:
256,70,207138,1,0,0:0:0:0:
256,70,207217,1,0,0:0:0:0:
184,290,207375,1,0,0:0:0:0:
371,154,207533,1,0,0:0:0:0:
140,154,207691,1,0,0:0:0:0:
327,290,207849,6,0,B|412:288|412:288|384:260,1,113.999996520996
204,131,208165,1,0,0:0:0:0:
204,131,208323,2,0,B|119:133|119:133|139:153,1,113.999996520996
354,120,208638,2,0,B|352:36|352:36|324:64,1,113.999996520996
157,263,208954,2,0,B|160:348|160:348|188:320,1,113.999996520996
328,80,209270,5,0,0:0:0:0:
328,80,209349,1,0,0:0:0:0:
328,80,209428,1,8,0:0:0:0:
204,352,209586,1,8,0:0:0:0:
188,68,209744,5,0,0:0:0:0:
324,344,209901,1,0,0:0:0:0:
332,68,210059,5,0,0:0:0:0:
188,344,210217,1,0,0:0:0:0:
380,244,210375,5,0,3:0:0:0:
398,205,210453,1,0,3:0:0:0:
393,164,210532,1,0,3:0:0:0:
366,131,210611,1,0,3:0:0:0:
326,117,210690,1,0,3:0:0:0:
285,127,210769,1,0,3:0:0:0:
256,158,210848,1,0,3:0:0:0:
247,199,210927,1,0,3:0:0:0:
262,238,211007,2,0,B|220:264|220:264|180:240|180:240|96:256|80:180,1,227.999993041992
184,108,211480,5,0,0:0:0:0:
344,192,211638,1,0,0:0:0:0:
164,300,211796,1,0,0:0:0:0:
248,160,211954,1,0,0:0:0:0:
336,336,212112,1,0,0:0:0:0:
220,252,212270,1,0,0:0:0:0:
428,240,212428,1,0,0:0:0:0:
428,240,212507,1,0,0:0:0:0:
428,240,212586,6,0,B|448:200|424:152|424:152|436:132|436:132|424:116|424:116|400:68|424:20,1,227.999993041992
228,136,213059,2,0,P|313:239|341:199,1,227.999993041992
164,80,213533,2,0,P|124:136|120:184,1,113.999996520996
236,280,213849,2,0,P|276:224|280:176,1,113.999996520996
156,244,214165,2,0,P|180:352|292:352,1,227.999993041992
228,192,214638,2,0,P|124:156|68:244,1,227.999993041992
236,284,215112,2,0,P|296:260|312:196,1,113.999996520996
213,85,215428,2,0,P|205:149|229:193,1,113.999996520996
384,144,215743,5,0,0:0:0:0:
108,244,215901,1,0,0:0:0:0:
392,248,216059,5,0,0:0:0:0:
96,144,216216,1,0,0:0:0:0:
408,144,216375,5,0,0:0:0:0:
100,252,216533,1,0,0:0:0:0:
252,136,216691,6,0,P|264:168|252:208,1,56.9999982604981
260,256,216849,2,0,P|248:224|260:184,1,56.9999982604981
266,136,217007,6,0,P|269:170|247:206,1,56.9999982604981
243,254,217165,2,0,P|239:220|261:185,1,56.9999982604981
256,192,217323,12,0,220401,0:0:0:0:
256,192,220480,5,0,0:0:0:0:
256,192,220559,12,0,223638,0:0:0:0:
