osu file format v14

[General]
AudioFilename: audio.mp3
AudioLeadIn: 0
PreviewTime: 51867
Countdown: 0
SampleSet: Soft
StackLeniency: 0.2
Mode: 0
LetterboxInBreaks: 0
WidescreenStoryboard: 0

[Editor]
Bookmarks: 5647,21647,32313,41201,51867,62533,73200,78533
DistanceSpacing: 0.1
BeatDivisor: 4
GridSize: 4
TimelineZoom: 4.599998

[Metadata]
Title:Palette GAMMA
TitleUnicode:Palette GAMMA
Artist:Yuyoyuppe
ArtistUnicode:ゆよゆっぺ
Creator:mithew
Version:Visions
Source:
Tags:Yuyoyuppe meola Megurine Luka
BeatmapID:1436138
BeatmapSetID:679239

[Difficulty]
HPDrainRate:6
CircleSize:4
OverallDifficulty:9.6
ApproachRate:10
SliderMultiplier:1.8
SliderTickRate:1

[Events]
//Background and Video events
0,0,"31231.jpg",0,0
//Break Periods
//Storyboard Layer 0 (Background)
//Storyboard Layer 1 (Fail)
//Storyboard Layer 2 (Pass)
//Storyboard Layer 3 (Foreground)
//Storyboard Sound Samples

[TimingPoints]
314,222.222222222222,3,2,0,80,1,0
5425,-133.333333333333,3,2,0,80,0,0
20980,-285.714285714286,3,2,0,80,0,0
21647,-90.9090909090909,3,2,0,80,0,0
32313,222.222222222222,5,2,0,80,1,0
32313,-111.111111111111,5,2,0,80,0,0
41201,222.222222222222,3,2,0,80,1,0
41201,-95.2380952380952,3,2,0,80,0,0
51645,-285.714285714286,3,2,0,80,0,0
51811,-285.714285714286,3,2,0,5,0,0
51867,222.222222222222,6,2,0,80,1,1
51867,-90.9090909090909,6,2,0,80,0,1
61200,-100,6,2,0,80,0,0
62533,-100,6,2,0,80,0,1
70533,-200,6,2,0,80,0,1
71644,-100,6,2,0,80,0,0
71866,-133.333333333333,6,2,0,80,0,1
73200,-90.9090909090909,6,2,0,80,0,1
75866,-90.9090909090909,6,2,0,80,0,0

[Colours]
Combo1 : 165,194,239
Combo2 : 103,116,231
Combo3 : 18,124,255
Combo4 : 250,105,188

[HitObjects]
306,43,5425,5,0,0:0:0:0:
306,43,5480,1,0,0:0:0:0:
306,43,5536,2,0,L|273:51,1,33.7500012874604,0|0,0:0|0:0,0:0:0:0:
192,77,5647,6,0,P|152:121|164:203,1,135.000005149842,0|8,0:0|0:0,0:0:0:0:
157,192,5925,1,0,0:0:0:0:
157,192,5980,1,0,0:0:0:0:
241,156,6091,1,0,0:0:0:0:
254,246,6202,1,0,0:0:0:0:
338,210,6313,1,8,0:0:0:0:
338,210,6369,1,0,0:0:0:0:
338,210,6425,2,0,B|441:218|441:218|404:250,1,135.000005149842,0|0,0:0|0:0,0:0:0:0:
254,246,6758,5,8,0:0:0:0:
237,217,6813,1,8,0:0:0:0:
234,183,6869,1,8,0:0:0:0:
246,152,6924,1,8,0:0:0:0:
270,129,6980,6,0,L|272:25,1,101.250003862381
226,15,7202,2,0,L|159:25,1,67.5000025749208,8|0,0:0|0:0,0:0:0:0:
67,39,7425,1,8,0:0:0:0:
136,153,7536,1,8,0:0:0:0:
136,153,7591,1,8,0:0:0:0:
136,153,7647,2,0,L|186:160,1,33.7500012874604,0|0,0:0|0:0,0:0:0:0:
63,203,7758,2,0,L|29:198,1,33.7500012874604
126,270,7869,5,8,0:0:0:0:
159,274,7924,1,8,0:0:0:0:
192,279,7980,1,8,0:0:0:0:
226,284,8035,1,0,0:0:0:0:
259,288,8091,2,8,L|290:293,6,16.8750006437302
365,306,8313,6,0,L|385:165,1,135.000005149842,0|8,0:0|0:0,0:0:0:0:
310,69,8647,1,0,0:0:0:0:
310,69,8702,1,0,0:0:0:0:
310,69,8758,2,0,L|291:202,1,135.000005149842,0|8,0:0|0:0,0:0:0:0:
188,276,9092,1,0,0:0:0:0:
188,276,9147,1,0,0:0:0:0:
188,276,9203,2,0,L|196:216,1,33.7500012874604,0|0,0:0|0:0,0:0:0:0:
161,171,9313,2,0,L|169:111,1,33.7500012874604,0|0,0:0|0:0,0:0:0:0:
180,33,9425,5,8,0:0:0:0:
146,28,9480,1,8,0:0:0:0:
114,36,9536,1,8,0:0:0:0:
86,55,9591,1,8,0:0:0:0:
68,83,9647,6,0,P|74:142|57:188,1,101.250003862381,0|0,0:0|0:0,0:0:0:0:
43,230,9869,2,0,P|74:231|124:250,1,67.5000025749208,8|0,0:0|0:0,0:0:0:0:
188,276,10091,1,8,0:0:0:0:
56,339,10202,1,8,0:0:0:0:
56,339,10258,1,8,0:0:0:0:
56,339,10313,2,0,L|69:283,1,33.7500012874604,0|0,0:0|0:0,0:0:0:0:
188,276,10425,2,0,L|201:332,1,33.7500012874604,0|0,0:0|0:0,0:0:0:0:
283,362,10536,2,8,L|292:331,6,16.8750006437302
399,363,10758,5,0,0:0:0:0:
401,300,10832,1,0,0:0:0:0:
404,237,10906,1,0,0:0:0:0:
407,174,10980,6,0,L|416:31,1,135.000005149842,0|8,0:0|0:0,0:0:0:0:
269,86,11313,1,0,0:0:0:0:
269,86,11369,1,0,0:0:0:0:
269,86,11425,2,0,P|197:106|127:67,1,135.000005149842,0|8,0:0|0:0,0:0:0:0:
125,71,11702,1,0,0:0:0:0:
114,54,11758,1,0,0:0:0:0:
124,198,11869,2,0,L|157:201,1,33.7500012874604
46,191,11980,1,0,0:0:0:0:
46,191,12036,1,0,0:0:0:0:
46,191,12091,5,8,0:0:0:0:
42,224,12146,1,8,0:0:0:0:
38,258,12202,1,8,0:0:0:0:
34,291,12257,1,8,0:0:0:0:
30,325,12313,6,0,P|92:312|154:331,1,101.250003862381,0|0,0:0|0:0,0:0:0:0:
167,349,12536,2,0,L|257:347,1,67.5000025749208,8|0,0:0|0:0,0:0:0:0:
308,264,12758,2,0,L|302:230,1,33.7500012874604,8|0,0:0|0:0,0:0:0:0:
363,326,12869,2,0,L|357:359,1,33.7500012874604,8|0,0:0|0:0,0:0:0:0:
444,317,12980,5,0,0:0:0:0:
444,300,13035,1,0,0:0:0:0:
445,283,13091,1,0,0:0:0:0:
445,266,13146,1,0,0:0:0:0:
446,249,13202,5,8,0:0:0:0:
414,238,13258,1,8,0:0:0:0:
392,213,13314,1,8,0:0:0:0:
384,180,13369,1,0,0:0:0:0:
392,148,13425,2,8,L|406:120,6,16.8750006437302
478,109,13647,6,0,P|444:68|363:62,1,135.000005149842,0|8,0:0|0:0,0:0:0:0:
287,75,13925,1,0,0:0:0:0:
287,75,13980,2,0,P|225:95|205:91,2,67.5000025749208
73,42,14313,1,8,0:0:0:0:
73,42,14369,1,0,0:0:0:0:
73,42,14425,2,0,L|66:91,1,33.7500012874604,0|0,0:0|0:0,0:0:0:0:
58,151,14536,1,0,0:0:0:0:
58,151,14592,1,0,0:0:0:0:
58,151,14648,2,0,L|51:200,1,33.7500012874604,0|0,0:0|0:0,0:0:0:0:
40,283,14758,5,8,0:0:0:0:
73,283,14813,1,8,0:0:0:0:
107,283,14869,1,8,0:0:0:0:
141,283,14924,1,8,0:0:0:0:
175,283,14980,2,0,L|314:287,1,135.000005149842,0|8,0:0|0:0,0:0:0:0:
453,288,15313,1,0,0:0:0:0:
453,288,15369,1,0,0:0:0:0:
453,288,15425,2,0,L|456:340,1,33.7500012874604,8|0,0:0|0:0,0:0:0:0:
385,220,15536,2,8,L|386:186,1,33.7500012874604
394,101,15647,5,0,0:0:0:0:
394,92,15702,1,0,0:0:0:0:
395,84,15758,1,0,0:0:0:0:
395,75,15813,1,0,0:0:0:0:
396,67,15869,5,8,0:0:0:0:
367,83,15924,1,8,0:0:0:0:
333,84,15980,1,8,0:0:0:0:
304,68,16035,1,8,0:0:0:0:
286,40,16091,1,8,0:0:0:0:
257,23,16147,1,8,0:0:0:0:
223,22,16203,1,8,0:0:0:0:
194,38,16258,1,8,0:0:0:0:
176,66,16313,6,0,P|119:90|46:47,1,135.000005149842,0|8,0:0|0:0,0:0:0:0:
55,61,16591,1,0,0:0:0:0:
55,61,16647,1,0,0:0:0:0:
115,168,16758,1,0,0:0:0:0:
115,168,16813,1,0,0:0:0:0:
115,168,16869,1,0,0:0:0:0:
43,272,16980,1,8,0:0:0:0:
43,272,17036,1,0,0:0:0:0:
43,272,17091,2,0,L|-9:261,1,33.7500012874604,0|0,0:0|0:0,0:0:0:0:
120,338,17202,6,0,L|199:326,1,67.5000025749208,0|0,0:0|0:0,0:0:0:0:
308,316,17425,1,8,0:0:0:0:
341,321,17480,1,8,0:0:0:0:
374,326,17536,1,8,0:0:0:0:
408,331,17591,1,8,0:0:0:0:
441,336,17647,5,0,0:0:0:0:
383,213,17758,1,0,0:0:0:0:
383,213,17813,1,0,0:0:0:0:
383,213,17869,2,0,L|234:192,1,135.000005149842,8|8,0:0|0:0,0:0:0:0:
455,134,18202,1,8,0:0:0:0:
455,134,18258,1,0,0:0:0:0:
455,134,18313,2,0,L|455:93,1,33.7500012874604,0|0,0:0|0:0,0:0:0:0:
357,48,18425,2,0,L|357:81,1,33.7500012874604,0|0,0:0|0:0,0:0:0:0:
250,66,18536,5,8,0:0:0:0:
223,44,18591,1,8,0:0:0:0:
192,32,18647,1,8,0:0:0:0:
159,30,18702,1,8,0:0:0:0:
126,39,18758,2,8,L|105:57,6,16.8750006437302
60,117,18980,6,0,P|41:180|63:257,1,135.000005149842,0|8,0:0|0:0,0:0:0:0:
56,245,19258,1,0,0:0:0:0:
56,245,19313,1,0,0:0:0:0:
160,244,19425,1,0,0:0:0:0:
110,336,19536,1,0,0:0:0:0:
212,328,19647,1,8,0:0:0:0:
212,328,19702,1,0,0:0:0:0:
212,328,19758,2,0,B|301:313|301:313|258:279,1,135.000005149842,0|0,0:0|0:0,0:0:0:0:
339,240,20091,5,8,0:0:0:0:
365,260,20146,1,8,0:0:0:0:
381,289,20202,1,8,0:0:0:0:
384,323,20257,1,8,0:0:0:0:
373,354,20313,5,0,0:0:0:0:
478,239,20425,1,0,0:0:0:0:
478,239,20480,1,0,0:0:0:0:
478,239,20536,2,0,L|479:282,1,33.7500012874604,8|0,0:0|0:0,0:0:0:0:
359,122,20647,1,0,0:0:0:0:
359,122,20702,1,0,0:0:0:0:
359,122,20758,2,0,L|358:79,1,33.7500012874604,8|8,0:0|0:0,0:0:0:0:
357,13,20869,1,0,0:0:0:0:
416,188,20980,6,0,P|371:211|296:184,1,125.999996154785,4|0,3:0|0:0,0:0:0:0:
203,55,21647,6,0,L|81:72,1,99.0000030212403,12|0,0:0|0:0,0:0:0:0:
18,250,21869,1,8,0:0:0:0:
36,237,21924,1,0,0:0:0:0:
58,231,21980,1,0,0:0:0:0:
80,232,22035,1,0,0:0:0:0:
101,240,22091,1,8,0:0:0:0:
122,248,22147,1,0,0:0:0:0:
144,249,22202,1,0,0:0:0:0:
166,243,22258,1,0,0:0:0:0:
184,231,22313,6,0,P|199:197|197:174,3,49.5000015106202,8|0|0|0,0:0|0:0|0:0|0:0,0:0:0:0:
285,274,22536,2,0,P|300:308|298:331,3,49.5000015106202,8|0|0|0,0:0|0:0|0:0|0:0,0:0:0:0:
420,359,22758,5,8,0:0:0:0:
444,322,22813,1,8,0:0:0:0:
447,277,22869,1,8,0:0:0:0:
426,238,22924,1,8,0:0:0:0:
388,215,22980,6,0,L|410:98,1,99.0000030212403,8|0,0:0|0:0,0:0:0:0:
177,68,23202,2,0,L|197:178,1,99.0000030212403,8|0,0:0|0:0,0:0:0:0:
426,237,23425,2,0,L|448:120,1,99.0000030212403,8|0,0:0|0:0,0:0:0:0:
266,12,23647,5,8,0:0:0:0:
243,13,23702,1,8,0:0:0:0:
222,20,23758,1,8,0:0:0:0:
203,32,23813,1,8,0:0:0:0:
187,48,23869,1,8,0:0:0:0:
177,68,23924,1,8,0:0:0:0:
171,90,23980,1,8,0:0:0:0:
172,112,24035,1,8,0:0:0:0:
178,134,24091,6,0,P|191:171|221:194,1,49.5000015106202,8|0,0:0|0:0,0:0:0:0:
269,228,24202,2,0,P|304:244|341:240,1,49.5000015106202,8|0,0:0|0:0,0:0:0:0:
479,213,24313,6,0,P|502:255|474:342,1,99.0000030212403,8|0,0:0|0:0,0:0:0:0:
263,321,24536,2,0,P|253:266|277:216,1,99.0000030212403,8|0,0:0|0:0,0:0:0:0:
396,134,24758,2,0,P|390:100|369:76,1,49.5000015106202,8|0,0:0|0:0,0:0:0:0:
315,34,24869,2,0,P|286:14|254:12,1,49.5000015106202,8|0,0:0|0:0,0:0:0:0:
111,30,24980,5,8,0:0:0:0:
111,30,25036,1,0,0:0:0:0:
111,30,25091,2,0,P|92:59|91:101,1,49.5000015106202,0|0,0:0|0:0,0:0:0:0:
98,194,25202,1,8,0:0:0:0:
98,194,25258,1,0,0:0:0:0:
98,194,25313,2,0,P|105:227|134:258,1,49.5000015106202,0|0,0:0|0:0,0:0:0:0:
146,380,25425,1,8,0:0:0:0:
174,361,25480,1,0,0:0:0:0:
206,353,25536,1,8,0:0:0:0:
240,356,25591,1,0,0:0:0:0:
270,370,25647,6,0,P|308:370|335:359,3,49.5000015106202,8|0|0|0,0:0|0:0|0:0|0:0,0:0:0:0:
435,273,25869,2,0,P|397:273|370:284,3,49.5000015106202,8|0|0|0,0:0|0:0|0:0|0:0,0:0:0:0:
248,192,26091,2,0,P|285:191|312:180,3,49.5000015106202,8|0|0|0,0:0|0:0|0:0|0:0,0:0:0:0:
423,158,26313,5,8,0:0:0:0:
422,143,26368,1,8,0:0:0:0:
421,129,26424,1,8,0:0:0:0:
420,115,26479,1,8,0:0:0:0:
419,101,26536,2,8,L|412:22,3,49.5000015106202,8|8|8|8,0:0|0:0|0:0|0:0,0:0:0:0:
295,35,26758,1,8,0:0:0:0:
263,66,26813,1,8,0:0:0:0:
220,79,26869,1,8,0:0:0:0:
176,71,26924,1,8,0:0:0:0:
141,44,26980,6,0,L|13:51,1,99.0000030212403,8|0,0:0|0:0,0:0:0:0:
135,186,27202,2,0,L|263:192,1,99.0000030212403,8|0,0:0|0:0,0:0:0:0:
115,22,27425,2,0,L|-13:28,1,99.0000030212403,8|0,0:0|0:0,0:0:0:0:
147,278,27647,2,0,P|153:220|106:164,1,99.0000030212403,8|0,0:0|0:0,0:0:0:0:
31,315,27869,1,8,0:0:0:0:
31,315,27925,1,0,0:0:0:0:
31,315,27980,2,0,L|26:377,1,49.5000015106202,0|0,0:0|0:0,0:0:0:0:
176,375,28091,5,8,0:0:0:0:
207,343,28146,1,8,0:0:0:0:
249,327,28202,1,8,0:0:0:0:
293,332,28257,1,8,0:0:0:0:
331,356,28313,6,0,L|339:218,1,99.0000030212403,8|0,0:0|0:0,0:0:0:0:
491,160,28536,2,0,L|499:298,1,99.0000030212403,8|0,0:0|0:0,0:0:0:0:
232,243,28758,2,0,L|240:105,1,99.0000030212403,8|0,0:0|0:0,0:0:0:0:
392,47,28981,2,0,L|400:185,1,99.0000030212403,8|0,0:0|0:0,0:0:0:0:
152,273,29202,5,8,0:0:0:0:
169,301,29257,1,8,0:0:0:0:
197,320,29313,1,8,0:0:0:0:
229,328,29368,1,8,0:0:0:0:
262,324,29424,1,8,0:0:0:0:
291,307,29479,1,8,0:0:0:0:
312,280,29535,1,8,0:0:0:0:
321,248,29590,1,8,0:0:0:0:
318,215,29647,6,0,L|309:145,3,49.5000015106202,8|0|0|0,0:0|0:0|0:0|0:0,0:0:0:0:
203,81,29869,2,0,L|193:151,3,49.5000015106202,8|0|0|0,0:0|0:0|0:0|0:0,0:0:0:0:
131,269,30091,2,0,L|123:213,1,49.5000015106202,8|0,0:0|0:0,0:0:0:0:
15,134,30202,2,0,L|7:189,1,49.5000015106202,8|0,0:0|0:0,0:0:0:0:
43,304,30313,5,8,0:0:0:0:
66,280,30368,1,0,0:0:0:0:
98,268,30424,1,0,0:0:0:0:
131,269,30479,1,0,0:0:0:0:
162,283,30535,1,8,0:0:0:0:
193,297,30591,1,0,0:0:0:0:
226,298,30646,1,0,0:0:0:0:
258,286,30702,1,0,0:0:0:0:
282,263,30758,2,0,L|306:207,3,49.5000015106202,8|0|0|0,0:0|0:0|0:0|0:0,0:0:0:0:
412,123,30980,5,8,0:0:0:0:
414,134,31035,1,0,0:0:0:0:
416,145,31091,1,0,0:0:0:0:
418,156,31146,1,0,0:0:0:0:
419,167,31202,1,8,0:0:0:0:
421,178,31257,1,0,0:0:0:0:
423,189,31313,1,0,0:0:0:0:
425,200,31368,1,0,0:0:0:0:
427,212,31425,2,0,L|444:328,1,99.0000030212403,8|0,0:0|0:0,0:0:0:0:
304,211,31647,5,8,0:0:0:0:
268,233,31702,1,0,0:0:0:0:
227,239,31758,1,0,0:0:0:0:
187,227,31813,1,0,0:0:0:0:
155,200,31869,1,8,0:0:0:0:
153,213,31924,1,0,0:0:0:0:
150,227,31980,1,0,0:0:0:0:
148,241,32035,1,0,0:0:0:0:
145,255,32091,6,0,L|132:342,1,49.5000015106202,8|0,0:0|0:0,0:0:0:0:
225,104,32202,2,0,L|232:152,1,49.5000015106202,8|0,0:0|0:0,0:0:0:0:
212,29,32313,6,0,P|159:15|80:104,1,161.999995056153,2|0,0:0|0:0,0:0:0:0:
232,152,32646,1,10,0:0:0:0:
232,152,32868,1,0,0:0:0:0:
232,152,32979,2,0,L|425:138,1,161.999995056153,2|2,0:0|0:0,0:0:0:0:
222,60,33424,6,0,P|143:141|158:206,1,161.999995056153,2|0,0:0|0:0,0:0:0:0:
246,257,33757,1,10,0:0:0:0:
246,257,33979,1,0,0:0:0:0:
246,257,34090,2,0,L|241:348,1,80.9999975280763,2|0,0:0|0:0,0:0:0:0:
392,222,34313,1,8,0:0:0:0:
392,202,34369,1,8,0:0:0:0:
393,182,34424,1,8,0:0:0:0:
393,162,34480,1,8,0:0:0:0:
395,142,34535,6,0,P|426:79|515:71,1,161.999995056153,10|0,0:0|0:0,0:0:0:0:
279,48,34868,1,10,0:0:0:0:
279,48,35090,1,0,0:0:0:0:
279,48,35201,2,0,L|108:60,1,161.999995056153,2|2,0:0|0:0,0:0:0:0:
54,124,35535,1,0,0:0:0:0:
46,212,35646,6,0,L|40:377,1,161.999995056153,2|0,0:0|0:0,0:0:0:0:
207,235,35979,2,0,L|202:127,1,80.9999975280763,10|0,0:0|0:0,0:0:0:0:
198,55,36201,1,2,0:0:0:0:
198,55,36312,1,2,0:0:0:0:
198,55,36535,1,8,0:0:0:0:
312,136,36646,1,0,0:0:0:0:
122,259,36757,6,0,P|173:317|263:306,1,161.999995056153,2|0,0:0|0:0,0:0:0:0:
207,235,37090,1,10,0:0:0:0:
207,235,37312,1,0,0:0:0:0:
207,235,37424,2,0,L|374:240,1,161.999995056153,2|2,0:0|0:0,0:0:0:0:
131,97,37868,2,0,L|121:258,1,161.999995056153,2|0,0:0|0:0,0:0:0:0:
25,184,38201,1,10,0:0:0:0:
25,184,38424,1,0,0:0:0:0:
25,184,38535,2,0,L|30:91,1,80.9999975280763,2|0,0:0|0:0,0:0:0:0:
215,35,38757,1,8,0:0:0:0:
213,55,38812,1,8,0:0:0:0:
212,75,38868,1,8,0:0:0:0:
211,95,38923,1,8,0:0:0:0:
210,115,38979,6,0,P|304:126|310:210,1,161.999995056153,2|0,0:0|0:0,0:0:0:0:
406,94,39312,1,10,0:0:0:0:
406,94,39535,1,0,0:0:0:0:
406,94,39646,2,0,B|443:77|501:91|501:91|517:133|497:176,1,161.999995056153,2|2,0:0|0:0,0:0:0:0:
288,271,40090,2,0,L|98:266,1,161.999995056153,2|0,0:0|0:0,0:0:0:0:
11,183,40424,2,0,L|201:178,1,161.999995056153,10|0,0:0|0:0,0:0:0:0:
277,176,40757,1,2,0:0:0:0:
68,76,40979,1,10,0:0:0:0:
353,94,41201,6,0,P|388:78|437:75,1,47.2499985580445,2|0,0:0|0:0,0:0:0:0:
407,156,41312,2,0,P|443:169|479:201,1,47.2499985580445,0|0,0:0|0:0,0:0:0:0:
401,238,41423,2,0,P|417:273|420:322,1,47.2499985580445,0|0,0:0|0:0,0:0:0:0:
338,291,41534,2,0,P|324:327|292:363,1,47.2499985580445,0|0,0:0|0:0,0:0:0:0:
277,176,41645,1,8,0:0:0:0:
277,176,41701,1,0,0:0:0:0:
277,176,41756,1,0,0:0:0:0:
201,94,41867,6,0,P|166:78|117:75,1,47.2499985580445,0|0,0:0|0:0,0:0:0:0:
147,156,41978,2,0,P|110:169|74:201,1,47.2499985580445,0|0,0:0|0:0,0:0:0:0:
153,238,42089,2,0,P|136:273|133:322,1,47.2499985580445,0|0,0:0|0:0,0:0:0:0:
216,291,42200,2,0,P|229:327|261:363,1,47.2499985580445,0|0,0:0|0:0,0:0:0:0:
277,176,42311,1,8,0:0:0:0:
277,176,42367,1,0,0:0:0:0:
277,176,42422,1,0,0:0:0:0:
114,17,42534,6,0,P|64:92|103:173,1,188.999994232178,2|0,0:0|0:0,0:0:0:0:
153,238,42867,1,2,0:0:0:0:
277,176,42978,1,8,0:0:0:0:
277,176,43034,1,0,0:0:0:0:
277,176,43089,1,0,0:0:0:0:
152,98,43201,1,10,0:0:0:0:
152,98,43257,1,0,0:0:0:0:
152,98,43312,1,0,0:0:0:0:
67,249,43423,2,0,L|61:351,1,94.499997116089,0|0,0:0|0:0,0:0:0:0:
282,270,43645,1,10,0:0:0:0:
280,246,43700,1,8,0:0:0:0:
279,222,43756,1,8,0:0:0:0:
277,199,43811,1,8,0:0:0:0:
276,175,43867,5,10,0:0:0:0:
271,32,43978,1,0,0:0:0:0:
271,32,44034,1,0,0:0:0:0:
271,32,44089,2,0,L|382:27,1,94.499997116089,0|0,0:0|0:0,0:0:0:0:
370,170,44312,1,8,0:0:0:0:
346,171,44367,1,8,0:0:0:0:
322,172,44423,1,8,0:0:0:0:
299,173,44478,1,8,0:0:0:0:
276,175,44534,5,8,0:0:0:0:
280,323,44645,1,0,0:0:0:0:
280,323,44701,1,0,0:0:0:0:
280,323,44756,2,0,L|169:328,1,94.499997116089,0|0,0:0|0:0,0:0:0:0:
181,179,44978,1,8,0:0:0:0:
204,177,45033,1,0,0:0:0:0:
228,176,45089,1,0,0:0:0:0:
251,175,45144,1,0,0:0:0:0:
275,174,45200,6,2,P|271:91|154:55,1,188.999994232178
47,64,45534,2,0,L|48:121,1,47.2499985580445,2|0,0:0|0:0,0:0:0:0:
49,191,45645,1,0,0:0:0:0:
49,191,45700,1,0,0:0:0:0:
49,191,45756,1,0,0:0:0:0:
275,174,45867,5,8,0:0:0:0:
282,127,45922,1,8,0:0:0:0:
266,84,45978,1,8,0:0:0:0:
393,20,46089,1,10,0:0:0:0:
385,66,46144,1,8,0:0:0:0:
401,109,46200,1,8,0:0:0:0:
230,54,46312,1,8,0:0:0:0:
437,139,46423,1,8,0:0:0:0:
268,255,46534,6,0,L|264:357,1,94.499997116089,2|0,0:0|0:0,0:0:0:0:
344,219,46756,1,2,0:0:0:0:
320,192,46811,1,0,0:0:0:0:
288,177,46867,1,2,0:0:0:0:
253,175,46922,1,0,0:0:0:0:
220,187,46978,2,0,P|203:203|190:226,1,47.2499985580445,8|0,0:0|0:0,0:0:0:0:
173,299,47089,2,0,P|172:322|179:347,1,47.2499985580445,0|0,0:0|0:0,0:0:0:0:
344,219,47200,6,0,L|340:117,1,94.499997116089,0|0,0:0|0:0,0:0:0:0:
420,255,47422,1,0,0:0:0:0:
396,281,47477,1,0,0:0:0:0:
364,297,47533,1,0,0:0:0:0:
329,299,47588,1,0,0:0:0:0:
296,287,47644,2,0,P|278:271|265:248,1,47.2499985580445,8|0,0:0|0:0,0:0:0:0:
249,175,47755,2,0,P|248:151|255:126,1,47.2499985580445,0|0,0:0|0:0,0:0:0:0:
486,22,47867,6,0,P|433:91|494:188,1,188.999994232178,2|0,0:0|0:0,0:0:0:0:
495,363,48200,2,0,P|426:310|389:324,1,94.499997116089,2|8,0:0|0:0,0:0:0:0:
426,310,48367,1,0,0:0:0:0:
426,310,48423,1,0,0:0:0:0:
228,367,48534,1,10,0:0:0:0:
228,367,48589,1,0,0:0:0:0:
228,367,48645,1,0,0:0:0:0:
228,367,48700,1,0,0:0:0:0:
228,367,48756,2,0,P|205:270|253:193,1,188.999994232178,0|8,0:0|0:0,0:0:0:0:
259,164,49033,1,8,0:0:0:0:
253,129,49089,1,8,0:0:0:0:
230,103,49144,1,8,0:0:0:0:
197,91,49200,6,0,L|141:96,1,47.2499985580445,10|0,0:0|0:0,0:0:0:0:
311,81,49312,1,0,0:0:0:0:
73,104,49423,1,8,0:0:0:0:
73,104,49478,1,8,0:0:0:0:
73,104,49534,1,10,0:0:0:0:
166,183,49645,1,8,0:0:0:0:
166,183,49700,1,8,0:0:0:0:
166,183,49756,1,8,0:0:0:0:
70,272,49867,6,0,L|66:331,3,47.2499985580445,2|0|0|0,0:0|0:0|0:0|0:0,0:0:0:0:
182,362,50089,2,0,L|178:303,3,47.2499985580445,0|0|0|0,0:0|0:0|0:0|0:0,0:0:0:0:
300,320,50312,1,10,0:0:0:0:
300,320,50367,1,0,0:0:0:0:
300,320,50423,1,0,0:0:0:0:
300,320,50478,1,0,0:0:0:0:
300,320,50534,2,0,P|421:314|478:391,1,188.999994232178,2|0,0:0|0:0,0:0:0:0:
505,265,50867,1,2,0:0:0:0:
505,265,50978,2,0,L|500:144,1,94.499997116089,8|0,0:0|0:0,0:0:0:0:
324,94,51200,6,0,L|392:84,1,47.2499985580445,10|8,0:0|0:0,0:0:0:0:
243,170,51312,1,0,0:0:0:0:
242,163,51367,1,0,0:0:0:0:
241,156,51423,1,0,0:0:0:0:
240,149,51478,1,0,0:0:0:0:
239,142,51534,1,0,0:0:0:0:
238,135,51589,1,0,0:0:0:0:
237,128,51645,6,0,L|230:82,1,47.2499985580445,12|0,0:0|0:0,0:0:0:0:
222,0,51867,5,6,0:0:0:0:
199,1,51922,1,0,0:0:0:0:
178,9,51978,1,0,0:0:0:0:
159,21,52033,1,0,0:0:0:0:
143,37,52089,1,2,0:0:0:0:
132,56,52144,1,0,0:0:0:0:
126,78,52200,1,0,0:0:0:0:
125,100,52255,1,0,0:0:0:0:
130,123,52311,1,2,0:0:0:0:
138,143,52366,1,0,0:0:0:0:
139,166,52422,1,0,0:0:0:0:
133,187,52477,1,0,0:0:0:0:
120,205,52533,1,10,0:0:0:0:
102,218,52588,1,0,0:0:0:0:
80,225,52644,1,0,0:0:0:0:
58,223,52699,1,0,0:0:0:0:
37,215,52755,1,2,0:0:0:0:
21,200,52810,1,0,0:0:0:0:
10,180,52866,1,0,0:0:0:0:
6,158,52922,1,0,0:0:0:0:
10,136,52977,1,2,0:0:0:0:
20,117,53033,1,0,0:0:0:0:
38,100,53089,1,0,0:0:0:0:
235,64,53200,5,2,0:0:0:0:
256,89,53255,1,0,0:0:0:0:
286,105,53311,1,0,0:0:0:0:
319,109,53366,1,0,0:0:0:0:
352,102,53422,1,2,0:0:0:0:
379,83,53478,1,0,0:0:0:0:
413,78,53533,1,0,0:0:0:0:
445,85,53589,1,0,0:0:0:0:
473,104,53644,1,2,0:0:0:0:
492,132,53700,1,0,0:0:0:0:
500,164,53755,1,0,0:0:0:0:
495,198,53811,1,0,0:0:0:0:
478,227,53866,1,10,0:0:0:0:
452,248,53922,1,0,0:0:0:0:
420,258,53977,1,0,0:0:0:0:
386,255,54033,1,0,0:0:0:0:
356,241,54089,6,0,L|305:208,3,45,10|0|0|0,0:0|0:0|0:0|0:0,0:0:0:0:
227,166,54311,1,8,0:0:0:0:
225,199,54366,1,8,0:0:0:0:
223,233,54422,1,8,0:0:0:0:
221,267,54477,1,8,0:0:0:0:
219,300,54533,6,0,P|168:256|63:306,1,198.000006042481,2|0,0:0|0:0,0:0:0:0:
41,190,54867,1,2,0:0:0:0:
143,331,54978,1,0,0:0:0:0:
3,214,55089,1,0,0:0:0:0:
227,166,55200,2,0,L|234:56,1,99.0000030212403,10|0,0:0|0:0,0:0:0:0:
394,0,55422,2,0,L|401:110,1,99.0000030212403,0|0,0:0|0:0,0:0:0:0:
415,290,55644,1,2,0:0:0:0:
415,290,55700,1,0,0:0:0:0:
415,290,55755,1,0,0:0:0:0:
143,331,55866,5,2,0:0:0:0:
143,331,55922,1,0,0:0:0:0:
143,331,55978,2,0,P|78:315|25:348,2,99.0000030212403,0|0|2,0:0|0:0|0:0,0:0:0:0:
237,384,56311,1,0,0:0:0:0:
106,213,56422,1,0,0:0:0:0:
106,213,56478,1,0,0:0:0:0:
106,213,56533,2,0,P|103:112|156:78,1,148.50000453186,10|0,0:0|0:0,0:0:0:0:
196,34,56755,2,0,P|212:103|169:161,1,148.50000453186,2|0,0:0|0:0,0:0:0:0:
194,238,56978,1,2,0:0:0:0:
466,37,57200,5,2,0:0:0:0:
446,47,57255,1,0,0:0:0:0:
430,63,57311,1,0,0:0:0:0:
418,82,57366,1,0,0:0:0:0:
413,104,57422,1,2,0:0:0:0:
413,126,57477,1,0,0:0:0:0:
420,148,57533,1,0,0:0:0:0:
432,166,57588,1,0,0:0:0:0:
450,181,57644,1,2,0:0:0:0:
459,201,57699,1,0,0:0:0:0:
462,223,57755,1,0,0:0:0:0:
456,245,57810,1,0,0:0:0:0:
444,263,57866,1,10,0:0:0:0:
426,277,57921,1,0,0:0:0:0:
405,283,57977,1,0,0:0:0:0:
382,282,58032,1,0,0:0:0:0:
361,275,58089,6,0,L|344:170,1,99.0000030212403,2|0,0:0|0:0,0:0:0:0:
123,26,58311,2,0,L|106:131,1,99.0000030212403,2|0,0:0|0:0,0:0:0:0:
57,311,58533,5,2,0:0:0:0:
79,300,58588,1,0,0:0:0:0:
103,296,58644,1,0,0:0:0:0:
128,298,58699,1,0,0:0:0:0:
150,308,58755,1,0,0:0:0:0:
246,348,58866,5,2,0:0:0:0:
282,344,58921,1,2,0:0:0:0:
313,324,58977,1,2,0:0:0:0:
333,293,59032,1,2,0:0:0:0:
337,257,59088,1,2,0:0:0:0:
324,222,59143,1,2,0:0:0:0:
298,196,59200,6,0,P|270:132|365:52,1,198.000006042481,8|8,0:0|0:0,0:0:0:0:
152,70,59533,1,0,0:0:0:0:
349,133,59644,1,2,0:0:0:0:
199,191,59755,1,0,0:0:0:0:
349,133,59866,5,2,0:0:0:0:
382,131,59921,1,0,0:0:0:0:
413,143,59977,1,0,0:0:0:0:
437,166,60032,1,0,0:0:0:0:
450,197,60088,1,2,0:0:0:0:
448,231,60143,1,0,0:0:0:0:
434,261,60199,1,8,0:0:0:0:
408,283,60254,1,0,0:0:0:0:
376,292,60311,1,2,0:0:0:0:
346,279,60366,1,0,0:0:0:0:
312,277,60422,1,0,0:0:0:0:
280,289,60477,1,0,0:0:0:0:
255,311,60533,6,0,L|123:315,1,99.0000030212403,2|0,0:0|0:0,0:0:0:0:
375,212,60755,1,10,0:0:0:0:
375,212,60811,1,0,0:0:0:0:
375,212,60866,1,0,0:0:0:0:
200,137,60978,1,10,0:0:0:0:
200,137,61033,1,0,0:0:0:0:
200,137,61089,1,0,0:0:0:0:
352,62,61200,6,0,L|410:40,3,45
201,53,61422,1,0,0:0:0:0:
201,53,61478,1,0,0:0:0:0:
201,53,61533,1,0,0:0:0:0:
167,58,61588,1,8,0:0:0:0:
139,76,61644,1,8,0:0:0:0:
120,103,61699,1,8,0:0:0:0:
112,136,61755,1,8,0:0:0:0:
118,169,61810,1,8,0:0:0:0:
135,198,61866,2,0,L|134:296,1,90,0|0,0:0|0:0,0:0:0:0:
200,137,62089,5,12,0:0:0:0:
46,246,62200,1,12,0:0:0:0:
218,325,62311,1,12,0:0:0:0:
91,146,62422,1,12,0:0:0:0:
109,335,62533,5,2,0:0:0:0:
125,320,62588,1,0,0:0:0:0:
145,310,62644,1,0,0:0:0:0:
167,306,62699,1,0,0:0:0:0:
190,309,62755,1,2,0:0:0:0:
210,317,62810,1,0,0:0:0:0:
228,332,62866,1,0,0:0:0:0:
240,350,62921,1,0,0:0:0:0:
247,372,62978,1,2,0:0:0:0:
266,360,63033,1,0,0:0:0:0:
281,343,63089,1,0,0:0:0:0:
291,323,63144,1,0,0:0:0:0:
295,301,63200,1,10,0:0:0:0:
293,279,63255,1,0,0:0:0:0:
285,258,63311,1,0,0:0:0:0:
272,240,63366,1,0,0:0:0:0:
255,226,63422,1,2,0:0:0:0:
234,217,63477,1,0,0:0:0:0:
209,214,63533,1,0,0:0:0:0:
186,215,63588,1,0,0:0:0:0:
164,210,63644,1,2,0:0:0:0:
145,199,63699,1,0,0:0:0:0:
130,183,63755,1,0,0:0:0:0:
29,31,63866,5,2,0:0:0:0:
51,55,63921,1,0,0:0:0:0:
81,70,63977,1,0,0:0:0:0:
115,73,64032,1,0,0:0:0:0:
147,63,64088,1,2,0:0:0:0:
173,43,64144,1,0,0:0:0:0:
202,27,64199,1,0,0:0:0:0:
235,22,64255,1,0,0:0:0:0:
268,29,64310,1,2,0:0:0:0:
297,47,64366,1,0,0:0:0:0:
318,73,64421,1,0,0:0:0:0:
329,105,64477,1,0,0:0:0:0:
328,138,64532,1,10,0:0:0:0:
316,170,64588,1,0,0:0:0:0:
294,195,64643,1,0,0:0:0:0:
265,212,64699,1,0,0:0:0:0:
232,217,64755,6,0,L|166:220,3,45,2|0|0|0,0:0|0:0|0:0|0:0,0:0:0:0:
104,225,64978,1,8,0:0:0:0:
337,289,65089,1,8,0:0:0:0:
83,203,65200,6,0,P|43:247|77:358,1,180,2|0,0:0|0:0,0:0:0:0:
172,296,65533,1,2,0:0:0:0:
0,166,65644,2,0,L|10:56,1,90
194,22,65866,2,0,L|189:146,1,90,10|0,0:0|0:0,0:0:0:0:
172,296,66089,1,0,0:0:0:0:
172,296,66144,1,0,0:0:0:0:
172,296,66200,2,0,L|228:300,1,45
388,351,66311,5,2,0:0:0:0:
370,324,66366,1,0,0:0:0:0:
366,293,66422,1,2,0:0:0:0:
374,263,66477,1,0,0:0:0:0:
393,239,66533,6,0,P|428:164|356:81,1,180,2|0,0:0|0:0,0:0:0:0:
509,235,66866,1,2,0:0:0:0:
335,168,66978,1,0,0:0:0:0:
492,73,67089,1,0,0:0:0:0:
255,41,67200,6,0,L|134:55,1,90,10|0,0:0|0:0,0:0:0:0:
0,149,67422,2,0,L|89:159,1,90,10|0,0:0|0:0,0:0:0:0:
250,259,67644,2,0,L|129:273,1,90,10|0,0:0|0:0,0:0:0:0:
8,380,67866,5,10,0:0:0:0:
24,365,67921,1,0,0:0:0:0:
45,357,67977,1,0,0:0:0:0:
68,358,68032,1,0,0:0:0:0:
88,366,68088,1,2,0:0:0:0:
108,374,68144,1,0,0:0:0:0:
131,375,68199,1,0,0:0:0:0:
152,367,68255,1,0,0:0:0:0:
169,352,68311,1,2,0:0:0:0:
177,332,68366,1,0,0:0:0:0:
179,309,68422,1,0,0:0:0:0:
173,288,68477,1,0,0:0:0:0:
159,268,68533,6,0,L|132:226,3,45,10|0|0|0,0:0|0:0|0:0|0:0,0:0:0:0:
49,129,68755,2,0,L|22:171,3,45
187,44,68978,1,2,0:0:0:0:
218,42,69033,1,0,0:0:0:0:
249,41,69089,1,2,0:0:0:0:
281,40,69144,1,0,0:0:0:0:
312,38,69200,6,0,L|504:28,1,180,2|0,0:0|0:0,0:0:0:0:
512,335,69533,2,0,P|441:289|332:324,1,180,2|0,0:0|0:0,0:0:0:0:
210,325,69866,1,10,0:0:0:0:
210,325,69922,1,0,0:0:0:0:
210,325,69978,1,0,0:0:0:0:
420,370,70089,1,10,0:0:0:0:
420,370,70144,1,0,0:0:0:0:
420,370,70200,1,0,0:0:0:0:
130,351,70311,2,0,P|145:276|168:247,1,90,2|0,0:0|0:0,0:0:0:0:
235,72,70533,5,2,0:0:0:0:
253,84,70588,1,0,0:0:0:0:
274,92,70644,1,0,0:0:0:0:
297,95,70699,1,0,0:0:0:0:
319,93,70755,1,0,0:0:0:0:
341,87,70810,1,0,0:0:0:0:
360,77,70866,1,10,0:0:0:0:
377,62,70921,1,0,0:0:0:0:
391,44,70978,1,0,0:0:0:0:
413,39,71033,1,0,0:0:0:0:
435,41,71089,1,0,0:0:0:0:
456,49,71144,1,0,0:0:0:0:
474,62,71200,1,2,0:0:0:0:
488,79,71255,1,0,0:0:0:0:
497,100,71311,1,0,0:0:0:0:
501,122,71366,1,0,0:0:0:0:
498,144,71422,1,8,0:0:0:0:
490,165,71478,1,0,0:0:0:0:
476,183,71533,1,2,0:0:0:0:
458,197,71589,1,0,0:0:0:0:
438,205,71644,1,8,0:0:0:0:
415,208,71700,1,0,0:0:0:0:
393,204,71755,1,0,0:0:0:0:
235,72,71866,5,2,0:0:0:0:
208,92,71921,1,0,0:0:0:0:
176,102,71977,1,0,0:0:0:0:
143,99,72032,1,0,0:0:0:0:
113,84,72089,1,2,0:0:0:0:
79,83,72144,1,0,0:0:0:0:
48,96,72200,1,8,0:0:0:0:
25,120,72255,1,0,0:0:0:0:
13,151,72311,1,10,0:0:0:0:
15,185,72366,1,0,0:0:0:0:
30,215,72422,1,0,0:0:0:0:
55,236,72477,1,0,0:0:0:0:
88,246,72533,5,2,0:0:0:0:
87,251,72588,1,0,0:0:0:0:
87,256,72644,1,2,0:0:0:0:
87,261,72699,1,0,0:0:0:0:
87,266,72755,1,2,0:0:0:0:
87,271,72810,1,0,0:0:0:0:
86,276,72866,1,2,0:0:0:0:
86,281,72921,1,0,0:0:0:0:
86,286,72977,1,2,0:0:0:0:
86,291,73033,1,0,0:0:0:0:
85,296,73088,1,2,0:0:0:0:
85,302,73144,1,0,0:0:0:0:
85,307,73200,6,0,P|174:300|218:362,1,148.50000453186,4|0,0:0|0:0,0:0:0:0:
288,349,73422,1,8,0:0:0:0:
288,349,73478,1,8,0:0:0:0:
288,349,73533,2,0,L|297:272,1,49.5000015106202
422,218,73644,1,8,0:0:0:0:
422,218,73700,1,8,0:0:0:0:
422,218,73755,2,0,L|431:295,1,49.5000015106202
455,92,73866,5,8,0:0:0:0:
442,92,73921,1,8,0:0:0:0:
430,93,73977,1,0,0:0:0:0:
417,94,74032,1,0,0:0:0:0:
405,95,74088,1,8,0:0:0:0:
393,96,74143,1,8,0:0:0:0:
380,97,74199,1,0,0:0:0:0:
368,97,74254,1,0,0:0:0:0:
356,98,74311,2,8,L|281:104,3,49.5000015106202
215,53,74533,6,0,L|201:6,1,49.5000015106202,8|0,0:0|0:0,0:0:0:0:
135,80,74644,2,0,L|91:56,1,49.5000015106202,8|0,0:0|0:0,0:0:0:0:
97,155,74755,2,0,L|49:169,1,49.5000015106202,8|0,0:0|0:0,0:0:0:0:
123,234,74866,2,0,L|99:277,1,49.5000015106202,8|0,0:0|0:0,0:0:0:0:
198,273,74977,2,0,L|211:320,1,49.5000015106202,8|0,0:0|0:0,0:0:0:0:
278,247,75089,2,0,L|321:270,1,49.5000015106202,8|0,0:0|0:0,0:0:0:0:
306,101,75200,5,8,0:0:0:0:
306,101,75255,1,8,0:0:0:0:
306,101,75311,2,0,L|311:20,1,49.5000015106202
438,116,75422,1,8,0:0:0:0:
436,153,75477,1,0,0:0:0:0:
434,190,75533,1,0,0:0:0:0:
432,227,75588,1,0,0:0:0:0:
430,264,75644,2,0,L|527:312,1,99.0000030212403,8|0,0:0|0:0,0:0:0:0:
278,247,75866,5,8,0:0:0:0:
278,247,75921,1,8,0:0:0:0:
278,247,75977,2,0,L|273:328,1,49.5000015106202
146,232,76088,1,0,0:0:0:0:
147,194,76143,1,0,0:0:0:0:
149,157,76199,1,0,0:0:0:0:
151,120,76254,1,0,0:0:0:0:
153,83,76311,2,0,L|63:95,1,49.5000015106202,8|0,0:0|0:0,0:0:0:0:
261,26,76422,2,0,L|351:38,1,49.5000015106202,8|0,0:0|0:0,0:0:0:0:
49,35,76533,5,8,0:0:0:0:
49,35,76589,1,8,0:0:0:0:
49,35,76644,2,0,P|28:62|25:97,1,49.5000015106202
33,182,76755,1,0,0:0:0:0:
33,182,76811,1,0,0:0:0:0:
33,182,76866,2,0,P|41:205|57:223,1,49.5000015106202
221,320,76978,1,8,0:0:0:0:
223,282,77033,1,8,0:0:0:0:
225,245,77089,1,8,0:0:0:0:
227,208,77144,1,8,0:0:0:0:
229,171,77200,6,0,L|233:111,3,49.5000015106202,8|0|0|0,0:0|0:0|0:0|0:0,0:0:0:0:
355,237,77422,2,0,L|357:286,3,49.5000015106202,8|0|0|0,0:0|0:0|0:0|0:0,0:0:0:0:
467,175,77644,2,0,L|469:125,3,49.5000015106202,8|0|8|0,0:0|0:0|0:0|0:0,0:0:0:0:
368,47,77866,5,8,0:0:0:0:
327,75,77921,1,8,0:0:0:0:
279,85,77977,1,8,0:0:0:0:
231,75,78032,1,8,0:0:0:0:
191,46,78089,1,8,0:0:0:0:
151,17,78145,1,8,0:0:0:0:
103,7,78200,1,8,0:0:0:0:
55,17,78256,1,8,0:0:0:0:
14,46,78311,6,8,L|10:118,1,49.5000015106202,8|0,0:0|0:0,0:0:0:0:
154,271,78422,2,0,L|150:199,1,49.5000015106202,8|0,0:0|0:0,0:0:0:0:
0,384,78533,1,8,0:0:0:0:
256,192,78589,12,2,83644,0:0:0:0:
256,192,83866,5,2,0:0:0:0:
