osu file format v14

[General]
AudioFilename: audio.mp3
AudioLeadIn: 0
PreviewTime: 79376
Countdown: 0
SampleSet: None
StackLeniency: 0.2
Mode: 0
LetterboxInBreaks: 0
WidescreenStoryboard: 1

[Editor]
Bookmarks: 208041,223791
DistanceSpacing: 2.2
BeatDivisor: 4
GridSize: 32
TimelineZoom: 1

[Metadata]
Title:Palette
TitleUnicode:Palette
Artist:Yuyoyuppe
ArtistUnicode:Yuyoyuppe
Creator:Elcheer
Version:hs
Source:
Tags:
BeatmapID:2175237
BeatmapSetID:1039254

[Difficulty]
HPDrainRate:0
CircleSize:4.3
OverallDifficulty:8.5
ApproachRate:9.3
SliderMultiplier:1.6
SliderTickRate:1

[Events]
//Background and Video events
0,0,"bg.jpg",0,0
//Break Periods
2,124909,140488
2,216241,223237
//Storyboard Layer 0 (Background)
//Storyboard Layer 1 (Fail)
//Storyboard Layer 2 (Pass)
//Storyboard Layer 3 (Foreground)
//Storyboard Layer 4 (Overlay)
//Storyboard Sound Samples

[TimingPoints]
45,333.333333333333,3,2,1,100,1,0
33044,-200,3,2,1,100,0,0
34044,-100,3,2,1,100,0,0
50044,333.333333333333,5,2,1,100,1,0
50044,-125,5,2,1,100,0,0
63377,333.333333333333,6,2,1,100,1,0
79043,-200,6,2,1,100,0,0
79376,-100,6,2,1,100,0,1
111376,333.333333333333,5,2,1,100,1,0
111376,-125,5,2,1,100,0,0
138042,333.333333333333,6,2,1,100,1,0
138042,-142.857142857143,6,2,1,100,0,0
156041,-125,6,2,1,100,0,0
175041,-200,6,2,1,100,0,0
176041,-83.3333333333333,6,2,1,100,0,1
216041,-100,6,2,1,100,0,0

[HitObjects]
452,312,33044,5,4,3:2:0:0:
452,312,34044,5,8,0:2:0:0:
453,310,34211,1,0,3:2:0:0:
452,312,34378,1,8,0:2:0:0:
453,310,34544,1,0,3:2:0:0:
453,310,34628,1,0,3:2:0:0:
452,312,34711,1,8,0:2:0:0:
453,310,34878,1,0,3:2:0:0:
452,312,35044,1,8,0:2:0:0:
38,140,35211,1,0,3:2:0:0:
37,142,35378,1,8,0:2:0:0:
38,140,35544,1,0,3:2:0:0:
38,140,35628,1,0,3:2:0:0:
37,142,35711,1,8,0:2:0:0:
37,142,35794,1,8,0:2:0:0:
37,142,35878,1,8,0:2:0:0:
37,142,35961,1,8,0:2:0:0:
37,142,36044,1,8,0:2:0:0:
38,140,36211,1,0,3:2:0:0:
37,142,36378,1,8,0:2:0:0:
38,140,36544,1,0,3:2:0:0:
38,140,36628,1,0,3:2:0:0:
452,312,36711,1,8,0:2:0:0:
453,310,36878,1,0,3:2:0:0:
452,312,37044,1,8,0:2:0:0:
453,310,37211,1,0,3:2:0:0:
320,84,37378,1,8,0:2:0:0:
321,82,37461,1,0,3:2:0:0:
321,82,37544,1,0,3:2:0:0:
321,82,37628,1,0,3:2:0:0:
320,84,37711,1,8,0:2:0:0:
320,84,37878,1,8,0:2:0:0:
320,84,38044,1,8,0:2:0:0:
321,82,38211,1,0,3:2:0:0:
452,312,38378,1,8,0:2:0:0:
453,310,38544,1,0,3:2:0:0:
453,310,38628,1,0,3:2:0:0:
452,312,38711,1,8,0:2:0:0:
452,312,38878,1,8,0:2:0:0:
452,312,39044,1,8,0:2:0:0:
453,310,39211,1,0,3:2:0:0:
452,312,39378,1,8,0:2:0:0:
453,310,39544,1,0,3:2:0:0:
453,310,39628,1,0,3:2:0:0:
452,312,39711,1,8,0:2:0:0:
453,310,39878,1,0,3:2:0:0:
452,312,40044,1,8,0:2:0:0:
453,310,40211,1,0,3:2:0:0:
452,312,40378,1,8,0:2:0:0:
453,310,40544,1,0,3:2:0:0:
453,310,40628,1,0,3:2:0:0:
452,312,40711,1,8,0:2:0:0:
453,310,40878,1,0,3:2:0:0:
452,312,41044,1,8,0:2:0:0:
453,310,41128,1,0,3:2:0:0:
453,310,41211,1,0,3:2:0:0:
453,310,41294,1,0,3:2:0:0:
452,312,41378,1,8,0:2:0:0:
453,310,41461,1,0,3:2:0:0:
453,310,41544,1,0,3:2:0:0:
453,310,41628,1,0,3:2:0:0:
452,312,41711,1,8,0:2:0:0:
452,312,41794,1,8,0:2:0:0:
452,312,41878,1,8,0:2:0:0:
452,312,41961,1,8,0:2:0:0:
452,312,42044,1,8,0:2:0:0:
453,310,42211,1,0,3:2:0:0:
452,312,42378,1,8,0:2:0:0:
453,310,42544,1,0,3:2:0:0:
453,310,42628,1,0,3:2:0:0:
452,312,42711,1,8,0:2:0:0:
453,310,42878,1,0,3:2:0:0:
452,312,43044,1,8,0:2:0:0:
453,310,43211,1,0,3:2:0:0:
452,312,43378,1,8,0:2:0:0:
453,310,43544,1,0,3:2:0:0:
453,310,43628,1,0,3:2:0:0:
452,312,43711,1,8,0:2:0:0:
452,312,43794,1,8,0:2:0:0:
452,312,43878,1,8,0:2:0:0:
452,312,43961,1,8,0:2:0:0:
452,312,44044,1,8,0:2:0:0:
453,310,44211,1,0,3:2:0:0:
452,312,44378,1,8,0:2:0:0:
453,310,44544,1,0,3:2:0:0:
453,310,44628,1,0,3:2:0:0:
452,312,44711,1,8,0:2:0:0:
453,310,44878,1,0,3:2:0:0:
452,312,45044,1,8,0:2:0:0:
341,69,45211,1,0,3:2:0:0:
340,71,45378,1,8,0:2:0:0:
341,69,45461,1,0,3:2:0:0:
341,69,45544,1,0,3:2:0:0:
341,69,45628,1,0,3:2:0:0:
340,71,45711,1,8,0:2:0:0:
340,71,45878,1,8,0:2:0:0:
340,71,46044,1,8,0:2:0:0:
341,69,46211,1,0,3:2:0:0:
340,71,46378,1,8,0:2:0:0:
341,69,46544,1,0,3:2:0:0:
341,69,46628,1,0,3:2:0:0:
340,71,46711,1,8,0:2:0:0:
340,71,46878,1,8,0:2:0:0:
452,312,47044,1,8,0:2:0:0:
91,127,47211,1,0,3:2:0:0:
90,129,47378,1,8,0:2:0:0:
91,127,47544,1,0,3:2:0:0:
91,127,47628,1,0,3:2:0:0:
90,129,47711,1,8,0:2:0:0:
91,127,47878,1,0,3:2:0:0:
90,129,48044,1,8,0:2:0:0:
91,127,48211,1,0,3:2:0:0:
90,129,48378,1,8,0:2:0:0:
91,127,48544,1,0,3:2:0:0:
91,127,48628,1,0,3:2:0:0:
90,129,48711,1,8,0:2:0:0:
453,310,48878,1,0,3:2:0:0:
119,141,49044,1,8,0:2:0:0:
120,139,49128,1,0,3:2:0:0:
120,139,49211,1,0,3:2:0:0:
120,139,49294,1,0,3:2:0:0:
119,141,49378,1,8,0:2:0:0:
120,139,49461,1,0,3:2:0:0:
120,139,49544,1,0,3:2:0:0:
120,139,49628,1,0,3:2:0:0:
119,141,49711,1,8,0:2:0:0:
119,141,49794,1,8,0:2:0:0:
119,141,49878,1,8,0:2:0:0:
119,141,49961,1,8,0:2:0:0:
119,141,50044,1,2,3:2:0:0:
119,141,50544,1,10,0:2:0:0:
120,139,50877,1,0,3:2:0:0:
453,310,51044,1,2,3:2:0:0:
453,310,51377,1,2,3:2:0:0:
453,310,51710,1,2,3:2:0:0:
301,126,52210,1,10,0:2:0:0:
302,124,52544,1,0,3:2:0:0:
302,124,52710,1,2,3:2:0:0:
301,126,53044,1,8,0:2:0:0:
301,126,53127,1,8,0:2:0:0:
301,126,53210,1,8,0:2:0:0:
301,126,53294,1,8,0:2:0:0:
302,124,53377,1,2,3:2:0:0:
301,126,53877,1,10,0:2:0:0:
302,124,54210,1,0,3:2:0:0:
302,124,54377,1,2,3:2:0:0:
453,310,54710,1,2,3:2:0:0:
255,197,54877,1,2,0:2:0:0:
173,210,55043,1,2,3:2:0:0:
172,212,55543,1,10,0:2:0:0:
173,210,55877,1,0,3:2:0:0:
173,210,56043,1,2,3:2:0:0:
172,212,56377,1,8,0:2:0:0:
173,210,56543,1,0,3:2:0:0:
173,210,56710,1,2,3:2:0:0:
172,212,57210,1,10,0:2:0:0:
173,210,57543,1,0,3:2:0:0:
173,210,57710,1,2,3:2:0:0:
173,210,58043,1,2,3:2:0:0:
173,210,58377,1,2,3:2:0:0:
172,212,58877,1,10,0:2:0:0:
173,210,59210,1,0,3:2:0:0:
173,210,59377,1,2,3:2:0:0:
172,212,59710,1,8,0:2:0:0:
172,212,59793,1,8,0:2:0:0:
172,212,59877,1,8,0:2:0:0:
172,212,59960,1,8,0:2:0:0:
173,210,60043,1,2,3:2:0:0:
172,212,60543,1,10,0:2:0:0:
173,210,60877,1,0,3:2:0:0:
173,210,61043,1,2,3:2:0:0:
173,210,61377,1,2,3:2:0:0:
173,210,61710,1,2,3:2:0:0:
452,312,62210,1,10,0:2:0:0:
453,310,62543,1,0,3:2:0:0:
453,310,62710,1,2,3:2:0:0:
452,312,63043,1,10,0:2:0:0:
453,310,63210,1,0,3:2:0:0:
453,310,63377,1,2,3:2:0:0:
453,310,63710,1,0,3:2:0:0:
452,312,64043,1,8,3:2:0:0:
453,310,64377,1,0,3:2:0:0:
453,310,64710,1,0,3:2:0:0:
452,312,65043,1,8,3:2:0:0:
453,310,65210,1,0,3:2:0:0:
453,310,65293,1,0,3:2:0:0:
453,310,65377,1,2,3:2:0:0:
453,310,65710,1,0,3:2:0:0:
255,197,65877,1,2,0:2:0:0:
452,312,66043,1,8,3:2:0:0:
452,312,66377,1,10,3:2:0:0:
453,310,66710,1,0,3:2:0:0:
452,312,67043,1,10,3:2:0:0:
452,312,67127,1,8,3:2:0:0:
452,312,67210,1,8,3:2:0:0:
452,312,67293,1,8,3:2:0:0:
453,310,67377,1,2,3:2:0:0:
453,310,67710,1,0,3:2:0:0:
453,310,68043,1,0,3:2:0:0:
453,310,68377,1,0,3:2:0:0:
453,310,68710,1,0,3:2:0:0:
452,312,69043,1,10,3:2:0:0:
453,310,69377,1,2,3:2:0:0:
453,310,69710,1,0,3:2:0:0:
255,197,69877,1,2,0:2:0:0:
452,312,70043,1,8,3:2:0:0:
452,312,70377,1,10,3:2:0:0:
452,312,70460,1,8,3:2:0:0:
452,312,70543,1,8,3:2:0:0:
452,312,70626,1,8,3:2:0:0:
452,312,70710,1,8,3:2:0:0:
452,312,70793,1,8,3:2:0:0:
452,312,70876,1,8,3:2:0:0:
452,312,70960,1,8,3:2:0:0:
453,310,71043,1,2,3:2:0:0:
452,312,71210,1,8,0:2:0:0:
453,310,71376,1,2,3:2:0:0:
453,310,71710,1,0,3:2:0:0:
255,197,71876,1,2,0:2:0:0:
452,312,72043,1,8,3:2:0:0:
453,310,72376,1,0,3:2:0:0:
453,310,72710,1,0,3:2:0:0:
452,312,73043,1,8,3:2:0:0:
453,310,73210,1,0,3:2:0:0:
453,310,73376,1,2,3:2:0:0:
453,310,73710,1,0,3:2:0:0:
255,197,73876,1,2,0:2:0:0:
452,312,74043,1,8,3:2:0:0:
452,312,74376,1,10,3:2:0:0:
453,310,74710,1,0,3:2:0:0:
452,312,75043,1,10,3:2:0:0:
452,312,75126,1,8,3:2:0:0:
452,312,75210,1,8,3:2:0:0:
452,312,75293,1,8,3:2:0:0:
453,310,75376,1,2,3:2:0:0:
452,312,75710,1,8,3:2:0:0:
255,197,75876,1,2,0:2:0:0:
452,312,76043,1,8,3:2:0:0:
453,310,76376,1,2,3:2:0:0:
453,310,76710,1,0,3:2:0:0:
452,312,77043,1,10,3:2:0:0:
453,310,77376,1,2,3:2:0:0:
453,310,77710,1,0,3:2:0:0:
255,197,77876,1,2,0:2:0:0:
452,312,78043,1,8,3:2:0:0:
452,312,78376,1,10,0:2:0:0:
453,310,78460,1,0,3:2:0:0:
453,310,78543,1,0,3:2:0:0:
453,310,78626,1,0,3:2:0:0:
453,310,78710,1,0,3:2:0:0:
453,310,78793,1,0,3:2:0:0:
453,310,78876,1,0,3:2:0:0:
453,310,78960,1,0,3:2:0:0:
452,312,79043,1,8,0:2:0:0:
453,310,79376,1,2,3:2:0:0:
453,310,79543,1,0,3:2:0:0:
453,310,79876,1,0,3:2:0:0:
453,310,80210,1,0,3:2:0:0:
453,310,80293,1,0,3:2:0:0:
452,312,80376,1,8,0:2:0:0:
452,312,80876,1,8,0:2:0:0:
453,310,81043,1,0,3:2:0:0:
453,310,81376,1,2,3:2:0:0:
453,310,81543,1,0,3:2:0:0:
453,310,81876,1,0,3:2:0:0:
453,310,82210,1,0,3:2:0:0:
452,312,82376,1,8,0:2:0:0:
452,312,82543,1,8,0:2:0:0:
453,310,82710,1,0,3:2:0:0:
453,310,83043,1,2,3:2:0:0:
453,310,83376,1,2,3:2:0:0:
453,310,83543,1,0,3:2:0:0:
453,310,83876,1,2,3:2:0:0:
453,310,84210,1,0,3:2:0:0:
453,310,84293,1,0,3:2:0:0:
452,312,84376,1,10,0:2:0:0:
452,312,84876,1,8,0:2:0:0:
453,310,85043,1,2,3:2:0:0:
453,310,85376,1,2,3:2:0:0:
453,310,85543,1,0,3:2:0:0:
453,310,85876,1,2,3:2:0:0:
453,310,86210,1,0,3:2:0:0:
452,312,86376,1,10,0:2:0:0:
452,312,86543,1,8,0:2:0:0:
453,310,86710,1,2,3:2:0:0:
453,310,87043,1,2,3:2:0:0:
453,310,87376,1,2,3:2:0:0:
453,310,87543,1,0,3:2:0:0:
453,310,87876,1,0,3:2:0:0:
453,310,88210,1,0,3:2:0:0:
453,310,88293,1,0,3:2:0:0:
452,312,88376,1,8,0:2:0:0:
452,312,88876,1,8,0:2:0:0:
453,310,89043,1,2,3:2:0:0:
453,310,89376,1,2,3:2:0:0:
453,310,89543,1,0,3:2:0:0:
453,310,89876,1,2,3:2:0:0:
453,310,90210,1,0,3:2:0:0:
452,312,90376,1,10,0:2:0:0:
452,312,90543,1,8,0:2:0:0:
453,310,90710,1,0,3:2:0:0:
453,310,91043,1,2,3:2:0:0:
453,310,91376,1,2,3:2:0:0:
453,310,91543,1,0,3:2:0:0:
453,310,91876,1,0,3:2:0:0:
453,310,92210,1,0,3:2:0:0:
452,312,92376,1,8,0:2:0:0:
452,312,92876,1,8,0:2:0:0:
453,310,93043,1,0,3:2:0:0:
453,310,93376,1,0,3:2:0:0:
453,310,93543,1,0,3:2:0:0:
453,310,93876,1,0,3:2:0:0:
453,310,94210,1,0,3:2:0:0:
452,312,94377,1,8,0:2:0:0:
453,310,94543,1,0,3:2:0:0:
453,310,94710,1,0,3:2:0:0:
453,310,94876,1,0,3:2:0:0:
453,310,95043,1,0,3:2:0:0:
453,310,95210,1,0,3:2:0:0:
453,310,95376,1,2,3:2:0:0:
453,310,95543,1,0,3:2:0:0:
453,310,95876,1,0,3:2:0:0:
453,310,96210,1,0,3:2:0:0:
453,310,96293,1,0,3:2:0:0:
452,312,96376,1,8,0:2:0:0:
452,312,96876,1,8,0:2:0:0:
453,310,97043,1,0,3:2:0:0:
453,310,97376,1,2,3:2:0:0:
453,310,97543,1,0,3:2:0:0:
453,310,97876,1,0,3:2:0:0:
453,310,98210,1,0,3:2:0:0:
452,312,98376,1,8,0:2:0:0:
452,312,98543,1,8,0:2:0:0:
453,310,98710,1,0,3:2:0:0:
453,310,99043,1,2,3:2:0:0:
453,310,99376,1,2,3:2:0:0:
453,310,99543,1,0,3:2:0:0:
453,310,99876,1,2,3:2:0:0:
453,310,100210,1,0,3:2:0:0:
453,310,100293,1,0,3:2:0:0:
452,312,100376,1,10,0:2:0:0:
452,312,100876,1,8,0:2:0:0:
453,310,101043,1,2,3:2:0:0:
453,310,101376,1,2,3:2:0:0:
453,310,101543,1,0,3:2:0:0:
453,310,101876,1,2,3:2:0:0:
453,310,102210,1,0,3:2:0:0:
452,312,102376,1,10,0:2:0:0:
452,312,102543,1,8,0:2:0:0:
453,310,102710,1,2,3:2:0:0:
453,310,103043,1,2,3:2:0:0:
453,310,103376,1,2,3:2:0:0:
453,310,103543,1,0,3:2:0:0:
453,310,103876,1,0,3:2:0:0:
453,310,104210,1,0,3:2:0:0:
453,310,104293,1,0,3:2:0:0:
452,312,104376,1,8,0:2:0:0:
452,312,104876,1,8,0:2:0:0:
453,310,105043,1,2,3:2:0:0:
453,310,105376,1,2,3:2:0:0:
453,310,105543,1,0,3:2:0:0:
453,310,105876,1,2,3:2:0:0:
453,310,106210,1,0,3:2:0:0:
452,312,106376,1,10,0:2:0:0:
452,312,106543,1,8,0:2:0:0:
453,310,106710,1,0,3:2:0:0:
453,310,107043,1,2,3:2:0:0:
453,310,107376,1,2,3:2:0:0:
453,310,107543,1,0,3:2:0:0:
453,310,107876,1,0,3:2:0:0:
453,310,108210,1,0,3:2:0:0:
453,310,108293,1,0,3:2:0:0:
452,312,108376,1,8,0:2:0:0:
452,312,108876,1,8,0:2:0:0:
453,310,109043,1,0,3:2:0:0:
453,310,109376,1,2,3:2:0:0:
453,310,109543,1,0,3:2:0:0:
453,310,109876,1,0,3:2:0:0:
453,310,110210,1,0,3:2:0:0:
452,312,110376,1,10,0:2:0:0:
453,310,110460,1,0,3:2:0:0:
453,310,110543,1,0,3:2:0:0:
453,310,110626,1,0,3:2:0:0:
453,310,110710,1,0,3:2:0:0:
453,310,110793,1,0,3:2:0:0:
453,310,110876,1,0,3:2:0:0:
453,310,110960,1,0,3:2:0:0:
452,312,111043,1,8,0:2:0:0:
452,312,111210,1,8,0:2:0:0:
453,310,111376,1,2,3:2:0:0:
453,310,113042,1,0,3:2:0:0:
453,310,114709,1,0,3:2:0:0:
453,310,116376,1,0,3:2:0:0:
453,310,118042,1,0,3:2:0:0:
453,310,119542,1,0,3:2:0:0:
453,310,119709,1,0,3:2:0:0:
453,310,121209,1,0,3:2:0:0:
453,310,121375,1,0,3:2:0:0:
453,310,122875,1,0,3:2:0:0:
453,310,123042,1,0,3:2:0:0:
246,188,124209,1,0,3:0:0:0:
453,310,124375,1,8,0:2:0:0:
453,310,124709,1,0,3:2:0:0:
255,193,141042,5,2,0:0:0:0:
255,193,142042,1,2,0:0:0:0:
255,193,142708,1,2,0:0:0:0:
255,193,143042,1,2,0:0:0:0:
255,193,143708,1,2,0:0:0:0:
255,193,144042,1,2,0:0:0:0:
255,193,145375,1,2,0:0:0:0:
255,193,145708,1,2,0:0:0:0:
255,193,146042,1,2,0:0:0:0:
255,193,147042,1,2,0:0:0:0:
255,193,147708,1,2,0:0:0:0:
255,193,148042,1,2,0:0:0:0:
255,193,149042,1,2,0:0:0:0:
255,193,150042,1,2,0:0:0:0:
255,193,151042,1,2,0:0:0:0:
255,193,152042,1,2,0:0:0:0:
453,310,156041,1,0,3:2:0:0:
452,312,157041,1,10,0:2:0:0:
453,310,157708,1,0,3:2:0:0:
453,310,158041,1,2,3:2:0:0:
255,197,158708,1,2,0:2:0:0:
452,312,159041,1,10,0:2:0:0:
453,310,159708,1,2,3:2:0:0:
453,310,160041,1,2,3:2:0:0:
452,312,161041,1,8,0:2:0:0:
255,197,161375,1,2,0:2:0:0:
453,310,161708,1,2,3:2:0:0:
453,310,162041,1,2,3:2:0:0:
452,312,163041,1,8,0:2:0:0:
453,310,163708,1,0,3:2:0:0:
453,310,164041,1,0,3:2:0:0:
452,312,165041,1,10,0:2:0:0:
453,310,165708,1,0,3:2:0:0:
453,310,166041,1,2,3:2:0:0:
452,312,167041,1,10,0:2:0:0:
453,310,167708,1,0,3:2:0:0:
453,310,168041,1,2,3:2:0:0:
452,312,169041,1,8,0:2:0:0:
453,310,169708,1,0,3:2:0:0:
453,310,170041,1,0,3:2:0:0:
452,312,171041,1,10,0:2:0:0:
453,310,171708,1,0,3:2:0:0:
453,310,172041,1,2,3:2:0:0:
452,312,173041,1,10,0:2:0:0:
453,310,173708,1,0,3:2:0:0:
453,310,174041,1,2,3:2:0:0:
452,312,175041,1,12,0:2:0:0:
453,310,176041,1,2,3:2:0:0:
453,310,176541,1,0,3:2:0:0:
453,310,176875,1,0,3:2:0:0:
452,312,177041,1,8,0:2:0:0:
453,310,177708,1,0,3:2:0:0:
453,310,178041,1,2,3:2:0:0:
453,310,178208,1,0,3:2:0:0:
453,310,178541,1,0,3:2:0:0:
453,310,178875,1,0,3:2:0:0:
453,310,178958,1,0,3:2:0:0:
452,312,179041,1,8,0:2:0:0:
453,310,179208,1,0,3:2:0:0:
453,310,179291,1,0,3:2:0:0:
452,312,179375,1,8,0:2:0:0:
453,310,179541,1,0,3:2:0:0:
452,312,179708,1,10,0:2:0:0:
452,312,179875,1,8,0:2:0:0:
453,310,180041,1,2,3:2:0:0:
453,310,180541,1,2,3:2:0:0:
453,310,180875,1,0,3:2:0:0:
452,312,181041,1,10,0:2:0:0:
453,310,181708,1,2,3:2:0:0:
453,310,182041,1,2,3:2:0:0:
453,310,182541,1,2,3:2:0:0:
453,310,182875,1,0,3:2:0:0:
453,310,182958,1,0,3:2:0:0:
452,312,183041,1,10,0:2:0:0:
453,310,183375,1,2,3:2:0:0:
453,310,183708,1,2,3:2:0:0:
453,310,184041,1,2,3:2:0:0:
453,310,184541,1,0,3:2:0:0:
453,310,184875,1,0,3:2:0:0:
453,310,184958,1,0,3:2:0:0:
452,312,185041,1,8,0:2:0:0:
453,310,185375,1,0,3:2:0:0:
453,310,185708,1,2,3:2:0:0:
453,310,186041,1,2,3:2:0:0:
453,310,186541,1,2,3:2:0:0:
453,310,186875,1,0,3:2:0:0:
453,310,186958,1,0,3:2:0:0:
452,312,187041,1,10,0:2:0:0:
452,312,187375,1,8,0:2:0:0:
453,310,187541,1,0,3:2:0:0:
453,310,187708,1,2,3:2:0:0:
453,310,188041,1,2,3:2:0:0:
452,312,188541,1,8,0:2:0:0:
453,310,188708,1,0,3:2:0:0:
453,310,189041,1,0,3:2:0:0:
452,312,189375,1,8,0:2:0:0:
453,310,189541,1,0,3:2:0:0:
452,312,189708,1,8,0:2:0:0:
453,310,189875,1,0,3:2:0:0:
453,310,190041,1,0,3:2:0:0:
452,312,190541,1,8,0:2:0:0:
452,312,190708,1,8,0:2:0:0:
453,310,190875,1,0,3:2:0:0:
453,310,190958,1,0,3:2:0:0:
453,310,191041,1,8,0:2:0:0:
453,310,191375,1,0,3:2:0:0:
453,310,191541,1,0,3:2:0:0:
453,310,191708,1,0,3:2:0:0:
453,310,191875,1,0,3:2:0:0:
453,310,192041,1,6,0:2:0:0:
453,310,192541,1,0,3:2:0:0:
453,310,192875,1,0,3:2:0:0:
453,310,192958,1,0,3:2:0:0:
452,312,193041,1,8,0:2:0:0:
453,310,193708,1,0,3:2:0:0:
453,310,194041,1,2,3:2:0:0:
453,310,194541,1,0,3:2:0:0:
453,310,194875,1,0,3:2:0:0:
453,310,194958,1,0,3:2:0:0:
452,312,195041,1,8,0:2:0:0:
453,310,195208,1,0,3:2:0:0:
453,310,195291,1,0,3:2:0:0:
452,312,195375,1,8,0:2:0:0:
453,310,195541,1,0,3:2:0:0:
452,312,195708,1,2,3:2:0:0:
452,312,195875,1,8,0:2:0:0:
453,310,196041,1,2,3:2:0:0:
453,310,196541,1,2,3:2:0:0:
453,310,196875,1,0,3:2:0:0:
453,310,196958,1,0,3:2:0:0:
452,312,197041,1,10,0:2:0:0:
453,310,197708,1,2,3:2:0:0:
453,310,198041,1,2,3:2:0:0:
453,310,198541,1,2,3:2:0:0:
453,310,198875,1,0,3:2:0:0:
453,310,198958,1,0,3:2:0:0:
452,312,199041,1,8,0:2:0:0:
453,310,199375,1,2,3:2:0:0:
453,310,199708,1,2,3:2:0:0:
453,310,200041,1,2,3:2:0:0:
453,310,200541,1,0,3:2:0:0:
453,310,200875,1,0,3:2:0:0:
453,310,200958,1,0,3:2:0:0:
452,312,201041,1,8,0:2:0:0:
453,310,201375,1,0,3:2:0:0:
453,310,201708,1,2,3:2:0:0:
453,310,202041,1,2,3:2:0:0:
453,310,202541,1,2,3:2:0:0:
453,310,202875,1,0,3:2:0:0:
453,310,202958,1,0,3:2:0:0:
452,312,203041,1,10,0:2:0:0:
452,312,203375,1,10,0:2:0:0:
453,310,203541,1,0,3:2:0:0:
453,310,203708,1,2,3:2:0:0:
453,310,204041,1,2,3:2:0:0:
452,312,204541,1,8,0:2:0:0:
453,310,204708,1,0,3:2:0:0:
453,310,205041,1,0,3:2:0:0:
452,312,205375,1,8,0:2:0:0:
453,310,205541,1,0,3:2:0:0:
452,312,205708,1,8,0:2:0:0:
453,310,205875,1,0,3:2:0:0:
453,310,206041,1,2,3:2:0:0:
452,312,206541,1,8,0:2:0:0:
452,312,206708,1,8,0:2:0:0:
453,310,206875,1,0,3:2:0:0:
453,310,207041,1,2,3:2:0:0:
453,310,207208,1,0,3:2:0:0:
453,310,207375,1,0,3:2:0:0:
453,310,207541,1,0,3:2:0:0:
453,310,207708,1,0,3:2:0:0:
453,310,207875,1,0,3:2:0:0:
453,310,208041,1,6,3:2:0:0:
453,310,208125,1,0,3:2:0:0:
453,310,208208,1,0,3:2:0:0:
453,310,208291,1,0,3:2:0:0:
452,312,208375,1,8,0:2:0:0:
453,310,208458,1,0,3:2:0:0:
453,310,208541,1,0,3:2:0:0:
453,310,208625,1,0,3:2:0:0:
452,312,208708,1,8,0:2:0:0:
453,310,208791,1,0,3:2:0:0:
453,310,208875,1,0,3:2:0:0:
453,310,208958,1,0,3:2:0:0:
452,312,209041,1,8,0:2:0:0:
453,310,209125,1,0,3:2:0:0:
453,310,209208,1,0,3:2:0:0:
453,310,209291,1,0,3:2:0:0:
452,312,209375,1,8,0:2:0:0:
453,310,209458,1,0,3:2:0:0:
453,310,209541,1,0,3:2:0:0:
453,310,209625,1,0,3:2:0:0:
452,312,209708,1,8,0:2:0:0:
428,286,209791,1,8,3:2:0:0:
428,286,209875,1,8,3:2:0:0:
428,286,209958,1,8,3:2:0:0:
452,312,210041,1,8,0:2:0:0:
428,287,210125,1,0,3:2:0:0:
452,312,210208,1,8,0:2:0:0:
428,287,210291,1,0,3:2:0:0:
452,312,210375,1,8,0:2:0:0:
428,287,210458,1,0,3:2:0:0:
452,312,210541,1,8,0:2:0:0:
428,287,210625,1,0,3:2:0:0:
452,312,210708,1,8,0:2:0:0:
428,287,210791,1,0,3:2:0:0:
452,312,210875,1,8,0:2:0:0:
428,287,210958,1,0,3:2:0:0:
452,312,211041,1,8,0:2:0:0:
428,287,211125,1,0,3:2:0:0:
428,287,211208,1,0,3:2:0:0:
428,287,211291,1,0,3:2:0:0:
428,287,211375,1,0,3:2:0:0:
428,287,211458,1,0,3:2:0:0:
428,287,211541,1,0,3:2:0:0:
428,287,211625,1,0,3:2:0:0:
452,312,211708,1,8,0:2:0:0:
428,287,211875,1,0,3:2:0:0:
452,312,212041,1,8,0:2:0:0:
428,287,212125,1,0,3:2:0:0:
428,287,212208,1,0,3:2:0:0:
428,287,212291,1,0,3:2:0:0:
428,287,212375,1,0,3:2:0:0:
428,287,212458,1,0,3:2:0:0:
428,287,212541,1,0,3:2:0:0:
428,287,212625,1,0,3:2:0:0:
452,312,212708,1,8,0:2:0:0:
452,312,212875,1,8,0:2:0:0:
452,312,213041,1,8,0:2:0:0:
428,287,213125,1,0,3:2:0:0:
428,287,213208,1,0,3:2:0:0:
428,287,213291,1,0,3:2:0:0:
428,287,213375,1,0,3:2:0:0:
428,287,213458,1,0,3:2:0:0:
428,287,213541,1,0,3:2:0:0:
428,287,213625,1,0,3:2:0:0:
452,312,213708,1,8,0:2:0:0:
452,312,213875,1,8,0:2:0:0:
452,312,214041,1,8,0:2:0:0:
428,287,214125,1,0,3:2:0:0:
428,287,214208,1,0,3:2:0:0:
428,287,214291,1,0,3:2:0:0:
428,287,214375,1,0,3:2:0:0:
428,287,214458,1,0,3:2:0:0:
428,287,214541,1,0,3:2:0:0:
428,287,214625,1,0,3:2:0:0:
428,287,214708,1,8,0:2:0:0:
452,312,214875,1,8,0:2:0:0:
452,312,215041,1,8,0:2:0:0:
428,287,215125,1,0,3:2:0:0:
428,287,215208,1,0,3:2:0:0:
428,287,215291,1,0,3:2:0:0:
428,287,215375,1,0,3:2:0:0:
428,287,215458,1,0,3:2:0:0:
428,287,215541,1,0,3:2:0:0:
428,287,215625,1,0,3:2:0:0:
428,287,215708,1,8,0:2:0:0:
452,312,215875,1,8,0:2:0:0:
452,312,216041,1,12,3:2:0:0:
255,197,223791,5,2,0:2:0:0:
