osu file format v14

[General]
AudioFilename: audio.mp3
AudioLeadIn: 0
PreviewTime: 17024
Countdown: 0
SampleSet: Normal
StackLeniency: 0.7
Mode: 1
LetterboxInBreaks: 0
WidescreenStoryboard: 1

[Editor]
Bookmarks: 2341,2972,4078,5025,6130,6762,7867,14818,30293,33766,47658,61761,77024,89655,102288,107023,121231,136389,166711,204606,229867,242499
DistanceSpacing: 1
BeatDivisor: 3
GridSize: 32
TimelineZoom: 2.25

[Metadata]
Title:Leia - Remind
TitleUnicode:Leia - Remind
Artist:Yuyoyuppe
ArtistUnicode:ゆよゆっぺ
Creator:Eyenine
Version:Muzukashii
Source:
Tags:rock japanese vocaloid vocarock megurine luka v4x 巡音ルカ planetary suicide story of hope draw the emotional dj'tekina//something dj tekina something meola yupeyupe
BeatmapID:2840828
BeatmapSetID:1350334

[Difficulty]
HPDrainRate:5.5
CircleSize:5
OverallDifficulty:5
ApproachRate:8
SliderMultiplier:1.4
SliderTickRate:1

[Events]
//Background and Video events
0,0,"daisy.jpg",0,0
//Break Periods
//Storyboard Layer 0 (Background)
//Storyboard Layer 1 (Fail)
//Storyboard Layer 2 (Pass)
//Storyboard Layer 3 (Foreground)
//Storyboard Layer 4 (Overlay)
//Storyboard Sound Samples

[TimingPoints]
1236,315.789473684211,6,1,0,100,1,0
2972,315.789473684211,7,1,0,100,1,0
5025,315.789473684211,6,1,0,100,1,0
6762,315.789473684211,6,1,0,100,1,0
8499,315.789473684211,6,1,0,100,1,0
10078,315.789473684211,7,1,0,100,1,0
12288,315.789473684211,8,1,0,100,1,0
14814,315.789473684211,9,1,0,80,1,0
14971,-100,9,1,0,80,0,0
17656,315.789473684211,5,1,0,100,1,8
17657,315.789473684211,5,1,0,100,1,1
17657,-100,5,1,0,100,0,1
30288,315.789473684211,11,1,0,100,1,1
33761,315.789473684211,6,1,0,100,1,8
33762,315.789473684211,6,1,0,100,1,0
34075,-100,6,1,0,80,0,0
37236,315.789473684211,6,1,0,80,1,0
40709,315.789473684211,6,1,0,80,1,0
44183,315.789473684211,6,1,0,80,1,0
47656,315.789473684211,6,1,0,80,1,8
47657,315.789473684211,6,1,0,80,1,0
51130,315.789473684211,6,1,0,80,1,0
54604,315.789473684211,6,1,0,80,1,0
58078,315.789473684211,6,1,0,80,1,0
61867,315.789473684211,6,1,0,100,1,0
62021,-100,6,1,0,60,0,0
69364,-100,6,1,0,80,0,0
76153,-100,6,1,0,30,0,0
77024,315.789473684211,5,1,0,100,1,8
77025,315.789473684211,5,1,0,100,1,1
102288,315.789473684211,3,1,0,100,1,1
107024,315.789473684211,6,1,0,90,1,9
107024,-100,6,1,0,90,0,1
107025,315.789473684211,6,1,0,90,1,0
110499,315.789473684211,6,1,0,90,1,0
113972,315.789473684211,6,1,0,90,1,0
117446,315.789473684211,6,1,0,90,1,0
121235,315.789473684211,6,1,0,90,1,8
121236,315.789473684211,6,1,0,90,1,0
136350,-100,6,1,0,100,0,0
166709,315.789473684211,5,1,0,100,1,0
166824,-133.333333333333,5,1,0,50,0,0
179261,-117.647058823529,5,1,0,60,0,0
201403,-100,5,1,0,30,0,0
203929,-100,5,1,0,80,0,0
204603,-100,5,1,0,100,0,1
229866,-100,5,1,0,100,0,0
242498,315.789473684211,3,1,0,100,1,0
242498,-100,3,1,0,100,0,0
250037,-100,3,1,0,20,0,0

[HitObjects]
160,128,1236,5,0,0:0:0:0:
160,128,1314,1,0,0:0:0:0:
160,128,1393,1,0,0:0:0:0:
160,128,1551,1,0,0:0:0:0:
352,128,1867,1,8,0:0:0:0:
352,128,2025,1,8,0:0:0:0:
352,128,2183,1,8,0:0:0:0:
160,128,2341,1,0,0:0:0:0:
352,256,2657,1,12,0:0:0:0:
160,128,2972,1,0,0:0:0:0:
160,128,3050,1,0,0:0:0:0:
160,128,3129,1,0,0:0:0:0:
160,128,3287,1,0,0:0:0:0:
352,128,3603,1,8,0:0:0:0:
352,128,3761,1,8,0:0:0:0:
352,128,3919,1,8,0:0:0:0:
160,128,4077,1,0,0:0:0:0:
352,128,4393,1,8,0:0:0:0:
352,128,4708,1,8,0:0:0:0:
160,128,5025,1,0,0:0:0:0:
160,128,5103,1,0,0:0:0:0:
160,128,5182,1,0,0:0:0:0:
160,128,5340,1,0,0:0:0:0:
352,128,5656,1,8,0:0:0:0:
352,128,5814,1,8,0:0:0:0:
352,128,5972,1,8,0:0:0:0:
160,128,6130,1,0,0:0:0:0:
352,256,6446,1,12,0:0:0:0:
160,128,6761,1,0,0:0:0:0:
160,128,6840,1,0,0:0:0:0:
160,128,6919,1,0,0:0:0:0:
160,128,7077,1,0,0:0:0:0:
352,128,7393,1,8,0:0:0:0:
352,128,7551,1,8,0:0:0:0:
352,128,7709,1,8,0:0:0:0:
160,128,7867,1,0,0:0:0:0:
160,128,8183,1,0,0:0:0:0:
160,128,8262,1,0,0:0:0:0:
160,128,8340,1,0,0:0:0:0:
352,256,8499,1,12,0:0:0:0:
352,256,8972,1,12,0:0:0:0:
352,256,9446,1,12,0:0:0:0:
352,256,9920,1,12,0:0:0:0:
160,128,10077,1,0,0:0:0:0:
160,128,10156,1,0,0:0:0:0:
160,128,10235,1,0,0:0:0:0:
160,128,10393,1,0,0:0:0:0:
160,128,10551,1,0,0:0:0:0:
352,128,10709,1,8,0:0:0:0:
352,128,10867,1,8,0:0:0:0:
160,128,11025,1,0,0:0:0:0:
160,128,11104,1,0,0:0:0:0:
160,128,11183,1,0,0:0:0:0:
160,128,11341,1,0,0:0:0:0:
352,256,11656,1,12,0:0:0:0:
352,256,11893,1,12,0:0:0:0:
352,256,12130,1,12,0:0:0:0:
160,128,12288,1,0,0:0:0:0:
160,128,12366,1,0,0:0:0:0:
160,128,12445,1,0,0:0:0:0:
160,128,12603,1,0,0:0:0:0:
352,128,12919,1,12,0:0:0:0:
352,128,13077,1,12,0:0:0:0:
352,128,13235,1,12,0:0:0:0:
160,128,13393,1,0,0:0:0:0:
352,128,13709,1,8,0:0:0:0:
352,128,13866,1,8,0:0:0:0:
352,128,13945,1,8,0:0:0:0:
352,128,14024,1,8,0:0:0:0:
160,128,14182,1,0,0:0:0:0:
160,128,14340,1,0,0:0:0:0:
352,128,14498,1,8,0:0:0:0:
160,256,14814,1,4,0:0:0:0:
352,128,15287,1,8,0:0:0:0:
352,128,15761,1,8,0:0:0:0:
352,128,16235,1,8,0:0:0:0:
352,128,16550,1,8,0:0:0:0:
352,128,16708,1,8,0:0:0:0:
160,128,17024,1,0,0:0:0:0:
160,128,17103,1,0,0:0:0:0:
160,128,17182,1,0,0:0:0:0:
352,128,17340,1,8,0:0:0:0:
160,256,17656,1,4,0:0:0:0:
352,128,18130,1,8,0:0:0:0:
160,128,18446,1,0,0:0:0:0:
352,128,18604,1,8,0:0:0:0:
160,128,18762,1,0,0:0:0:0:
352,128,18920,1,8,0:0:0:0:
160,256,19235,1,4,0:0:0:0:
160,128,19393,1,0,0:0:0:0:
160,128,19709,1,0,0:0:0:0:
352,128,20025,1,8,0:0:0:0:
160,128,20183,1,0,0:0:0:0:
160,128,20341,1,0,0:0:0:0:
160,128,20420,1,0,0:0:0:0:
160,128,20499,1,0,0:0:0:0:
160,256,20814,1,4,0:0:0:0:
160,128,20972,1,0,0:0:0:0:
352,128,21288,1,8,0:0:0:0:
160,128,21604,1,0,0:0:0:0:
352,128,21762,1,8,0:0:0:0:
160,128,21920,1,0,0:0:0:0:
352,128,22078,1,8,0:0:0:0:
160,128,22235,1,0,0:0:0:0:
352,256,22393,1,12,0:0:0:0:
352,128,22551,1,8,0:0:0:0:
352,128,22867,1,8,0:0:0:0:
160,128,23183,1,0,0:0:0:0:
160,128,23262,1,0,0:0:0:0:
160,128,23341,1,0,0:0:0:0:
160,128,23499,1,0,0:0:0:0:
352,128,23657,1,8,0:0:0:0:
160,256,23972,1,4,0:0:0:0:
352,128,24446,1,8,0:0:0:0:
160,128,24762,1,0,0:0:0:0:
352,128,24920,1,8,0:0:0:0:
160,128,25078,1,0,0:0:0:0:
352,128,25235,1,8,0:0:0:0:
160,256,25551,1,4,0:0:0:0:
160,128,25709,1,0,0:0:0:0:
160,128,26025,1,0,0:0:0:0:
352,128,26341,1,8,0:0:0:0:
160,128,26499,1,0,0:0:0:0:
160,128,26657,1,0,0:0:0:0:
160,128,26735,1,0,0:0:0:0:
160,128,26814,1,0,0:0:0:0:
160,256,27130,1,4,0:0:0:0:
160,128,27288,1,0,0:0:0:0:
352,128,27604,1,8,0:0:0:0:
160,128,27920,1,0,0:0:0:0:
352,128,28078,1,8,0:0:0:0:
160,128,28235,1,0,0:0:0:0:
352,128,28393,1,8,0:0:0:0:
160,128,28551,1,0,0:0:0:0:
352,256,28709,1,12,0:0:0:0:
352,128,29025,1,8,0:0:0:0:
160,128,29183,1,0,0:0:0:0:
352,128,29341,1,8,0:0:0:0:
160,128,29499,1,0,0:0:0:0:
352,128,29657,1,8,0:0:0:0:
352,128,29735,1,8,0:0:0:0:
352,128,29814,1,8,0:0:0:0:
352,128,29972,1,8,0:0:0:0:
160,256,30288,1,4,0:0:0:0:
352,256,30761,1,12,0:0:0:0:
160,256,31235,1,4,0:0:0:0:
352,256,31709,1,12,0:0:0:0:
160,256,32182,1,4,0:0:0:0:
352,256,32656,1,12,0:0:0:0:
160,128,32972,1,0,0:0:0:0:
352,128,33130,1,8,0:0:0:0:
160,128,33288,1,0,0:0:0:0:
352,128,33445,1,8,0:0:0:0:
352,128,33524,1,8,0:0:0:0:
352,128,33603,1,8,0:0:0:0:
160,256,33762,1,4,0:0:0:0:
352,128,34235,1,8,0:0:0:0:
160,128,34551,1,0,0:0:0:0:
160,128,34709,1,0,0:0:0:0:
352,128,35025,1,8,0:0:0:0:
160,128,35183,1,0,0:0:0:0:
352,128,35340,1,8,0:0:0:0:
160,128,35656,1,0,0:0:0:0:
160,128,35814,1,0,0:0:0:0:
352,128,36130,1,8,0:0:0:0:
160,128,36446,1,0,0:0:0:0:
160,128,36604,1,0,0:0:0:0:
352,128,36919,1,8,0:0:0:0:
160,128,37236,1,0,0:0:0:0:
352,128,37709,1,8,0:0:0:0:
160,128,38025,1,0,0:0:0:0:
160,128,38183,1,0,0:0:0:0:
160,128,38499,1,0,0:0:0:0:
160,128,38657,1,0,0:0:0:0:
352,128,38814,1,8,0:0:0:0:
160,128,39130,1,0,0:0:0:0:
160,128,39288,1,0,0:0:0:0:
352,128,39604,1,8,0:0:0:0:
160,128,39920,1,0,0:0:0:0:
160,128,40078,1,0,0:0:0:0:
352,128,40236,1,8,0:0:0:0:
352,128,40393,1,8,0:0:0:0:
160,128,40551,1,0,0:0:0:0:
352,256,40709,1,12,0:0:0:0:
352,128,41182,1,8,0:0:0:0:
160,128,41498,1,0,0:0:0:0:
160,128,41656,1,0,0:0:0:0:
160,128,41972,1,0,0:0:0:0:
160,128,42130,1,0,0:0:0:0:
352,128,42287,1,8,0:0:0:0:
160,128,42603,1,0,0:0:0:0:
160,128,42761,1,0,0:0:0:0:
352,128,43077,1,8,0:0:0:0:
160,128,43393,1,0,0:0:0:0:
160,128,43551,1,0,0:0:0:0:
352,128,43866,1,8,0:0:0:0:
352,128,44024,1,8,0:0:0:0:
160,128,44183,1,0,0:0:0:0:
352,128,44656,1,8,0:0:0:0:
160,128,44972,1,0,0:0:0:0:
160,128,45130,1,0,0:0:0:0:
160,128,45446,1,0,0:0:0:0:
160,128,45604,1,0,0:0:0:0:
352,128,45761,1,8,0:0:0:0:
160,128,46077,1,0,0:0:0:0:
160,128,46551,1,0,0:0:0:0:
352,128,46709,1,8,0:0:0:0:
160,128,46867,1,0,0:0:0:0:
160,128,47025,1,0,0:0:0:0:
352,128,47183,1,8,0:0:0:0:
160,128,47340,1,0,0:0:0:0:
352,128,47498,1,8,0:0:0:0:
160,256,47657,1,4,0:0:0:0:
160,128,47972,1,0,0:0:0:0:
352,128,48288,1,8,0:0:0:0:
352,128,48446,1,8,0:0:0:0:
160,128,48604,1,0,0:0:0:0:
160,128,48920,1,0,0:0:0:0:
352,128,49235,1,8,0:0:0:0:
160,128,49551,1,0,0:0:0:0:
160,128,49867,1,0,0:0:0:0:
160,128,50025,1,0,0:0:0:0:
352,128,50183,1,8,0:0:0:0:
352,128,50341,1,8,0:0:0:0:
160,128,50499,1,0,0:0:0:0:
352,128,50657,1,8,0:0:0:0:
352,128,50814,1,8,0:0:0:0:
160,256,51130,1,4,0:0:0:0:
352,128,51445,1,8,0:0:0:0:
352,128,51761,1,8,0:0:0:0:
352,128,51919,1,8,0:0:0:0:
160,128,52077,1,0,0:0:0:0:
160,128,52393,1,0,0:0:0:0:
352,128,52708,1,8,0:0:0:0:
160,128,53024,1,0,0:0:0:0:
160,128,53340,1,0,0:0:0:0:
160,128,53498,1,0,0:0:0:0:
352,128,53656,1,8,0:0:0:0:
160,128,53972,1,0,0:0:0:0:
352,128,54130,1,8,0:0:0:0:
160,128,54287,1,0,0:0:0:0:
160,128,54366,1,0,0:0:0:0:
160,128,54445,1,0,0:0:0:0:
352,256,54604,1,12,0:0:0:0:
160,128,54919,1,0,0:0:0:0:
352,128,55235,1,8,0:0:0:0:
352,128,55393,1,8,0:0:0:0:
160,128,55551,1,0,0:0:0:0:
160,128,55867,1,0,0:0:0:0:
352,128,56182,1,8,0:0:0:0:
160,128,56498,1,0,0:0:0:0:
160,128,56814,1,0,0:0:0:0:
160,128,56972,1,0,0:0:0:0:
352,128,57130,1,8,0:0:0:0:
352,128,57288,1,8,0:0:0:0:
160,128,57446,1,0,0:0:0:0:
352,128,57604,1,8,0:0:0:0:
352,128,57761,1,8,0:0:0:0:
160,256,58078,1,4,0:0:0:0:
160,128,58393,1,0,0:0:0:0:
352,128,58709,1,8,0:0:0:0:
352,128,58867,1,8,0:0:0:0:
160,128,59025,1,0,0:0:0:0:
160,128,59341,1,0,0:0:0:0:
352,128,59656,1,8,0:0:0:0:
160,128,59972,1,0,0:0:0:0:
160,128,60130,1,0,0:0:0:0:
352,128,60288,1,8,0:0:0:0:
160,128,60446,1,0,0:0:0:0:
352,128,60604,1,8,0:0:0:0:
160,128,60920,1,0,0:0:0:0:
160,128,60999,1,0,0:0:0:0:
160,128,61078,1,0,0:0:0:0:
352,128,61235,1,8,0:0:0:0:
160,128,61393,1,0,0:0:0:0:
352,128,61551,1,8,0:0:0:0:
160,256,61867,1,4,0:0:0:0:
160,128,63761,1,0,0:0:0:0:
160,128,64235,1,0,0:0:0:0:
352,128,64709,1,8,0:0:0:0:
352,128,65024,1,8,0:0:0:0:
352,128,65340,1,8,0:0:0:0:
160,128,65656,1,0,0:0:0:0:
352,128,66130,1,8,0:0:0:0:
160,128,67235,1,0,0:0:0:0:
160,128,67551,1,0,0:0:0:0:
160,128,68024,1,0,0:0:0:0:
160,128,68498,1,0,0:0:0:0:
352,128,69130,1,8,0:0:0:0:
160,256,69445,1,4,0:0:0:0:
160,128,70077,1,0,0:0:0:0:
160,128,70182,1,0,0:0:0:0:
160,128,70288,1,0,0:0:0:0:
352,128,70603,1,8,0:0:0:0:
160,128,70919,1,0,0:0:0:0:
160,128,71235,1,0,0:0:0:0:
352,128,71340,1,8,0:0:0:0:
352,128,71867,1,8,0:0:0:0:
160,128,71972,1,0,0:0:0:0:
160,128,72288,1,0,0:0:0:0:
352,128,72814,1,8,0:0:0:0:
160,256,73235,1,4,0:0:0:0:
160,128,73551,1,0,0:0:0:0:
160,128,73867,1,0,0:0:0:0:
160,128,74182,1,0,0:0:0:0:
160,128,74498,1,0,0:0:0:0:
352,128,74656,1,8,0:0:0:0:
160,128,74814,1,0,0:0:0:0:
160,256,75130,1,4,0:0:0:0:
160,128,75445,1,0,0:0:0:0:
352,128,75761,1,8,0:0:0:0:
160,128,75919,1,0,0:0:0:0:
160,128,75998,1,0,0:0:0:0:
160,128,76077,1,0,0:0:0:0:
160,256,77025,1,4,0:0:0:0:
352,128,77498,1,8,0:0:0:0:
160,128,77814,1,0,0:0:0:0:
352,128,77972,1,8,0:0:0:0:
160,128,78130,1,0,0:0:0:0:
352,128,78288,1,8,0:0:0:0:
160,256,78603,1,4,0:0:0:0:
160,128,78761,1,0,0:0:0:0:
160,128,79077,1,0,0:0:0:0:
352,128,79393,1,8,0:0:0:0:
160,128,79551,1,0,0:0:0:0:
160,128,79709,1,0,0:0:0:0:
160,128,79788,1,0,0:0:0:0:
160,128,79867,1,0,0:0:0:0:
160,256,80182,1,4,0:0:0:0:
160,128,80340,1,0,0:0:0:0:
352,128,80656,1,8,0:0:0:0:
160,128,80972,1,0,0:0:0:0:
352,128,81130,1,8,0:0:0:0:
160,128,81288,1,0,0:0:0:0:
352,128,81446,1,8,0:0:0:0:
160,128,81603,1,0,0:0:0:0:
352,256,81761,1,12,0:0:0:0:
352,128,81919,1,8,0:0:0:0:
352,128,82235,1,8,0:0:0:0:
160,128,82551,1,0,0:0:0:0:
160,128,82630,1,0,0:0:0:0:
160,128,82709,1,0,0:0:0:0:
160,128,82867,1,0,0:0:0:0:
352,128,83025,1,8,0:0:0:0:
160,256,83340,1,4,0:0:0:0:
352,128,83814,1,8,0:0:0:0:
160,128,84130,1,0,0:0:0:0:
352,128,84288,1,8,0:0:0:0:
160,128,84446,1,0,0:0:0:0:
352,128,84603,1,8,0:0:0:0:
160,256,84919,1,4,0:0:0:0:
160,128,85077,1,0,0:0:0:0:
160,128,85393,1,0,0:0:0:0:
352,128,85709,1,8,0:0:0:0:
160,128,85867,1,0,0:0:0:0:
160,128,86025,1,0,0:0:0:0:
160,128,86103,1,0,0:0:0:0:
160,128,86182,1,0,0:0:0:0:
160,256,86498,1,4,0:0:0:0:
160,128,86656,1,0,0:0:0:0:
352,128,86972,1,8,0:0:0:0:
160,128,87288,1,0,0:0:0:0:
352,128,87446,1,8,0:0:0:0:
160,128,87603,1,0,0:0:0:0:
352,128,87761,1,8,0:0:0:0:
160,128,87919,1,0,0:0:0:0:
352,256,88077,1,12,0:0:0:0:
352,128,88393,1,8,0:0:0:0:
160,128,88551,1,0,0:0:0:0:
352,128,88709,1,8,0:0:0:0:
160,128,88867,1,0,0:0:0:0:
352,128,89025,1,8,0:0:0:0:
160,128,89182,1,0,0:0:0:0:
352,128,89340,1,8,0:0:0:0:
352,128,89419,1,8,0:0:0:0:
352,128,89498,1,8,0:0:0:0:
160,256,89656,1,4,0:0:0:0:
160,128,90288,1,0,0:0:0:0:
160,128,90446,1,0,0:0:0:0:
352,128,90603,1,8,0:0:0:0:
160,128,90919,1,0,0:0:0:0:
352,128,91077,1,8,0:0:0:0:
160,128,91235,1,0,0:0:0:0:
160,128,91393,1,0,0:0:0:0:
352,128,91551,1,8,0:0:0:0:
160,128,91709,1,0,0:0:0:0:
352,128,91867,1,8,0:0:0:0:
160,128,92182,1,0,0:0:0:0:
160,128,92340,1,0,0:0:0:0:
352,128,92498,1,8,0:0:0:0:
160,256,92814,1,4,0:0:0:0:
352,128,93130,1,8,0:0:0:0:
160,128,93446,1,0,0:0:0:0:
160,128,93603,1,0,0:0:0:0:
352,128,93761,1,8,0:0:0:0:
160,128,94077,1,0,0:0:0:0:
160,128,94235,1,0,0:0:0:0:
352,128,94393,1,8,0:0:0:0:
352,128,94551,1,8,0:0:0:0:
160,128,94709,1,0,0:0:0:0:
352,128,94867,1,8,0:0:0:0:
352,128,95025,1,8,0:0:0:0:
160,128,95340,1,0,0:0:0:0:
160,128,95419,1,0,0:0:0:0:
160,128,95498,1,0,0:0:0:0:
352,128,95656,1,8,0:0:0:0:
160,256,95972,1,4,0:0:0:0:
352,128,96288,1,8,0:0:0:0:
160,128,96603,1,0,0:0:0:0:
160,128,96761,1,0,0:0:0:0:
352,128,96919,1,8,0:0:0:0:
160,128,97235,1,0,0:0:0:0:
352,128,97393,1,8,0:0:0:0:
160,128,97551,1,0,0:0:0:0:
160,128,97709,1,0,0:0:0:0:
352,128,97867,1,8,0:0:0:0:
160,128,98025,1,0,0:0:0:0:
352,128,98182,1,8,0:0:0:0:
160,128,98498,1,0,0:0:0:0:
160,128,98656,1,0,0:0:0:0:
352,128,98814,1,8,0:0:0:0:
160,256,99130,1,4,0:0:0:0:
352,128,99446,1,8,0:0:0:0:
160,128,99761,1,0,0:0:0:0:
160,128,99919,1,0,0:0:0:0:
352,128,100077,1,8,0:0:0:0:
160,128,100393,1,0,0:0:0:0:
160,128,100551,1,0,0:0:0:0:
352,128,100709,1,8,0:0:0:0:
352,128,100867,1,8,0:0:0:0:
160,128,101025,1,0,0:0:0:0:
352,128,101182,1,8,0:0:0:0:
352,128,101340,1,8,0:0:0:0:
352,128,101656,1,8,0:0:0:0:
352,128,101735,1,8,0:0:0:0:
352,128,101814,1,8,0:0:0:0:
352,128,101972,1,8,0:0:0:0:
352,128,102051,1,8,0:0:0:0:
352,128,102130,1,8,0:0:0:0:
160,256,102288,1,4,0:0:0:0:
160,256,102761,1,4,0:0:0:0:
160,256,103235,1,4,0:0:0:0:
160,256,103709,1,4,0:0:0:0:
160,256,104182,1,4,0:0:0:0:
160,256,104656,1,4,0:0:0:0:
352,256,105130,1,12,0:0:0:0:
352,256,105603,1,12,0:0:0:0:
352,256,106077,1,12,0:0:0:0:
352,256,106551,1,12,0:0:0:0:
160,256,107025,1,4,0:0:0:0:
352,128,107656,1,8,0:0:0:0:
160,128,107972,1,0,0:0:0:0:
160,128,108130,1,0,0:0:0:0:
352,128,108288,1,8,0:0:0:0:
160,128,108446,1,0,0:0:0:0:
352,128,108603,1,8,0:0:0:0:
160,128,108919,1,0,0:0:0:0:
160,128,109077,1,0,0:0:0:0:
352,128,109235,1,8,0:0:0:0:
352,128,109551,1,8,0:0:0:0:
160,128,109867,1,0,0:0:0:0:
160,128,110025,1,0,0:0:0:0:
352,256,110182,1,12,0:0:0:0:
160,256,110499,1,4,0:0:0:0:
352,128,111130,1,8,0:0:0:0:
160,128,111446,1,0,0:0:0:0:
160,128,111604,1,0,0:0:0:0:
160,128,111762,1,0,0:0:0:0:
160,128,111920,1,0,0:0:0:0:
352,128,112077,1,8,0:0:0:0:
160,128,112393,1,0,0:0:0:0:
160,128,112551,1,0,0:0:0:0:
352,128,112709,1,8,0:0:0:0:
352,128,112867,1,8,0:0:0:0:
160,128,113025,1,0,0:0:0:0:
160,128,113183,1,0,0:0:0:0:
160,128,113341,1,0,0:0:0:0:
352,128,113499,1,8,0:0:0:0:
352,128,113577,1,8,0:0:0:0:
352,128,113656,1,8,0:0:0:0:
352,128,113814,1,8,0:0:0:0:
160,256,113972,1,4,0:0:0:0:
160,128,114603,1,0,0:0:0:0:
160,128,114919,1,0,0:0:0:0:
160,128,115077,1,0,0:0:0:0:
352,128,115235,1,8,0:0:0:0:
160,128,115393,1,0,0:0:0:0:
352,128,115550,1,8,0:0:0:0:
160,128,115866,1,0,0:0:0:0:
160,128,116024,1,0,0:0:0:0:
352,128,116182,1,8,0:0:0:0:
352,128,116498,1,8,0:0:0:0:
160,128,116814,1,0,0:0:0:0:
160,128,116972,1,0,0:0:0:0:
352,256,117129,1,12,0:0:0:0:
160,256,117446,1,4,0:0:0:0:
352,128,117919,1,8,0:0:0:0:
160,128,118235,1,0,0:0:0:0:
160,128,118393,1,0,0:0:0:0:
160,128,118709,1,0,0:0:0:0:
160,128,118867,1,0,0:0:0:0:
352,128,119024,1,8,0:0:0:0:
160,128,119340,1,0,0:0:0:0:
160,128,119498,1,0,0:0:0:0:
352,128,119656,1,8,0:0:0:0:
352,128,119972,1,8,0:0:0:0:
352,128,120288,1,8,0:0:0:0:
160,128,120446,1,0,0:0:0:0:
160,128,120524,1,0,0:0:0:0:
160,128,120603,1,0,0:0:0:0:
352,128,120761,1,8,0:0:0:0:
352,128,120919,1,8,0:0:0:0:
352,128,121077,1,8,0:0:0:0:
160,256,121236,1,4,0:0:0:0:
160,256,121393,1,4,0:0:0:0:
160,256,121709,1,4,0:0:0:0:
160,256,122025,1,4,0:0:0:0:
352,256,122183,1,12,0:0:0:0:
160,256,123130,1,4,0:0:0:0:
160,256,123288,1,4,0:0:0:0:
160,256,123604,1,4,0:0:0:0:
160,256,123920,1,4,0:0:0:0:
352,256,124078,1,12,0:0:0:0:
160,128,124393,1,0,0:0:0:0:
160,128,124709,1,0,0:0:0:0:
160,256,125025,1,4,0:0:0:0:
160,256,125183,1,4,0:0:0:0:
160,256,125499,1,4,0:0:0:0:
160,256,125814,1,4,0:0:0:0:
352,256,125972,1,12,0:0:0:0:
160,256,126920,1,4,0:0:0:0:
160,256,127078,1,4,0:0:0:0:
160,256,127393,1,4,0:0:0:0:
160,256,127709,1,4,0:0:0:0:
352,256,127867,1,12,0:0:0:0:
160,128,128183,1,0,0:0:0:0:
352,128,128341,1,8,0:0:0:0:
352,128,128420,1,8,0:0:0:0:
352,128,128499,1,8,0:0:0:0:
352,128,128657,1,8,0:0:0:0:
160,256,128814,1,4,0:0:0:0:
160,256,128972,1,4,0:0:0:0:
160,256,129288,1,4,0:0:0:0:
160,256,129604,1,4,0:0:0:0:
352,256,129762,1,12,0:0:0:0:
160,256,130709,1,4,0:0:0:0:
160,256,130867,1,4,0:0:0:0:
160,256,131183,1,4,0:0:0:0:
160,256,131499,1,4,0:0:0:0:
352,256,131657,1,12,0:0:0:0:
160,128,131972,1,0,0:0:0:0:
160,128,132288,1,0,0:0:0:0:
160,256,132604,1,4,0:0:0:0:
160,128,132920,1,0,0:0:0:0:
160,128,133236,1,0,0:0:0:0:
352,128,133551,1,8,0:0:0:0:
160,128,133867,1,0,0:0:0:0:
160,128,134183,1,0,0:0:0:0:
352,128,134499,1,8,0:0:0:0:
160,128,134657,1,0,0:0:0:0:
160,128,134814,1,0,0:0:0:0:
352,128,134972,1,8,0:0:0:0:
160,128,135130,1,0,0:0:0:0:
160,128,135288,1,0,0:0:0:0:
352,128,135446,1,8,0:0:0:0:
352,128,135762,1,8,0:0:0:0:
160,128,135920,1,0,0:0:0:0:
352,128,136078,1,8,0:0:0:0:
352,128,136157,1,8,0:0:0:0:
352,128,136236,1,8,0:0:0:0:
160,256,136393,1,4,0:0:0:0:
352,128,136867,1,8,0:0:0:0:
160,128,137183,1,0,0:0:0:0:
160,128,137341,1,0,0:0:0:0:
160,128,137657,1,0,0:0:0:0:
160,128,137814,1,0,0:0:0:0:
352,128,137972,1,8,0:0:0:0:
160,256,138288,1,4,0:0:0:0:
160,128,138446,1,0,0:0:0:0:
352,128,138762,1,8,0:0:0:0:
160,128,139078,1,0,0:0:0:0:
160,128,139236,1,0,0:0:0:0:
352,128,139393,1,8,0:0:0:0:
352,128,139551,1,8,0:0:0:0:
160,128,139709,1,0,0:0:0:0:
352,128,139867,1,8,0:0:0:0:
160,256,140183,1,4,0:0:0:0:
352,128,140657,1,8,0:0:0:0:
160,128,140972,1,0,0:0:0:0:
160,128,141130,1,0,0:0:0:0:
160,128,141446,1,0,0:0:0:0:
160,128,141604,1,0,0:0:0:0:
352,128,141762,1,8,0:0:0:0:
352,128,141920,1,8,0:0:0:0:
160,256,142078,1,4,0:0:0:0:
160,128,142236,1,0,0:0:0:0:
352,128,142551,1,8,0:0:0:0:
160,128,142867,1,0,0:0:0:0:
352,128,143025,1,8,0:0:0:0:
160,128,143183,1,0,0:0:0:0:
160,128,143341,1,0,0:0:0:0:
160,128,143420,1,0,0:0:0:0:
160,128,143499,1,0,0:0:0:0:
352,128,143657,1,8,0:0:0:0:
160,256,143972,1,4,0:0:0:0:
352,128,144446,1,8,0:0:0:0:
160,128,144762,1,0,0:0:0:0:
160,128,144920,1,0,0:0:0:0:
160,128,145236,1,0,0:0:0:0:
160,128,145393,1,0,0:0:0:0:
352,128,145551,1,8,0:0:0:0:
160,256,145867,1,4,0:0:0:0:
160,128,146025,1,0,0:0:0:0:
352,128,146341,1,8,0:0:0:0:
160,128,146657,1,0,0:0:0:0:
160,128,146814,1,0,0:0:0:0:
352,128,146972,1,8,0:0:0:0:
352,128,147130,1,8,0:0:0:0:
160,128,147288,1,0,0:0:0:0:
352,128,147446,1,8,0:0:0:0:
160,256,147762,1,4,0:0:0:0:
352,128,148236,1,8,0:0:0:0:
160,128,148551,1,0,0:0:0:0:
160,128,148709,1,0,0:0:0:0:
160,128,149025,1,0,0:0:0:0:
160,128,149183,1,0,0:0:0:0:
352,128,149341,1,8,0:0:0:0:
352,128,149499,1,8,0:0:0:0:
160,256,149657,1,4,0:0:0:0:
160,128,149814,1,0,0:0:0:0:
352,128,150130,1,8,0:0:0:0:
160,128,150446,1,0,0:0:0:0:
352,128,150604,1,8,0:0:0:0:
352,128,150762,1,8,0:0:0:0:
160,128,150920,1,0,0:0:0:0:
160,128,150999,1,0,0:0:0:0:
160,128,151078,1,0,0:0:0:0:
352,128,151236,1,8,0:0:0:0:
352,128,151393,1,8,0:0:0:0:
160,256,151551,1,4,0:0:0:0:
352,128,152025,1,8,0:0:0:0:
160,128,152341,1,0,0:0:0:0:
160,128,152499,1,0,0:0:0:0:
352,128,152657,1,8,0:0:0:0:
160,128,152814,1,0,0:0:0:0:
160,128,152972,1,0,0:0:0:0:
352,128,153130,1,8,0:0:0:0:
160,256,153446,1,4,0:0:0:0:
160,128,153604,1,0,0:0:0:0:
352,128,153920,1,8,0:0:0:0:
160,128,154236,1,0,0:0:0:0:
160,128,154393,1,0,0:0:0:0:
352,128,154551,1,8,0:0:0:0:
352,128,154709,1,8,0:0:0:0:
160,128,154867,1,0,0:0:0:0:
352,128,155025,1,8,0:0:0:0:
352,128,155183,1,8,0:0:0:0:
160,256,155341,1,4,0:0:0:0:
160,128,155499,1,0,0:0:0:0:
352,128,155814,1,8,0:0:0:0:
160,128,156130,1,0,0:0:0:0:
160,128,156288,1,0,0:0:0:0:
352,128,156446,1,8,0:0:0:0:
160,128,156604,1,0,0:0:0:0:
160,128,156762,1,0,0:0:0:0:
352,128,156920,1,8,0:0:0:0:
352,128,157078,1,8,0:0:0:0:
160,256,157236,1,4,0:0:0:0:
160,128,157393,1,0,0:0:0:0:
352,128,157709,1,8,0:0:0:0:
352,128,158025,1,8,0:0:0:0:
352,128,158104,1,8,0:0:0:0:
352,128,158183,1,8,0:0:0:0:
160,128,158341,1,0,0:0:0:0:
160,128,158499,1,0,0:0:0:0:
160,128,158578,1,0,0:0:0:0:
160,128,158657,1,0,0:0:0:0:
352,128,158814,1,8,0:0:0:0:
160,256,159130,1,4,0:0:0:0:
352,128,159604,1,8,0:0:0:0:
160,128,159920,1,0,0:0:0:0:
160,128,160078,1,0,0:0:0:0:
352,128,160236,1,8,0:0:0:0:
160,128,160393,1,0,0:0:0:0:
160,128,160551,1,0,0:0:0:0:
352,128,160709,1,8,0:0:0:0:
160,256,161025,1,4,0:0:0:0:
160,128,161183,1,0,0:0:0:0:
352,128,161499,1,8,0:0:0:0:
160,128,161814,1,0,0:0:0:0:
160,128,161972,1,0,0:0:0:0:
160,128,162130,1,0,0:0:0:0:
352,128,162288,1,8,0:0:0:0:
160,128,162446,1,0,0:0:0:0:
352,128,162604,1,8,0:0:0:0:
352,128,162762,1,8,0:0:0:0:
160,256,162920,1,4,0:0:0:0:
160,128,163078,1,0,0:0:0:0:
352,128,163393,1,8,0:0:0:0:
160,128,163709,1,0,0:0:0:0:
160,128,163867,1,0,0:0:0:0:
352,128,164025,1,8,0:0:0:0:
160,128,164183,1,0,0:0:0:0:
160,128,164341,1,0,0:0:0:0:
352,128,164499,1,8,0:0:0:0:
160,128,164657,1,0,0:0:0:0:
352,128,164814,1,8,0:0:0:0:
352,128,164893,1,8,0:0:0:0:
352,128,164972,1,8,0:0:0:0:
160,128,165130,1,0,0:0:0:0:
160,128,165209,1,0,0:0:0:0:
160,128,165288,1,0,0:0:0:0:
352,128,165446,1,8,0:0:0:0:
160,128,165604,1,0,0:0:0:0:
352,128,165762,1,8,0:0:0:0:
160,128,166078,1,0,0:0:0:0:
160,128,166157,1,0,0:0:0:0:
160,128,166236,1,0,0:0:0:0:
352,128,166393,1,8,0:0:0:0:
352,128,166472,1,8,0:0:0:0:
352,128,166551,1,8,0:0:0:0:
160,128,166709,1,0,0:0:0:0:
352,128,167656,1,8,0:0:0:0:
352,128,168287,1,8,0:0:0:0:
352,128,169235,1,8,0:0:0:0:
160,128,169866,1,0,0:0:0:0:
160,128,170814,1,0,0:0:0:0:
352,128,171445,1,8,0:0:0:0:
352,128,172393,1,8,0:0:0:0:
352,128,173024,1,8,0:0:0:0:
352,128,173972,1,8,0:0:0:0:
160,128,174603,1,0,0:0:0:0:
352,128,175551,1,8,0:0:0:0:
160,128,176182,1,0,0:0:0:0:
160,128,177130,1,0,0:0:0:0:
352,128,177761,1,8,0:0:0:0:
160,256,179340,1,4,0:0:0:0:
352,128,180287,1,8,0:0:0:0:
160,128,180919,1,0,0:0:0:0:
160,128,181866,1,0,0:0:0:0:
352,128,182182,1,8,0:0:0:0:
160,128,182498,1,0,0:0:0:0:
352,128,183445,1,8,0:0:0:0:
352,128,184077,1,8,0:0:0:0:
352,128,185024,1,8,0:0:0:0:
352,128,185340,1,8,0:0:0:0:
160,128,185656,1,0,0:0:0:0:
160,128,186603,1,0,0:0:0:0:
352,128,187235,1,8,0:0:0:0:
160,128,188182,1,0,0:0:0:0:
352,128,188498,1,8,0:0:0:0:
160,128,188814,1,0,0:0:0:0:
160,128,189761,1,0,0:0:0:0:
352,128,190393,1,8,0:0:0:0:
160,128,191024,1,0,0:0:0:0:
352,128,191340,1,8,0:0:0:0:
352,128,191656,1,8,0:0:0:0:
160,128,191972,1,0,0:0:0:0:
352,128,192919,1,8,0:0:0:0:
160,128,193551,1,0,0:0:0:0:
160,128,194498,1,0,0:0:0:0:
352,128,194814,1,8,0:0:0:0:
160,128,195130,1,0,0:0:0:0:
160,128,196077,1,0,0:0:0:0:
352,128,196709,1,8,0:0:0:0:
352,128,197656,1,8,0:0:0:0:
352,128,197972,1,8,0:0:0:0:
160,128,198287,1,0,0:0:0:0:
352,128,199235,1,8,0:0:0:0:
160,128,199866,1,0,0:0:0:0:
352,128,200814,1,8,0:0:0:0:
352,128,201130,1,8,0:0:0:0:
352,128,203972,1,8,0:0:0:0:
160,128,204130,1,0,0:0:0:0:
352,128,204287,1,8,0:0:0:0:
160,256,204603,1,4,0:0:0:0:
352,128,205077,1,8,0:0:0:0:
160,128,205393,1,0,0:0:0:0:
352,128,205551,1,8,0:0:0:0:
352,128,205709,1,8,0:0:0:0:
352,128,205787,1,8,0:0:0:0:
352,128,205866,1,8,0:0:0:0:
160,256,206182,1,4,0:0:0:0:
160,128,206340,1,0,0:0:0:0:
160,128,206656,1,0,0:0:0:0:
352,128,206972,1,8,0:0:0:0:
160,128,207130,1,0,0:0:0:0:
160,128,207287,1,0,0:0:0:0:
160,128,207366,1,0,0:0:0:0:
160,128,207445,1,0,0:0:0:0:
352,128,207603,1,8,0:0:0:0:
160,256,207761,1,4,0:0:0:0:
160,128,207919,1,0,0:0:0:0:
352,128,208235,1,8,0:0:0:0:
160,128,208551,1,0,0:0:0:0:
352,128,208709,1,8,0:0:0:0:
160,128,208866,1,0,0:0:0:0:
160,128,208945,1,0,0:0:0:0:
160,128,209024,1,0,0:0:0:0:
160,128,209182,1,0,0:0:0:0:
352,256,209340,1,12,0:0:0:0:
352,128,209498,1,8,0:0:0:0:
160,128,209656,1,0,0:0:0:0:
352,128,209814,1,8,0:0:0:0:
160,128,210130,1,0,0:0:0:0:
160,128,210209,1,0,0:0:0:0:
160,128,210287,1,0,0:0:0:0:
160,128,210445,1,0,0:0:0:0:
352,128,210603,1,8,0:0:0:0:
352,128,210761,1,8,0:0:0:0:
160,256,210919,1,4,0:0:0:0:
352,128,211393,1,8,0:0:0:0:
160,128,211709,1,0,0:0:0:0:
352,128,211866,1,8,0:0:0:0:
352,128,212024,1,8,0:0:0:0:
352,128,212103,1,8,0:0:0:0:
352,128,212182,1,8,0:0:0:0:
160,256,212498,1,4,0:0:0:0:
160,128,212656,1,0,0:0:0:0:
160,128,212972,1,0,0:0:0:0:
352,128,213287,1,8,0:0:0:0:
160,128,213445,1,0,0:0:0:0:
160,128,213603,1,0,0:0:0:0:
160,128,213682,1,0,0:0:0:0:
160,128,213761,1,0,0:0:0:0:
352,128,213919,1,8,0:0:0:0:
160,256,214077,1,4,0:0:0:0:
160,128,214235,1,0,0:0:0:0:
352,128,214551,1,8,0:0:0:0:
160,128,214866,1,0,0:0:0:0:
352,128,215024,1,8,0:0:0:0:
352,128,215182,1,8,0:0:0:0:
352,128,215261,1,8,0:0:0:0:
352,128,215340,1,8,0:0:0:0:
160,128,215498,1,0,0:0:0:0:
352,256,215656,1,12,0:0:0:0:
160,128,215814,1,0,0:0:0:0:
352,128,215972,1,8,0:0:0:0:
160,128,216130,1,0,0:0:0:0:
352,128,216287,1,8,0:0:0:0:
160,128,216603,1,0,0:0:0:0:
160,128,216682,1,0,0:0:0:0:
160,128,216761,1,0,0:0:0:0:
352,128,216919,1,8,0:0:0:0:
160,256,217235,1,4,0:0:0:0:
160,128,217866,1,0,0:0:0:0:
160,128,218024,1,0,0:0:0:0:
352,128,218182,1,8,0:0:0:0:
160,128,218498,1,0,0:0:0:0:
352,128,218656,1,8,0:0:0:0:
352,128,218735,1,8,0:0:0:0:
352,128,218814,1,8,0:0:0:0:
160,128,218972,1,0,0:0:0:0:
352,128,219130,1,8,0:0:0:0:
160,128,219287,1,0,0:0:0:0:
352,128,219445,1,8,0:0:0:0:
160,128,219761,1,0,0:0:0:0:
160,128,219919,1,0,0:0:0:0:
352,128,220077,1,8,0:0:0:0:
160,256,220393,1,4,0:0:0:0:
352,128,220709,1,8,0:0:0:0:
160,128,221024,1,0,0:0:0:0:
160,128,221182,1,0,0:0:0:0:
352,128,221340,1,8,0:0:0:0:
160,128,221656,1,0,0:0:0:0:
160,128,221814,1,0,0:0:0:0:
352,128,221972,1,8,0:0:0:0:
352,128,222130,1,8,0:0:0:0:
160,128,222287,1,0,0:0:0:0:
352,128,222445,1,8,0:0:0:0:
352,128,222603,1,8,0:0:0:0:
160,128,222919,1,0,0:0:0:0:
160,128,222998,1,0,0:0:0:0:
160,128,223077,1,0,0:0:0:0:
352,128,223235,1,8,0:0:0:0:
352,128,223393,1,8,0:0:0:0:
160,256,223551,1,4,0:0:0:0:
352,128,223866,1,8,0:0:0:0:
160,128,224182,1,0,0:0:0:0:
160,128,224340,1,0,0:0:0:0:
352,128,224498,1,8,0:0:0:0:
160,128,224814,1,0,0:0:0:0:
352,128,224972,1,8,0:0:0:0:
352,128,225051,1,8,0:0:0:0:
352,128,225130,1,8,0:0:0:0:
160,128,225287,1,0,0:0:0:0:
352,128,225445,1,8,0:0:0:0:
160,128,225603,1,0,0:0:0:0:
352,128,225761,1,8,0:0:0:0:
160,128,226077,1,0,0:0:0:0:
352,128,226393,1,8,0:0:0:0:
160,256,226709,1,4,0:0:0:0:
352,128,227024,1,8,0:0:0:0:
160,128,227340,1,0,0:0:0:0:
160,128,227498,1,0,0:0:0:0:
352,128,227656,1,8,0:0:0:0:
160,128,227972,1,0,0:0:0:0:
160,128,228130,1,0,0:0:0:0:
352,128,228287,1,8,0:0:0:0:
352,128,228445,1,8,0:0:0:0:
160,128,228603,1,0,0:0:0:0:
352,128,228761,1,8,0:0:0:0:
352,128,228919,1,8,0:0:0:0:
352,128,229235,1,8,0:0:0:0:
352,128,229314,1,8,0:0:0:0:
352,128,229393,1,8,0:0:0:0:
352,128,229551,1,8,0:0:0:0:
352,128,229630,1,8,0:0:0:0:
352,128,229709,1,8,0:0:0:0:
160,256,229866,1,4,0:0:0:0:
160,256,230182,1,4,0:0:0:0:
352,256,230814,1,12,0:0:0:0:
160,128,231130,1,0,0:0:0:0:
160,256,231445,1,4,0:0:0:0:
160,256,231761,1,4,0:0:0:0:
160,128,232077,1,0,0:0:0:0:
352,128,232393,1,8,0:0:0:0:
160,128,232551,1,0,0:0:0:0:
352,128,232709,1,8,0:0:0:0:
160,256,233024,1,4,0:0:0:0:
160,256,233340,1,4,0:0:0:0:
352,256,233972,1,12,0:0:0:0:
160,128,234287,1,0,0:0:0:0:
160,256,234603,1,4,0:0:0:0:
160,256,234919,1,4,0:0:0:0:
160,128,235235,1,0,0:0:0:0:
352,128,235551,1,8,0:0:0:0:
160,128,235709,1,0,0:0:0:0:
352,128,235866,1,8,0:0:0:0:
352,128,236024,1,8,0:0:0:0:
160,256,236182,1,4,0:0:0:0:
160,256,236498,1,4,0:0:0:0:
352,256,237130,1,12,0:0:0:0:
160,128,237445,1,0,0:0:0:0:
160,256,237761,1,4,0:0:0:0:
160,256,238077,1,4,0:0:0:0:
160,128,238393,1,0,0:0:0:0:
352,128,238709,1,8,0:0:0:0:
160,128,238866,1,0,0:0:0:0:
352,128,239024,1,8,0:0:0:0:
160,256,239340,1,4,0:0:0:0:
160,128,239656,1,0,0:0:0:0:
160,128,239972,1,0,0:0:0:0:
352,128,240287,1,8,0:0:0:0:
160,128,240603,1,0,0:0:0:0:
160,128,240919,1,0,0:0:0:0:
160,128,241235,1,0,0:0:0:0:
352,128,241551,1,8,0:0:0:0:
160,128,241709,1,0,0:0:0:0:
352,128,241866,1,8,0:0:0:0:
352,128,241945,1,8,0:0:0:0:
352,128,242024,1,8,0:0:0:0:
352,128,242182,1,8,0:0:0:0:
160,256,242498,1,4,0:0:0:0:
352,128,243129,1,8,0:0:0:0:
160,256,243445,1,4,0:0:0:0:
352,128,243761,1,8,0:0:0:0:
352,128,243919,1,8,0:0:0:0:
352,128,244076,1,8,0:0:0:0:
352,128,244234,1,8,0:0:0:0:
160,256,244392,1,4,0:0:0:0:
352,128,244708,1,8,0:0:0:0:
160,128,244866,1,0,0:0:0:0:
352,128,245024,1,8,0:0:0:0:
160,128,245182,1,0,0:0:0:0:
352,128,245340,1,8,0:0:0:0:
160,128,245498,1,0,0:0:0:0:
352,128,245655,1,8,0:0:0:0:
160,128,245813,1,0,0:0:0:0:
160,128,245892,1,0,0:0:0:0:
160,128,245971,1,0,0:0:0:0:
352,128,246129,1,8,0:0:0:0:
160,256,246287,1,4,0:0:0:0:
352,128,246603,1,8,0:0:0:0:
352,128,246919,1,8,0:0:0:0:
160,256,247234,1,4,0:0:0:0:
352,128,247550,1,8,0:0:0:0:
352,128,247866,1,8,0:0:0:0:
160,256,248182,1,4,0:0:0:0:
352,128,248498,1,8,0:0:0:0:
352,128,248813,1,8,0:0:0:0:
160,128,248971,1,0,0:0:0:0:
352,128,249129,1,8,0:0:0:0:
160,128,249287,1,0,0:0:0:0:
352,128,249445,1,8,0:0:0:0:
160,128,249603,1,0,0:0:0:0:
352,128,249761,1,8,0:0:0:0:
352,128,249919,1,8,0:0:0:0:
