osu file format v14

[General]
AudioFilename: audio.mp3
AudioLeadIn: 0
PreviewTime: 146269
Countdown: 0
SampleSet: Soft
StackLeniency: 0.4
Mode: 0
LetterboxInBreaks: 0
WidescreenStoryboard: 1

[Editor]
DistanceSpacing: 2.9
BeatDivisor: 8
GridSize: 32
TimelineZoom: 1.8

[Metadata]
Title:Kami no Kotoba
TitleUnicode:カミノコトバ
Artist:Yuyoyuppe
ArtistUnicode:ゆよゆっぺ
Creator:wafer
Version:Deppy's Insane
Source:
Tags:japanese pop jpop j-pop electronic yuyoyuppe 初音ミク vocaloid dj'tekina//something featured artist fa japanese hatsune miku goopert deppyforce muya-
BeatmapID:4410167
BeatmapSetID:1357330

[Difficulty]
HPDrainRate:4
CircleSize:4
OverallDifficulty:8.6
ApproachRate:9
SliderMultiplier:2
SliderTickRate:4

[Events]
//Background and Video events
0,0,"miku crown.jpg",0,0
//Break Periods
2,181446,198101
//Storyboard Layer 0 (Background)
//Storyboard Layer 1 (Fail)
//Storyboard Layer 2 (Pass)
//Storyboard Layer 3 (Foreground)
//Storyboard Layer 4 (Overlay)
//Storyboard Sound Samples

[TimingPoints]
6701,545.454545454546,4,2,1,40,1,0
6701,-181.818181818182,4,2,1,40,0,0
6769,-181.818181818182,4,2,1,5,0,0
7110,-181.818181818182,4,2,1,40,0,0
7178,-181.818181818182,4,2,1,5,0,0
7519,-181.818181818182,4,2,1,40,0,0
11064,-181.818181818182,4,2,1,50,0,0
22996,-181.818181818182,4,2,1,5,0,0
23610,-181.818181818182,4,2,1,50,0,0
24155,-83.3333333333333,4,2,1,75,0,0
24428,-83.3333333333333,4,2,2,75,0,0
24564,-83.3333333333333,4,2,1,75,0,0
24973,-83.3333333333333,4,2,2,75,0,0
25246,-83.3333333333333,4,2,1,75,0,0
25519,-83.3333333333333,4,2,2,75,0,0
25791,-83.3333333333333,4,2,1,75,0,0
26064,-83.3333333333333,4,2,2,75,0,0
26337,-83.3333333333333,4,2,1,75,0,0
26610,-83.3333333333333,4,2,2,75,0,0
26746,-83.3333333333333,4,2,1,75,0,0
27155,-83.3333333333333,4,2,2,75,0,0
27428,-83.3333333333333,4,2,3,75,0,0
27610,-83.3333333333333,4,2,1,75,0,0
27701,-83.3333333333333,4,2,2,75,0,0
27791,-83.3333333333333,4,2,1,75,0,0
28246,-83.3333333333333,4,2,2,75,0,0
28337,-83.3333333333333,4,2,1,75,0,0
28791,-83.3333333333333,4,2,2,75,0,0
28928,-83.3333333333333,4,2,1,75,0,0
29337,-83.3333333333333,4,2,2,75,0,0
29610,-83.3333333333333,4,2,1,75,0,0
29882,-83.3333333333333,4,2,2,75,0,0
30155,-83.3333333333333,4,2,1,75,0,0
30428,-83.3333333333333,4,2,2,75,0,0
30701,-83.3333333333333,4,2,1,75,0,0
30973,-83.3333333333333,4,2,2,75,0,0
31110,-83.3333333333333,4,2,1,75,0,0
31519,-83.3333333333333,4,2,2,75,0,0
31791,-83.3333333333333,4,2,3,75,0,0
31973,-83.3333333333333,4,2,1,75,0,0
32064,-83.3333333333333,4,2,2,75,0,0
32155,-83.3333333333333,4,2,1,75,0,0
32610,-83.3333333333333,4,2,2,75,0,0
32882,-83.3333333333333,4,2,1,75,0,0
33155,-83.3333333333333,4,2,2,75,0,0
33291,-83.3333333333333,4,2,1,75,0,0
33701,-83.3333333333333,4,2,2,75,0,0
33973,-83.3333333333333,4,2,1,75,0,0
34246,-83.3333333333333,4,2,2,75,0,0
34519,-83.3333333333333,4,2,1,75,0,0
34791,-83.3333333333333,4,2,2,75,0,0
35064,-83.3333333333333,4,2,1,75,0,0
35337,-83.3333333333333,4,2,2,75,0,0
35473,-83.3333333333333,4,2,1,75,0,0
35882,-83.3333333333333,4,2,2,75,0,0
36155,-83.3333333333333,4,2,3,75,0,0
36337,-83.3333333333333,4,2,1,75,0,0
36428,-83.3333333333333,4,2,2,75,0,0
36519,-83.3333333333333,4,2,1,75,0,0
36973,-83.3333333333333,4,2,2,75,0,0
37064,-83.3333333333333,4,2,1,75,0,0
37519,-83.3333333333333,4,2,2,75,0,0
37655,-83.3333333333333,4,2,1,75,0,0
38064,-83.3333333333333,4,2,2,75,0,0
38337,-83.3333333333333,4,2,1,75,0,0
38610,-83.3333333333333,4,2,2,75,0,0
38882,-83.3333333333333,4,2,1,75,0,0
39155,-83.3333333333333,4,2,2,75,0,0
39428,-83.3333333333333,4,2,1,75,0,0
39701,-83.3333333333333,4,2,2,75,0,0
39837,-83.3333333333333,4,2,1,75,0,0
40246,-83.3333333333333,4,2,2,75,0,0
40519,-83.3333333333333,4,2,3,75,0,0
40701,-83.3333333333333,4,2,1,75,0,0
40791,-83.3333333333333,4,2,2,75,0,0
40882,-83.3333333333333,4,2,1,75,0,0
41337,-83.3333333333333,4,2,2,75,0,0
41610,-83.3333333333333,4,2,2,65,0,0
42019,-83.3333333333333,4,2,1,65,0,0
42428,-83.3333333333333,4,2,2,65,0,0
42564,-83.3333333333333,4,2,1,65,0,0
42973,-83.3333333333333,4,2,2,65,0,0
43110,-83.3333333333333,4,2,1,65,0,0
43519,-83.3333333333333,4,2,2,65,0,0
43791,-83.3333333333333,4,2,1,65,0,0
44064,-83.3333333333333,4,2,2,65,0,0
44201,-83.3333333333333,4,2,1,65,0,0
44610,-83.3333333333333,4,2,2,65,0,0
45428,-83.3333333333333,4,2,1,65,0,0
45701,-83.3333333333333,4,2,2,65,0,0
46382,-83.3333333333333,4,2,1,65,0,0
46791,-83.3333333333333,4,2,2,65,0,0
46928,-83.3333333333333,4,2,1,65,0,0
47337,-83.3333333333333,4,2,2,65,0,0
47473,-83.3333333333333,4,2,1,65,0,0
47882,-83.3333333333333,4,2,2,65,0,0
48155,-83.3333333333333,4,2,1,65,0,0
48428,-83.3333333333333,4,2,2,65,0,0
48564,-83.3333333333333,4,2,1,65,0,0
48973,-83.3333333333333,4,2,2,65,0,0
49110,-83.3333333333333,4,2,1,65,0,0
49519,-83.3333333333333,4,2,2,65,0,0
49791,-83.3333333333333,4,2,1,65,0,0
50064,-83.3333333333333,4,2,2,65,0,0
50746,-83.3333333333333,4,2,1,65,0,0
51155,-83.3333333333333,4,2,2,65,0,0
51428,-83.3333333333333,4,2,1,65,0,0
51701,-83.3333333333333,4,2,2,65,0,0
52519,-83.3333333333333,4,2,1,65,0,0
52791,-83.3333333333333,4,2,2,65,0,0
53064,-83.3333333333333,4,2,1,65,0,0
53337,-83.3333333333333,4,2,2,65,0,0
54155,-83.3333333333333,4,2,1,65,0,0
54428,-83.3333333333333,4,2,2,65,0,0
54701,-83.3333333333333,4,2,1,65,0,0
54973,-83.3333333333333,4,2,2,65,0,0
55246,-83.3333333333333,4,2,1,65,0,0
55519,-83.3333333333333,4,2,2,65,0,0
56882,-83.3333333333333,4,2,1,65,0,0
57155,-83.3333333333333,4,2,2,65,0,0
57291,-83.3333333333333,4,2,1,65,0,0
57701,-83.3333333333333,4,2,2,65,0,0
57973,-83.3333333333333,4,2,1,65,0,0
58246,-83.3333333333333,4,2,2,65,0,0
58337,-83.3333333333333,4,2,1,65,0,0
58791,-83.3333333333333,4,2,2,65,0,0
59473,-83.3333333333333,4,2,1,65,0,0
59882,-83.3333333333333,4,2,2,65,0,0
60019,-83.3333333333333,4,2,1,65,0,0
60428,-83.3333333333333,4,2,2,65,0,0
60564,-83.3333333333333,4,2,1,65,0,0
60973,-83.3333333333333,4,2,2,65,0,0
61246,-83.3333333333333,4,2,1,65,0,0
61519,-83.3333333333333,4,2,2,65,0,0
61655,-83.3333333333333,4,2,1,65,0,0
62064,-83.3333333333333,4,2,2,65,0,0
62882,-83.3333333333333,4,2,1,65,0,0
63155,-83.3333333333333,4,2,2,65,0,0
63837,-83.3333333333333,4,2,1,65,0,0
64246,-83.3333333333333,4,2,2,65,0,0
64382,-83.3333333333333,4,2,1,65,0,0
64791,-83.3333333333333,4,2,2,65,0,0
64928,-83.3333333333333,4,2,1,65,0,0
65337,-83.3333333333333,4,2,2,65,0,0
65610,-83.3333333333333,4,2,1,65,0,0
65882,-83.3333333333333,4,2,2,65,0,0
66019,-83.3333333333333,4,2,1,65,0,0
66428,-83.3333333333333,4,2,2,65,0,0
67246,-83.3333333333333,4,2,1,65,0,0
67519,-83.3333333333333,4,2,2,65,0,0
68201,-83.3333333333333,4,2,1,65,0,0
68610,-83.3333333333333,4,2,2,65,0,0
68882,-83.3333333333333,4,2,1,65,0,0
69155,-83.3333333333333,4,2,2,65,0,0
69428,-83.3333333333333,4,2,1,65,0,0
69701,-83.3333333333333,4,2,2,65,0,0
69973,-83.3333333333333,4,2,1,65,0,0
70246,-83.3333333333333,4,2,2,65,0,0
70519,-83.3333333333333,4,2,1,65,0,0
70791,-83.3333333333333,4,2,2,65,0,0
71610,-83.3333333333333,4,2,1,65,0,0
71882,-83.3333333333333,4,2,2,65,0,0
72155,-83.3333333333333,4,2,1,65,0,0
72428,-83.3333333333333,4,2,2,65,0,0
72701,-83.3333333333333,4,2,1,65,0,0
72973,-83.3333333333333,4,2,2,65,0,0
73791,-83.3333333333333,4,2,1,65,0,0
74064,-83.3333333333333,4,2,2,65,0,0
74337,-83.3333333333333,4,2,1,65,0,0
76519,-45.4545454545455,4,2,1,80,0,0
77337,-45.4545454545455,4,2,2,80,0,0
77610,-45.4545454545455,4,2,3,80,0,0
77882,-45.4545454545455,4,2,2,80,0,0
78155,-45.4545454545455,4,2,1,80,0,0
78428,-45.4545454545455,4,2,4,80,0,0
78701,-45.4545454545455,4,2,1,80,0,0
79519,-45.4545454545455,4,2,2,80,0,0
79791,-45.4545454545455,4,2,3,80,0,0
80064,-45.4545454545455,4,2,2,80,0,0
80337,-45.4545454545455,4,2,1,80,0,0
80610,-45.4545454545455,4,2,4,80,0,0
81155,-45.4545454545455,4,2,1,80,0,0
81701,-45.4545454545455,4,2,2,80,0,0
81973,-45.4545454545455,4,2,3,80,0,0
82246,-45.4545454545455,4,2,2,80,0,0
82519,-45.4545454545455,4,2,1,80,0,0
82791,-38.4615384615385,4,2,4,80,0,0
83064,-38.4615384615385,4,2,1,80,0,0
83882,-38.4615384615385,4,2,2,80,0,0
84155,-38.4615384615385,4,2,4,80,0,0
84291,-38.4615384615385,4,2,1,80,0,0
84428,-38.4615384615385,4,2,2,80,0,0
84564,-38.4615384615385,4,2,1,80,0,0
85246,-45.4545454545455,4,2,1,80,0,0
86064,-45.4545454545455,4,2,2,80,0,0
86337,-45.4545454545455,4,2,3,80,0,0
86610,-45.4545454545455,4,2,2,80,0,0
86882,-45.4545454545455,4,2,1,80,0,0
87155,-45.4545454545455,4,2,4,80,0,0
87428,-45.4545454545455,4,2,1,80,0,0
88246,-45.4545454545455,4,2,2,80,0,0
88519,-45.4545454545455,4,2,3,80,0,0
88791,-45.4545454545455,4,2,2,80,0,0
89064,-45.4545454545455,4,2,1,80,0,0
89337,-45.4545454545455,4,2,4,80,0,0
89882,-45.4545454545455,4,2,1,80,0,0
90428,-45.4545454545455,4,2,2,80,0,0
90701,-45.4545454545455,4,2,3,80,0,0
90973,-45.4545454545455,4,2,2,80,0,0
91246,-45.4545454545455,4,2,1,80,0,0
91791,-38.4615384615385,4,2,1,80,0,0
92610,-38.4615384615385,4,2,2,80,0,0
92882,-38.4615384615385,4,2,4,80,0,0
93155,-38.4615384615385,4,2,2,80,0,0
93428,-38.4615384615385,4,2,1,80,0,0
94246,-41.6666666666667,4,2,2,80,0,0
94382,-41.6666666666667,4,2,1,80,0,0
94791,-41.6666666666667,4,2,2,80,0,0
95064,-41.6666666666667,4,2,4,80,0,0
95337,-41.6666666666667,4,2,2,80,0,0
95610,-41.6666666666667,4,2,1,80,0,0
95882,-41.6666666666667,4,2,2,80,0,0
96155,-50,4,2,1,80,0,0
96428,-50,4,2,2,80,0,0
96564,-50,4,2,1,80,0,0
96973,-50,4,2,2,80,0,0
97246,-50,4,2,3,80,0,0
97519,-50,4,2,2,80,0,0
97791,-50,4,2,1,80,0,0
98064,-50,4,2,2,80,0,0
98610,-41.6666666666667,4,2,2,80,0,0
98746,-41.6666666666667,4,2,1,80,0,0
99155,-41.6666666666667,4,2,2,80,0,0
99428,-41.6666666666667,4,2,4,80,0,0
99701,-41.6666666666667,4,2,2,80,0,0
99973,-41.6666666666667,4,2,1,80,0,0
100246,-41.6666666666667,4,2,2,80,0,0
100519,-50,4,2,1,80,0,0
100791,-50,4,2,2,80,0,0
100928,-50,4,2,1,80,0,0
101337,-50,4,2,2,80,0,0
101473,-50,4,2,1,80,0,0
101610,-50,4,2,3,80,0,0
101746,-50,4,2,1,80,0,0
101882,-50,4,2,2,80,0,0
102155,-50,4,2,1,80,0,0
102428,-50,4,2,2,80,0,0
102701,-41.6666666666667,4,2,2,80,0,0
103110,-41.6666666666667,4,2,1,80,0,0
103519,-41.6666666666667,4,2,2,80,0,0
103791,-41.6666666666667,4,2,4,80,0,0
104064,-41.6666666666667,4,2,2,80,0,0
104337,-41.6666666666667,4,2,1,80,0,0
104610,-41.6666666666667,4,2,2,80,0,0
104882,-50,4,2,1,80,0,0
105155,-50,4,2,2,80,0,0
105291,-50,4,2,1,80,0,0
105701,-50,4,2,2,80,0,0
105973,-50,4,2,3,80,0,0
106246,-50,4,2,2,80,0,0
106519,-50,4,2,1,80,0,0
106791,-50,4,2,2,80,0,0
107337,-41.6666666666667,4,2,2,80,0,0
107473,-41.6666666666667,4,2,1,80,0,0
107882,-41.6666666666667,4,2,2,80,0,0
108155,-41.6666666666667,4,2,4,80,0,0
108428,-41.6666666666667,4,2,2,80,0,0
108701,-41.6666666666667,4,2,1,80,0,0
108973,-41.6666666666667,4,2,2,80,0,0
109246,-50,4,2,1,80,0,0
109519,-50,4,2,2,80,0,0
109655,-50,4,2,1,80,0,0
110064,-50,4,2,2,80,0,0
110337,-50,4,2,3,80,0,0
110610,-50,4,2,2,80,0,0
110882,-50,4,2,1,80,0,0
111155,-50,4,2,2,80,0,0
111428,-100,4,2,1,80,0,0
111496,-100,4,2,1,5,0,0
111837,-100,4,2,1,5,0,0
120155,-100,4,2,1,50,0,0
128882,-100,4,2,1,65,0,0
129155,-100,4,2,2,65,0,0
129291,-100,4,2,1,65,0,0
129701,-100,4,2,2,65,0,0
129973,-100,4,2,1,65,0,0
131337,-100,4,2,2,65,0,0
131473,-100,4,2,1,65,0,0
131882,-100,4,2,2,65,0,0
132428,-100,4,2,1,65,0,0
133519,-100,4,2,2,65,0,0
133655,-100,4,2,1,65,0,0
134064,-100,4,2,2,65,0,0
134201,-100,4,2,1,65,0,0
135701,-100,4,2,2,65,0,0
135837,-100,4,2,1,65,0,0
136246,-100,4,2,2,65,0,0
136382,-100,4,2,1,65,0,0
137882,-100,4,2,2,65,0,0
138019,-100,4,2,1,65,0,0
138428,-100,4,2,2,65,0,0
138701,-100,4,2,1,65,0,0
139314,-100,4,2,1,5,0,0
139519,-100,4,2,1,65,0,0
140064,-100,4,2,2,65,0,0
140337,-100,4,2,1,65,0,0
140610,-100,4,2,2,65,0,0
141155,-100,4,2,1,65,0,0
142246,-100,4,2,2,65,0,0
142519,-100,4,2,1,65,0,0
142791,-100,4,2,2,65,0,0
142860,-100,4,2,2,5,0,0
143610,-100,4,2,2,65,0,0
143882,-100,4,2,1,65,0,0
144428,-100,4,2,2,65,0,0
144701,-100,4,2,1,65,0,0
144973,-100,4,2,2,65,0,0
145246,-100,4,2,1,65,0,0
145860,-100,4,2,1,5,0,0
146201,-100,4,2,1,65,0,0
146337,-66.6666666666667,4,2,1,80,0,0
146610,-66.6666666666667,4,2,2,80,0,0
146882,-66.6666666666667,4,2,5,80,0,0
147155,-66.6666666666667,4,2,2,80,0,0
147428,-66.6666666666667,4,2,1,80,0,0
147701,-66.6666666666667,4,2,2,80,0,0
147973,-66.6666666666667,4,2,5,80,0,0
148246,-66.6666666666667,4,2,2,80,0,0
148519,-66.6666666666667,4,2,1,80,0,0
148791,-66.6666666666667,4,2,2,80,0,0
149064,-66.6666666666667,4,2,3,80,0,0
149337,-66.6666666666667,4,2,2,80,0,0
149610,-66.6666666666667,4,2,1,80,0,0
149882,-66.6666666666667,4,2,2,80,0,0
150155,-66.6666666666667,4,2,3,80,0,0
150428,-66.6666666666667,4,2,2,80,0,0
150701,-66.6666666666667,4,2,1,80,0,0
150973,-66.6666666666667,4,2,2,80,0,0
151110,-66.6666666666667,4,2,1,80,0,0
151246,-66.6666666666667,4,2,5,80,0,0
151519,-66.6666666666667,4,2,2,80,0,0
151791,-66.6666666666667,4,2,1,80,0,0
152064,-66.6666666666667,4,2,2,80,0,0
152201,-66.6666666666667,4,2,1,80,0,0
152337,-66.6666666666667,4,2,5,80,0,0
152610,-66.6666666666667,4,2,2,80,0,0
152882,-50,4,2,1,80,0,0
153155,-50,4,2,2,80,0,0
153428,-50,4,2,3,80,0,0
153701,-50,4,2,2,80,0,0
153973,-50,4,2,1,80,0,0
154246,-50,4,2,2,80,0,0
154519,-50,4,2,3,80,0,0
154791,-50,4,2,2,80,0,0
155064,-66.6666666666667,4,2,1,80,0,0
155337,-66.6666666666667,4,2,2,80,0,0
155610,-66.6666666666667,4,2,5,80,0,0
155882,-66.6666666666667,4,2,2,80,0,0
156155,-66.6666666666667,4,2,1,80,0,0
156428,-66.6666666666667,4,2,2,80,0,0
156701,-66.6666666666667,4,2,5,80,0,0
156973,-66.6666666666667,4,2,2,80,0,0
157246,-66.6666666666667,4,2,1,80,0,0
157519,-66.6666666666667,4,2,2,80,0,0
157791,-66.6666666666667,4,2,3,80,0,0
158064,-66.6666666666667,4,2,2,80,0,0
158337,-66.6666666666667,4,2,1,80,0,0
158610,-66.6666666666667,4,2,2,80,0,0
158882,-66.6666666666667,4,2,3,80,0,0
159155,-66.6666666666667,4,2,2,80,0,0
159428,-66.6666666666667,4,2,1,80,0,0
159701,-66.6666666666667,4,2,2,80,0,0
159837,-66.6666666666667,4,2,1,80,0,0
159973,-66.6666666666667,4,2,5,80,0,0
160246,-66.6666666666667,4,2,2,80,0,0
160519,-66.6666666666667,4,2,1,80,0,0
160791,-66.6666666666667,4,2,2,80,0,0
160928,-66.6666666666667,4,2,1,80,0,0
161064,-66.6666666666667,4,2,5,80,0,0
161337,-66.6666666666667,4,2,2,80,0,0
161610,-50,4,2,1,80,0,0
161882,-50,4,2,2,80,0,0
162155,-50,4,2,3,80,0,0
162428,-50,4,2,2,80,0,0
162701,-50,4,2,1,80,0,0
162973,-50,4,2,2,80,0,0
163246,-50,4,2,3,80,0,0
163314,-66.6666666666667,4,2,3,80,0,0
163519,-66.6666666666667,4,2,2,80,0,0
163791,-100,4,2,1,80,0,0
164064,-100,4,2,2,80,0,0
164201,-100,4,2,1,80,0,0
164337,-100,4,2,3,80,0,0
164610,-100,4,2,2,80,0,0
165428,-100,4,2,5,80,0,0
165701,-100,4,2,2,80,0,0
165973,-100,4,2,1,80,0,0
166246,-100,4,2,2,80,0,0
166382,-100,4,2,1,80,0,0
166519,-100,4,2,3,80,0,0
166791,-100,4,2,2,80,0,0
167064,-100,4,2,1,80,0,0
167337,-100,4,2,2,80,0,0
167610,-100,4,2,3,80,0,0
167746,-100,4,2,1,80,0,0
167882,-100,4,2,2,80,0,0
168155,-100,4,2,1,80,0,0
168428,-100,4,2,2,80,0,0
168564,-100,4,2,1,80,0,0
168701,-100,4,2,3,80,0,0
168973,-100,4,2,2,80,0,0
169791,-100,4,2,5,80,0,0
170064,-100,4,2,2,80,0,0
170337,-100,4,2,1,80,0,0
170610,-100,4,2,2,80,0,0
170746,-100,4,2,1,80,0,0
170882,-100,4,2,3,80,0,0
171155,-100,4,2,2,80,0,0
171428,-100,4,2,1,80,0,0
171701,-100,4,2,2,80,0,0
171973,-100,4,2,3,80,0,0
172110,-100,4,2,1,80,0,0
172246,-100,4,2,2,80,0,0
172519,-100,4,2,1,80,0,0
172791,-100,4,2,2,80,0,0
172928,-100,4,2,1,80,0,0
173064,-100,4,2,5,80,0,0
173337,-100,4,2,2,80,0,0
174155,-100,4,2,5,80,0,0
174428,-100,4,2,2,80,0,0
174701,-100,4,2,1,80,0,0
174973,-100,4,2,2,80,0,0
175110,-100,4,2,1,80,0,0
175246,-100,4,2,3,80,0,0
175519,-100,4,2,2,80,0,0
175791,-100,4,2,1,80,0,0
176064,-100,4,2,2,80,0,0
176337,-100,4,2,3,80,0,0
176473,-100,4,2,1,80,0,0
176610,-100,4,2,2,80,0,0
176882,-100,4,2,1,80,0,0
177155,-100,4,2,2,80,0,0
177291,-100,4,2,1,80,0,0
177428,-100,4,2,5,80,0,0
177701,-100,4,2,2,80,0,0
178519,-100,4,2,5,80,0,0
178791,-100,4,2,2,80,0,0
179064,-100,4,2,1,80,0,0
179337,-100,4,2,2,80,0,0
179473,-100,4,2,1,80,0,0
179610,-100,4,2,3,80,0,0
179882,-100,4,2,2,80,0,0
180155,-100,4,2,1,80,0,0
180428,-100,4,2,2,80,0,0
180701,-100,4,2,3,80,0,0
180837,-100,4,2,1,80,0,0
180973,-100,4,2,2,80,0,0
181246,-100,4,2,1,80,0,0
181655,-100,4,2,1,40,0,0
198701,-133.333333333333,4,2,1,40,0,1
205246,-100,4,2,1,40,0,1
205519,-75.187969924812,4,2,1,40,0,1
205791,-60.2409638554217,4,2,1,40,0,1
206132,-60.2409638554217,4,2,1,5,0,1
206337,-80,4,2,1,40,0,1
206882,-100,4,2,1,40,0,1
207428,-133.333333333333,4,2,1,40,0,1
213973,-60.2409638554217,4,2,1,40,0,1
214519,-69.4444444444444,4,2,1,40,0,1
215064,-81.9672131147541,4,2,1,40,0,1
215610,-101.010101010101,4,2,1,40,0,1
216155,-133.333333333333,4,2,2,50,0,1
216428,-100,4,2,1,50,0,0
218337,-100,4,2,2,50,0,0
218405,-100,4,2,2,5,0,0
218610,-100,4,2,2,50,0,0
218746,-100,4,2,1,50,0,0
218814,-100,4,2,1,5,0,0
219019,-100,4,2,1,50,0,0
220519,-100,4,2,2,50,0,0
220791,-100,4,2,1,50,0,0
222701,-100,4,2,2,50,0,0
222769,-100,4,2,2,5,0,0
222973,-100,4,2,2,50,0,0
223110,-100,4,2,1,50,0,0
223178,-100,4,2,1,5,0,0
223382,-100,4,2,1,50,0,0
223587,-100,4,2,1,5,0,0
224064,-100,4,2,1,50,0,0
224405,-100,4,2,1,5,0,0
224882,-100,4,2,2,50,0,0
225155,-100,4,2,1,50,0,0
227064,-100,4,2,2,50,0,0
227132,-100,4,2,2,5,0,0
227337,-100,4,2,1,50,0,0
227405,-100,4,2,1,5,0,0
227610,-100,4,2,1,50,0,0
227678,-100,4,2,1,5,0,0
227882,-100,4,2,1,50,0,0
229246,-100,4,2,2,50,0,0
229314,-100,4,2,2,5,0,0
229791,-100,4,2,2,50,0,0
230064,-100,4,2,1,50,0,0
230132,-100,4,2,1,5,0,0
230610,-100,4,2,1,50,0,0
230951,-100,4,2,1,5,0,0
231155,-100,4,2,1,50,0,0
233610,-41.6666666666667,4,2,6,80,0,0
233882,-41.6666666666667,4,2,2,80,0,0
234155,-41.6666666666667,4,2,1,80,0,0
234428,-41.6666666666667,4,2,2,80,0,0
234701,-41.6666666666667,4,2,3,80,0,0
234973,-41.6666666666667,4,2,2,80,0,0
235246,-41.6666666666667,4,2,1,80,0,0
235519,-41.6666666666667,4,2,5,80,0,0
235655,-41.6666666666667,4,2,1,80,0,0
236064,-41.6666666666667,4,2,2,80,0,0
236337,-41.6666666666667,4,2,1,80,0,0
236610,-41.6666666666667,4,2,2,80,0,0
236882,-41.6666666666667,4,2,3,80,0,0
237155,-41.6666666666667,4,2,2,80,0,0
237428,-41.6666666666667,4,2,1,80,0,0
237701,-41.6666666666667,4,2,5,80,0,0
237837,-41.6666666666667,4,2,1,80,0,0
238246,-41.6666666666667,4,2,2,80,0,0
238519,-41.6666666666667,4,2,1,80,0,0
238791,-41.6666666666667,4,2,2,80,0,0
239064,-41.6666666666667,4,2,3,80,0,0
239337,-41.6666666666667,4,2,2,80,0,0
239610,-41.6666666666667,4,2,5,80,0,0
240019,-41.6666666666667,4,2,4,80,0,0
240155,-37.7358490566038,4,2,1,80,0,0
240428,-37.7358490566038,4,2,2,80,0,0
240701,-37.7358490566038,4,2,1,80,0,0
240973,-37.7358490566038,4,2,2,80,0,0
241246,-37.7358490566038,4,2,4,80,0,0
241382,-37.7358490566038,4,2,1,80,0,0
241519,-37.7358490566038,4,2,2,80,0,0
241655,-37.7358490566038,4,2,1,80,0,0
242064,-37.7358490566038,4,2,2,80,0,0
242201,-37.7358490566038,4,2,1,80,0,0
242337,-41.6666666666667,4,2,1,80,0,0
242610,-41.6666666666667,4,2,2,80,0,0
242882,-41.6666666666667,4,2,1,80,0,0
243155,-41.6666666666667,4,2,2,80,0,0
243428,-41.6666666666667,4,2,3,80,0,0
243701,-41.6666666666667,4,2,2,80,0,0
243973,-41.6666666666667,4,2,1,80,0,0
244246,-41.6666666666667,4,2,5,80,0,0
244382,-41.6666666666667,4,2,1,80,0,0
244791,-41.6666666666667,4,2,2,80,0,0
245064,-41.6666666666667,4,2,1,80,0,0
245337,-41.6666666666667,4,2,2,80,0,0
245610,-41.6666666666667,4,2,3,80,0,0
245882,-41.6666666666667,4,2,2,80,0,0
246155,-41.6666666666667,4,2,1,80,0,0
246428,-41.6666666666667,4,2,5,80,0,0
246564,-41.6666666666667,4,2,1,80,0,0
246973,-41.6666666666667,4,2,2,80,0,0
247246,-41.6666666666667,4,2,1,80,0,0
247519,-41.6666666666667,4,2,2,80,0,0
247791,-41.6666666666667,4,2,3,80,0,0
248064,-41.6666666666667,4,2,2,80,0,0
248337,-41.6666666666667,4,2,1,80,0,0
248610,-41.6666666666667,4,2,2,80,0,0
248746,-41.6666666666667,4,2,1,80,0,0
248882,-37.7358490566038,4,2,1,80,0,0
249155,-37.7358490566038,4,2,2,80,0,0
249428,-37.7358490566038,4,2,1,80,0,0
249701,-37.7358490566038,4,2,2,80,0,0
249973,-37.7358490566038,4,2,4,80,0,0
250246,-37.7358490566038,4,2,2,80,0,0
250519,-37.7358490566038,4,2,1,80,0,0
250791,-37.7358490566038,4,2,2,80,0,0
250928,-37.7358490566038,4,2,1,80,0,0
251337,-40,4,2,2,80,0,0
251473,-40,4,2,1,80,0,0
251882,-40,4,2,2,80,0,0
252155,-40,4,2,4,80,0,0
252428,-40,4,2,2,80,0,0
252701,-40,4,2,1,80,0,0
252973,-40,4,2,5,80,0,0
253110,-40,4,2,1,80,0,0
253246,-45.4545454545455,4,2,1,80,0,0
253519,-45.4545454545455,4,2,2,80,0,0
253655,-45.4545454545455,4,2,1,80,0,0
254064,-45.4545454545455,4,2,2,80,0,0
254337,-45.4545454545455,4,2,3,80,0,0
254610,-45.4545454545455,4,2,2,80,0,0
254882,-45.4545454545455,4,2,1,80,0,0
255155,-45.4545454545455,4,2,5,80,0,0
255291,-45.4545454545455,4,2,1,80,0,0
255701,-40,4,2,2,80,0,0
255837,-40,4,2,1,80,0,0
256246,-40,4,2,2,80,0,0
256519,-40,4,2,4,80,0,0
256791,-40,4,2,2,80,0,0
257064,-40,4,2,1,80,0,0
257337,-40,4,2,5,80,0,0
257473,-40,4,2,1,80,0,0
257610,-45.4545454545455,4,2,1,80,0,0
257882,-45.4545454545455,4,2,2,80,0,0
258019,-45.4545454545455,4,2,1,80,0,0
258428,-45.4545454545455,4,2,2,80,0,0
258564,-45.4545454545455,4,2,1,80,0,0
258701,-45.4545454545455,4,2,3,80,0,0
258837,-45.4545454545455,4,2,1,80,0,0
258973,-45.4545454545455,4,2,2,80,0,0
259246,-45.4545454545455,4,2,1,80,0,0
259519,-45.4545454545455,4,2,5,80,0,0
259655,-45.4545454545455,4,2,1,80,0,0
260064,-40,4,2,2,80,0,0
260201,-40,4,2,1,80,0,0
260610,-40,4,2,2,80,0,0
260882,-40,4,2,4,80,0,0
261155,-40,4,2,2,80,0,0
261428,-40,4,2,1,80,0,0
261701,-40,4,2,5,80,0,0
261837,-40,4,2,1,80,0,0
261973,-45.4545454545455,4,2,1,80,0,0
262246,-45.4545454545455,4,2,2,80,0,0
262382,-45.4545454545455,4,2,1,80,0,0
262791,-45.4545454545455,4,2,2,80,0,0
263064,-45.4545454545455,4,2,3,80,0,0
263337,-45.4545454545455,4,2,2,80,0,0
263610,-45.4545454545455,4,2,1,80,0,0
263882,-45.4545454545455,4,2,5,80,0,0
264019,-45.4545454545455,4,2,1,80,0,0
264428,-40,4,2,2,80,0,0
264564,-40,4,2,1,80,0,0
264973,-40,4,2,2,80,0,0
265246,-40,4,2,4,80,0,0
265519,-40,4,2,2,80,0,0
265791,-40,4,2,1,80,0,0
266064,-40,4,2,5,80,0,0
266201,-40,4,2,1,80,0,0
266337,-45.4545454545455,4,2,1,80,0,0
266610,-45.4545454545455,4,2,2,80,0,0
266746,-45.4545454545455,4,2,1,80,0,0
267155,-45.4545454545455,4,2,2,80,0,0
267428,-45.4545454545455,4,2,3,80,0,0
267701,-45.4545454545455,4,2,2,80,0,0
267973,-45.4545454545455,4,2,1,80,0,0
268246,-45.4545454545455,4,2,2,80,0,0
268382,-45.4545454545455,4,2,1,80,0,0
268519,-100,4,2,1,80,0,0
285973,-100,4,2,1,5,0,0

[Colours]
Combo1 : 143,143,143
Combo2 : 200,206,251
Combo3 : 192,192,192
Combo4 : 252,223,163

[HitObjects]
72,175,6701,6,0,P|37:137|38:106,2,82.5000025177003,2|2|2,2:2|2:2|2:2,0:0:0:0:
145,210,8064,1,2,2:2:0:0:
256,192,8201,12,0,10519,0:0:0:0:
441,343,11064,6,0,P|465:319|462:264,1,82.5000025177003,2|2,1:2|2:2,0:0:0:0:
446,235,11610,1,8,2:2:0:0:
493,170,11882,1,2,1:2:0:0:
458,136,12701,2,0,L|465:178,1,27.5000008392334,0|0,1:1|0:0,0:0:0:0:
446,235,12974,2,0,L|411:218,1,27.5000008392334
346,250,13246,2,0,L|371:280,2,27.5000008392334,0|0|0,1:1|0:0|0:0,0:0:0:0:
241,309,13791,1,8,2:2:0:0:
114,299,14064,1,0,1:1:0:0:
114,299,14201,1,0,0:0:0:0:
9,327,14882,6,0,L|53:317,3,27.5000008392334,0|0|2|0,1:1|0:0|2:2|0:0,0:0:0:0:
101,243,15428,2,0,L|88:278,1,27.5000008392334,2|0,1:2|0:0,0:0:0:0:
117,370,15701,2,0,L|106:337,1,27.5000008392334,0|2,0:0|2:2,0:0:0:0:
144,327,15973,1,8,2:2:0:0:
256,340,16246,1,2,1:2:0:0:
256,340,16382,1,0,0:0:0:0:
329,374,17064,6,0,L|364:376,3,27.5000008392334,0|0|0|0,1:1|0:0|0:0|0:0,0:0:0:0:
403,356,17610,2,0,L|438:358,3,27.5000008392334,0|0|0|0,1:1|0:0|0:0|0:0,0:0:0:0:
508,361,18155,1,8,2:2:0:0:
329,374,18428,1,0,1:1:0:0:
329,374,18564,1,0,0:0:0:0:
145,355,19246,5,2,1:2:0:0:
68,345,19428,5,2,2:2:0:0:
21,270,19610,5,2,2:2:0:0:
98,260,19791,2,0,L|139:255,2,27.5000008392334,2|0|0,1:2|0:0|0:0,0:0:0:0:
238,297,20337,5,8,2:2:0:0:
382,282,20610,1,2,1:2:0:0:
382,282,20746,1,0,0:0:0:0:
382,282,21428,2,0,L|431:288,6,27.5000008392334,0|0|0|0|0|0|0,1:1|0:0|0:0|0:0|1:1|0:0|0:0,0:0:0:0:
221,331,22519,1,8,2:2:0:0:
79,320,22791,1,0,1:1:0:0:
79,320,22928,2,0,P|49:290|101:226,1,137.500004196167,2|0,2:2|0:0,0:0:0:0:
377,303,24155,6,0,P|476:270|509:197,1,179.999994506836,2|2,1:2|2:2,0:0:0:0:
488,129,24701,1,8,2:2:0:0:
325,188,24973,1,2,1:2:0:0:
263,147,25110,2,0,P|222:98|235:46,1,119.999996337891
247,158,25519,2,0,P|206:109|219:57,1,119.999996337891,2|8,1:2|2:2,0:0:0:0:
317,21,25928,2,0,L|307:81,2,59.9999981689454,0|2|0,0:0|2:3|0:0,0:0:0:0:
279,288,26473,2,0,L|290:363,2,59.9999981689454,0|2|2,0:0|2:3|2:2,0:0:0:0:
66,223,27019,2,0,L|134:197,2,59.9999981689454,0|2|0,0:0|1:2|0:0,0:0:0:0:
27,293,27428,5,2,2:2:0:0:
27,293,27610,1,2,2:2:0:0:
27,293,27791,1,2,2:2:0:0:
27,293,27973,1,10,2:2:0:0:
27,293,28155,1,2,2:2:0:0:
27,293,28337,1,2,2:2:0:0:
148,341,28519,6,0,P|207:283|253:277,1,119.999996337891,2|2,1:2|2:3,0:0:0:0:
336,318,28928,1,2,2:2:0:0:
257,307,29064,1,10,2:2:0:0:
162,165,29337,1,2,1:2:0:0:
143,88,29473,1,0,0:0:0:0:
346,17,29746,1,0,0:0:0:0:
328,91,29882,2,0,L|306:208,1,119.999996337891,2|8,1:2|2:2,0:0:0:0:
353,275,30291,2,0,P|352:214|336:196,2,59.9999981689454,0|2|0,0:0|2:3|0:0,0:0:0:0:
494,112,30837,2,0,P|456:134|450:163,2,59.9999981689454,0|2|2,0:0|2:3|2:2,0:0:0:0:
455,348,31382,2,0,P|509:339|524:310,2,59.9999981689454,0|2|0,0:0|1:2|0:0,0:0:0:0:
377,376,31791,5,2,2:2:0:0:
377,376,31973,1,2,2:2:0:0:
377,376,32155,1,2,2:2:0:0:
377,376,32337,2,0,B|347:355|347:355|373:241,1,119.999996337891,2|2,1:2|2:3,0:0:0:0:
323,159,32746,5,0,0:0:0:0:
133,173,32882,6,0,L|12:195,1,119.999996337891,2|2,1:2|2:2,0:0:0:0:
130,213,33291,1,2,2:2:0:0:
209,198,33428,2,0,L|327:176,1,119.999996337891,8|2,2:2|1:2,0:0:0:0:
463,126,33837,2,0,P|497:72|482:19,1,119.999996337891
486,134,34246,2,0,P|520:80|505:27,1,119.999996337891,2|8,1:2|2:2,0:0:0:0:
388,0,34655,2,0,L|415:56,2,59.9999981689454,0|2|0,0:0|2:3|0:0,0:0:0:0:
401,292,35201,2,0,L|417:219,2,59.9999981689454,0|2|2,0:0|2:3|2:2,0:0:0:0:
220,136,35746,2,0,L|242:197,2,59.9999981689454,0|2|0,0:0|1:2|0:0,0:0:0:0:
144,111,36155,5,2,2:2:0:0:
144,111,36337,1,2,2:2:0:0:
144,111,36519,1,2,2:2:0:0:
144,111,36701,1,10,2:2:0:0:
144,111,36882,1,2,2:2:0:0:
144,111,37064,1,2,2:2:0:0:
210,271,37246,6,0,P|253:212|235:112,1,179.999994506836,2|2,1:2|2:2,0:0:0:0:
270,43,37791,1,10,2:2:0:0:
85,0,38064,1,2,1:2:0:0:
19,46,38201,1,0,0:0:0:0:
152,217,38473,1,0,0:0:0:0:
228,195,38610,1,2,1:2:0:0:
427,195,38882,2,0,L|419:258,2,59.9999981689454,8|0|2,2:2|0:0|2:3,0:0:0:0:
502,226,39291,2,0,B|394:301|394:301|346:306,1,179.999994506836,0|2,0:0|2:3,0:0:0:0:
272,338,39837,1,2,2:2:0:0:
327,281,39973,1,10,2:2:0:0:
144,181,40246,2,0,L|129:115,1,59.9999981689454,2|0,1:2|0:0,0:0:0:0:
174,40,40519,5,2,2:2:0:0:
174,40,40701,1,2,2:2:0:0:
174,40,40882,1,2,2:2:0:0:
174,40,41064,2,0,L|155:176,1,119.999996337891,2|2,1:2|2:3,0:0:0:0:
191,268,41473,5,0,0:0:0:0:
87,374,41610,5,0,1:1:0:0:
26,325,41882,5,2,2:2:0:0:
99,351,42019,1,2,2:2:0:0:
136,329,42155,1,10,2:2:0:0:
202,365,42291,1,2,2:2:0:0:
242,321,42428,1,2,1:2:0:0:
191,268,42564,1,2,2:2:0:0:
219,212,42701,1,2,2:2:0:0:
258,227,42837,1,2,2:2:0:0:
325,172,42973,1,2,2:2:0:0:
379,203,43110,1,2,2:2:0:0:
426,193,43246,1,2,1:2:0:0:
485,238,43382,1,2,2:2:0:0:
510,123,43519,2,0,L|499:57,1,59.9999981689454,2|0,2:2|0:0,0:0:0:0:
500,63,43791,2,0,P|447:97|388:99,1,119.999996337891,2|2,1:2|2:3,0:0:0:0:
311,27,44201,2,0,P|358:64|372:104,1,59.9999981689454,2|8,2:2|2:2,0:0:0:0:
276,236,44610,2,0,P|296:208|295:168,1,59.9999981689454,2|0,1:2|0:0,0:0:0:0:
298,183,45155,5,2,2:2:0:0:
274,281,45428,1,2,1:2:0:0:
201,211,45701,1,2,2:2:0:0:
104,358,45973,1,0,1:1:0:0:
104,358,46246,5,2,2:2:0:0:
161,306,46382,1,2,2:2:0:0:
144,263,46519,1,10,2:2:0:0:
96,208,46655,1,2,2:2:0:0:
101,176,46791,1,2,1:2:0:0:
40,104,46928,1,2,2:2:0:0:
67,39,47064,1,2,2:2:0:0:
146,8,47201,1,2,2:2:0:0:
217,60,47337,1,2,2:2:0:0:
241,127,47473,1,2,2:2:0:0:
305,165,47610,1,2,1:2:0:0:
384,129,47746,1,2,2:2:0:0:
396,73,47882,1,2,2:2:0:0:
319,209,48155,5,2,1:2:0:0:
380,263,48291,2,0,L|354:352,1,59.9999981689454,2|2,2:2|2:3,0:0:0:0:
319,209,48564,5,2,2:2:0:0:
326,288,48701,2,0,L|345:360,1,59.9999981689454,10|0,2:2|0:0,0:0:0:0:
319,209,48973,5,2,1:2:0:0:
209,216,49110,2,0,L|236:271,1,59.9999981689454,2|0,2:2|0:0,0:0:0:0:
231,364,49382,1,2,2:2:0:0:
198,293,49519,1,2,2:2:0:0:
241,127,49791,1,2,1:2:0:0:
413,155,50064,1,2,2:2:0:0:
467,127,50201,1,0,0:0:0:0:
499,179,50337,1,0,1:1:0:0:
282,257,50610,5,2,2:2:0:0:
209,216,50746,1,2,2:2:0:0:
132,244,50882,2,0,B|59:222|59:222|99:201,2,119.999996337891,10|2|2,2:2|1:2|2:2,0:0:0:0:
225,197,51701,2,0,P|261:149|199:101,1,119.999996337891,2|0,2:2|1:1,0:0:0:0:
372,89,52246,1,2,2:2:0:0:
294,276,52519,2,0,L|435:287,1,119.999996337891,2|2,1:2|2:2,0:0:0:0:
480,334,53064,1,10,2:2:0:0:
512,258,53337,1,2,1:2:0:0:
488,354,53882,5,2,2:2:0:0:
404,98,54155,1,2,1:2:0:0:
189,79,54428,1,2,2:2:0:0:
326,278,54701,2,0,P|369:356|407:372,1,119.999996337891,2|2,1:2|2:3,0:0:0:0:
393,368,55110,1,0,0:0:0:0:
393,368,55246,1,8,2:2:0:0:
215,262,55519,2,0,P|225:117|516:52,1,479.999985351563,2|2,1:2|2:3,0:0:0:0:
507,45,57974,5,2,2:2:0:0:
507,45,58155,1,2,2:2:0:0:
507,45,58337,1,2,2:2:0:0:
507,45,58519,1,2,1:2:0:0:
474,118,58791,6,0,L|455:41,2,59.9999981689454,2|0|0,2:3|0:0|1:1,0:0:0:0:
474,118,59337,1,2,2:2:0:0:
433,88,59473,1,2,2:2:0:0:
400,255,59746,1,2,2:2:0:0:
436,309,59882,1,2,1:2:0:0:
257,300,60155,1,2,2:2:0:0:
237,248,60291,1,2,2:2:0:0:
177,270,60428,1,2,2:2:0:0:
87,233,60564,1,2,2:2:0:0:
51,168,60701,1,2,1:2:0:0:
8,136,60837,1,2,2:2:0:0:
12,110,60973,2,0,L|29:40,1,59.9999981689454,2|0,2:2|0:0,0:0:0:0:
26,51,61246,2,0,P|55:115|31:162,1,119.999996337891,2|2,1:2|2:3,0:0:0:0:
87,233,61655,2,0,P|123:177|150:164,1,59.9999981689454,2|8,2:2|2:2,0:0:0:0:
252,355,62064,2,0,P|249:273|323:216,1,179.999994506836,2|0,1:2|0:0,0:0:0:0:
395,238,62610,5,2,2:2:0:0:
489,201,62882,1,2,1:2:0:0:
512,95,63155,1,2,2:2:0:0:
402,194,63428,1,0,1:1:0:0:
402,194,63701,5,2,2:2:0:0:
414,267,63837,1,2,2:2:0:0:
461,294,63973,1,10,2:2:0:0:
503,227,64110,1,2,2:2:0:0:
482,203,64246,1,2,1:2:0:0:
495,133,64382,1,2,2:2:0:0:
439,83,64519,1,2,2:2:0:0:
389,100,64655,1,2,2:2:0:0:
351,79,64791,1,2,2:2:0:0:
276,144,64928,1,2,2:2:0:0:
220,59,65064,1,2,1:2:0:0:
209,7,65201,1,2,2:2:0:0:
141,25,65337,1,2,2:2:0:0:
16,45,65610,6,0,P|91:48|163:71,1,119.999996337891,2|2,1:2|2:3,0:0:0:0:
173,118,66019,2,0,B|199:96|199:96|155:103,1,59.9999981689454,2|8,2:2|2:2,0:0:0:0:
84,279,66428,2,0,P|137:354|266:326,1,179.999994506836,2|0,1:2|0:0,0:0:0:0:
285,319,66973,1,2,2:2:0:0:
413,358,67246,2,0,P|497:301|480:205,1,179.999994506836,2|0,1:2|0:0,0:0:0:0:
471,189,67791,1,0,1:1:0:0:
471,189,68065,5,2,2:2:0:0:
487,113,68201,1,2,2:2:0:0:
393,67,68337,2,0,L|423:188,5,119.999996337891,10|2|2|2|2|2,2:2|1:2|2:2|2:2|1:2|2:2,0:0:0:0:
293,329,69973,2,0,P|235:289|231:146,1,179.999994506836,2|0,1:2|0:0,0:0:0:0:
227,114,70519,1,10,2:2:0:0:
375,191,70791,1,2,1:2:0:0:
468,177,71337,5,2,2:2:0:0:
360,221,71610,1,2,1:2:0:0:
457,202,71882,1,2,2:2:0:0:
508,289,72155,2,0,P|408:351|290:348,1,239.999992675781,2|8,1:2|2:2,0:0:0:0:
121,162,72974,2,0,P|221:99|339:103,1,239.999992675781,2|2,1:2|2:3,0:0:0:0:
145,241,73791,2,0,L|1:260,1,119.999996337891,2|2,1:2|2:3,0:0:0:0:
26,256,74337,1,2,1:2:0:0:
0,108,74882,1,2,2:2:0:0:
0,335,75428,2,0,L|13:387,7,29.9999990844727,2|0|0|0|0|0|0|0,2:2|0:0|0:0|0:0|0:0|0:0|0:0|0:0,0:0:0:0:
29,305,75973,1,10,2:2:0:0:
97,354,76519,6,0,B|207:389|182:114|225:66|342:-10|560:-26|687:-5|598:112|544:159|468:179|385:195|303:216|229:258|187:311|172:363|264:407|433:164|482:317,1,1210.00003692627,2|0,1:2|0:0,0:0:0:0:
427,360,78155,1,10,2:2:0:0:
427,360,78428,2,0,P|379:319|314:340,1,110.000003356934,10|4,2:3|2:3,0:0:0:0:
320,193,78701,6,0,B|274:97|116:106|26:103|41:237|-31:241|-74:184|-76:125|38:58|129:18|223:-16|297:-40|383:-42|432:13|413:48|332:80|253:85|190:103|152:135|51:240|27:280|30:299|51:311|95:305|132:266|191:212|233:219,1,1210.00003692627,2|0,1:2|0:0,0:0:0:0:
179,289,80337,1,10,2:2:0:0:
179,289,80610,2,0,P|236:260|290:256,1,110.000003356934,10|4,2:3|2:3,0:0:0:0:
471,174,80882,1,0,1:1:0:0:
506,104,81155,6,0,B|538:134|530:191|473:254|420:283|371:291|301:279|244:262|192:226|132:164|90:122|38:114|-9:108|-43:241|-18:336|12:344|122:315|155:210|306:256|367:407|465:307,1,1100.00003356934,2|8,2:2|2:2,0:0:0:0:
454,316,82791,2,0,L|471:177,13,129.999994049073,10|6|2|0|2|0|10|2|2|0|2|2|2|2,2:3|2:3|1:2|0:0|2:2|0:0|2:2|2:2|1:2|0:0|2:2|2:2|1:2|2:2,0:0:0:0:
369,249,84701,6,0,L|384:378,3,129.999994049073,10|0|8|4,2:2|0:0|2:3|2:3,0:0:0:0:
418,337,85246,6,0,B|361:368|272:359|216:253|192:242|135:279|131:317|131:338|111:364|69:379|8:357|-25:311|-37:239|-18:165|4:99|73:-51|133:-40|246:2|174:167|56:246,1,990.000030212403,2|0,1:2|0:0,0:0:0:0:
63,240,86882,1,10,2:2:0:0:
63,240,87155,2,0,P|56:318|105:335,1,110.000003356934,10|4,2:3|2:3,0:0:0:0:
236,369,87428,6,0,B|298:379|347:370|342:310|315:254|272:226|235:208|177:185|132:162|71:189|36:127|38:49|69:7|98:-11|143:-37|202:-39|301:-12|109:83|231:266,1,880.00002685547,2|2,1:2|2:3,0:0:0:0:
236,369,89064,5,10,2:2:0:0:
236,369,89337,2,0,P|179:345|162:301,1,110.000003356934,10|4,2:3|2:3,0:0:0:0:
240,97,89610,1,0,1:1:0:0:
197,28,89882,6,0,B|111:32|218:158|260:184|305:203|345:212|383:219|449:208|480:200|516:172|541:118|540:41|529:22|511:7|493:0|474:-2|429:8|412:19|426:29|611:262|538:7|687:-24|237:32|336:133|328:148|310:196|306:211|303:229|300:242|297:257|294:275|295:310|305:335|335:399|177:284|379:353|401:339|410:307|411:266|420:240|463:229|480:233|536:265,1,1100.00003356934,2|8,2:2|2:2,0:0:0:0:
489,244,91383,1,2,0:0:0:0:
441,316,91519,1,8,2:3:0:0:
328,352,91655,1,4,2:3:0:0:
168,326,91791,2,0,L|63:243,7,129.999994049073,2|0|0|0|8|0|2|0,1:2|0:0|0:0|0:0|2:2|0:0|1:3|0:0,0:0:0:0:
152,357,92882,6,0,L|102:235,3,129.999994049073,2|0|2|0,2:2|0:0|1:3|0:0,0:0:0:0:
242,261,93428,6,0,L|271:121,3,129.999994049073,10|0|8|4,2:2|0:0|2:3|2:3,0:0:0:0:
346,57,93973,5,0,1:1:0:0:
423,39,94246,5,2,2:2:0:0:
445,139,94382,1,2,2:2:0:0:
512,218,94519,2,0,B|389:378|389:378|352:390,5,239.999992675781,10|2|2|2|2|2,2:2|1:2|2:2|2:2|1:2|2:2,0:0:0:0:
332,374,96019,1,0,0:0:0:0:
363,279,96155,6,0,P|288:307|146:283,1,200,2|2,1:2|2:3,0:0:0:0:
70,313,96564,1,2,2:2:0:0:
4,240,96701,1,8,2:2:0:0:
99,31,96973,2,0,P|204:12|311:162,1,300,2|0,1:2|0:0,0:0:0:0:
311,150,97519,1,2,2:2:0:0:
311,150,97655,1,0,0:0:0:0:
311,150,97791,1,2,1:2:0:0:
311,150,97927,1,0,0:0:0:0:
311,150,98064,1,2,2:2:0:0:
311,150,98200,1,0,0:0:0:0:
470,301,98337,6,0,L|497:166,1,100,0|0,1:1|0:0,0:0:0:0:
445,139,98610,1,2,2:2:0:0:
372,241,98746,1,2,2:2:0:0:
264,315,98882,2,0,B|237:326|237:326|10:311,5,239.999992675781,10|2|2|2|2|2,2:2|1:2|2:2|2:2|1:2|2:2,0:0:0:0:
0,309,100382,1,0,0:0:0:0:
0,220,100519,5,2,1:2:0:0:
103,276,100655,2,0,L|148:365,1,100,2|2,2:2|2:3,0:0:0:0:
0,220,100928,5,2,2:2:0:0:
92,241,101064,2,0,L|78:343,1,100,10|0,2:2|0:0,0:0:0:0:
0,220,101337,5,2,1:2:0:0:
119,173,101473,2,0,L|156:274,1,100,2|2,2:2|2:3,0:0:0:0:
0,220,101746,5,2,2:2:0:0:
92,241,101882,2,0,L|194:257,1,100,2|0,2:2|0:0,0:0:0:0:
257,302,102155,2,0,P|355:289|441:204,1,200,2|2,1:2|2:2,0:0:0:0:
484,143,102564,1,0,0:0:0:0:
423,68,102701,1,0,1:1:0:0:
424,303,102973,5,2,2:2:0:0:
328,264,103110,1,2,2:2:0:0:
278,173,103246,2,0,B|214:-10|214:-10|288:34,5,239.999992675781,10|2|2|2|2|2,2:2|1:2|2:2|2:2|1:2|2:2,0:0:0:0:
265,36,104746,1,0,0:0:0:0:
401,9,104882,6,0,P|462:94|407:190,1,200,2|2,1:2|2:3,0:0:0:0:
455,255,105291,1,2,2:2:0:0:
375,284,105428,1,8,2:2:0:0:
238,384,105701,2,0,P|123:350|100:167,1,300,2|0,1:2|0:0,0:0:0:0:
87,188,106246,1,2,2:2:0:0:
87,188,106382,1,0,0:0:0:0:
87,188,106519,1,2,1:2:0:0:
87,188,106655,1,0,0:0:0:0:
87,188,106791,1,2,2:2:0:0:
87,188,106928,1,0,0:0:0:0:
263,128,107064,6,0,L|237:251,1,100,0|0,1:1|0:0,0:0:0:0:
283,293,107337,1,2,2:2:0:0:
201,204,107473,1,2,2:2:0:0:
159,86,107610,2,0,B|276:-18|276:-18|366:-1,5,239.999992675781,10|2|2|2|2|2,2:2|1:2|2:2|2:2|1:2|2:2,0:0:0:0:
253,68,109109,1,0,0:0:0:0:
340,36,109246,5,2,1:2:0:0:
282,99,109382,1,0,0:0:0:0:
288,130,109519,1,2,2:3:0:0:
260,172,109655,1,2,2:2:0:0:
307,247,109791,1,8,2:2:0:0:
293,331,109928,1,0,0:0:0:0:
357,375,110064,1,2,1:2:0:0:
466,360,110201,1,0,0:0:0:0:
510,287,110337,1,2,2:3:0:0:
486,225,110473,1,0,0:0:0:0:
454,239,110610,1,2,2:3:0:0:
396,301,110746,1,0,0:0:0:0:
301,319,110883,1,2,1:2:0:0:
215,260,111019,1,0,0:0:0:0:
191,143,111155,1,2,2:3:0:0:
156,114,111291,1,0,0:0:0:0:
140,41,111428,2,0,B|111:0|111:0|67:91|180:236|450:248|540:117|540:117|415:37|239:117|114:368|114:368|128:241|34:169|34:169|-30:233|13:322|13:322|110:281|159:82|351:-30|531:26|531:26|373:172|267:264|267:264|256:342|334:386|334:386|323:314|384:272|384:272|413:349|463:352|463:352|450:273|507:238|507:238|562:277|506:338,1,3200,6|2,1:2|1:2,0:0:0:0:
256,192,124791,12,2,128337,1:2:0:0:
256,192,128882,5,0,1:1:0:0:
256,192,129155,1,2,2:2:0:0:
235,169,129291,1,2,2:2:0:0:
178,216,129428,1,10,2:2:0:0:
126,228,129564,1,2,2:2:0:0:
75,198,129701,1,2,1:2:0:0:
16,242,129837,1,0,0:0:0:0:
49,278,129973,1,2,2:2:0:0:
239,370,130519,1,2,1:2:0:0:
310,315,130791,2,0,L|326:255,1,50,2|0,2:2|0:0,0:0:0:0:
322,266,131064,2,0,P|291:217|303:143,1,100,2|2,1:2|2:3,0:0:0:0:
244,118,131473,2,0,P|262:69|281:57,1,50,2|8,2:2|2:2,0:0:0:0:
413,18,131882,1,2,1:2:0:0:
389,89,132019,1,0,0:0:0:0:
389,89,132428,5,2,2:2:0:0:
368,0,132701,1,2,1:2:0:0:
484,73,132973,1,2,2:2:0:0:
505,209,133246,1,0,1:1:0:0:
505,209,133519,5,2,2:2:0:0:
463,177,133655,1,2,2:2:0:0:
389,204,133791,1,10,2:2:0:0:
348,291,133928,1,2,2:2:0:0:
308,329,134064,1,2,1:3:0:0:
280,337,134201,1,2,2:2:0:0:
215,321,134337,1,2,2:2:0:0:
176,66,134882,1,2,1:2:0:0:
22,45,135155,1,2,2:2:0:0:
278,2,135428,5,2,1:2:0:0:
380,45,135564,2,0,L|438:34,1,50,2|2,2:2|2:3,0:0:0:0:
278,2,135837,5,2,2:2:0:0:
357,7,135973,2,0,L|413:23,1,50,10|0,2:2|0:0,0:0:0:0:
278,2,136246,5,2,1:2:0:0:
200,0,136382,1,2,2:2:0:0:
265,135,136655,5,2,2:2:0:0:
332,177,136791,1,2,2:2:0:0:
211,348,137064,1,2,1:2:0:0:
58,273,137337,1,2,2:2:0:0:
27,90,137610,1,0,1:1:0:0:
27,90,137882,5,2,2:2:0:0:
0,170,138019,1,2,2:2:0:0:
25,249,138155,2,0,L|44:355,1,100,10|2,2:2|1:2,0:0:0:0:
60,249,139246,2,0,L|41:355,1,100,2|2,1:2|2:2,0:0:0:0:
42,347,139791,1,2,1:2:0:0:
144,122,140064,1,2,2:2:0:0:
380,45,140337,1,10,2:2:0:0:
278,270,140610,1,2,1:2:0:0:
278,270,141155,5,2,2:2:0:0:
249,174,141428,1,2,1:2:0:0:
264,310,141701,1,2,2:2:0:0:
410,377,141973,2,0,P|467:325|443:194,1,200,2|8,1:2|2:2,0:0:0:0:
269,88,142791,2,0,P|191:158|224:337,1,300,2|0,1:2|1:1,0:0:0:0:
222,335,143746,1,0,0:0:0:0:
222,335,143882,1,2,2:2:0:0:
222,335,144019,1,0,0:0:0:0:
291,293,144155,6,0,P|273:215|203:134,1,150,2|0,1:2|0:0,0:0:0:0:
100,113,144701,6,0,P|124:183|182:241,1,150,10|0,2:2|0:0,0:0:0:0:
363,168,145246,5,2,2:2:0:0:
363,168,145428,1,2,2:2:0:0:
363,168,145610,1,2,2:2:0:0:
417,222,145791,6,0,P|404:135|426:53,1,150,2|2,1:2|2:2,0:0:0:0:
380,269,146337,6,0,P|208:253|112:163,1,300.000011444092,2|10,1:2|1:2,0:0:0:0:
28,9,147155,1,2,2:2:0:0:
233,158,147428,2,0,P|365:179|504:90,1,300.000011444092,2|10,1:2|1:2,0:0:0:0:
317,12,148246,1,2,2:2:0:0:
100,113,148519,2,0,P|28:179|2:319,1,225.000008583069,2|0,1:2|0:0,0:0:0:0:
54,356,149064,2,0,P|48:257|125:147,1,225.000008583069,10|0,1:2|0:0,0:0:0:0:
192,160,149610,1,2,1:2:0:0:
450,383,150155,5,10,1:2:0:0:
512,218,150428,1,2,2:2:0:0:
339,247,150701,1,2,1:2:0:0:
438,284,150973,1,2,2:2:0:0:
438,284,151110,1,2,2:2:0:0:
155,152,151519,5,2,2:2:0:0:
119,29,151791,1,2,1:2:0:0:
243,59,152064,1,2,2:2:0:0:
243,59,152201,1,2,2:2:0:0:
100,320,152610,5,2,2:2:0:0:
100,320,152882,2,0,B|185:347|161:60|390:55,3,400,2|10|2|10,1:2|1:2|1:2|1:2,0:0:0:0:
450,73,154655,1,0,0:0:0:0:
512,14,154791,1,2,2:3:0:0:
196,125,155064,6,0,B|142:-32|9:36|110:173,1,300.000011444092,2|10,1:2|1:2,0:0:0:0:
256,335,155882,1,2,2:2:0:0:
390,215,156155,2,0,B|444:58|577:126|476:263,1,300.000011444092,2|10,1:2|1:2,0:0:0:0:
256,356,156973,1,2,2:2:0:0:
62,332,157246,2,0,P|118:255|308:269,2,300.000011444092,2|10|2,1:2|1:2|1:2,0:0:0:0:
0,281,158746,5,0,0:0:0:0:
0,281,158814,1,0,0:0:0:0:
0,281,158883,1,10,1:2:0:0:
45,215,159019,1,0,0:0:0:0:
89,351,159155,2,0,P|117:319|121:260,1,75.0000028610231,2|0,2:2|0:0,0:0:0:0:
189,241,159428,2,0,P|196:165|148:79,1,150.000005722046,2|2,1:2|2:2,0:0:0:0:
111,43,159837,1,2,2:2:0:0:
376,0,160246,5,2,2:2:0:0:
512,86,160519,1,2,1:2:0:0:
369,160,160791,1,2,2:2:0:0:
369,160,160928,1,2,2:2:0:0:
0,296,161337,5,2,2:2:0:0:
162,375,161610,2,0,B|205:401|249:394|294:354|328:280|330:211|310:147|254:135|194:166|185:232,3,400,2|10|2|10,1:2|1:2|1:2|1:2,0:0:0:0:
190,211,163314,2,0,L|205:264,6,37.5000014305115,0|0|0|2|0|0|0,0:0|0:0|0:0|2:3|0:0|0:0|0:0,0:0:0:0:
180,340,163791,6,0,B|280:381|464:250|441:112|359:10|268:-48|163:-69|57:-54|-8:0|-13:67|32:151|134:185|259:232|360:254|454:254|536:218|602:145|619:72|604:22|568:-8|534:-24|465:-15|411:-7|424:50|436:8|429:165|447:183|447:251|404:302|364:347,1,1600,2|2,1:2|1:2,0:0:0:0:
378,329,168292,1,0,0:0:0:0:
378,329,168428,1,2,2:3:0:0:
378,329,168564,1,2,2:2:0:0:
378,329,168701,1,10,1:2:0:0:
174,367,168973,2,0,P|83:336|52:245,1,200,2|2,2:2|2:2,0:0:0:0:
256,192,169655,12,10,171973,1:2:0:0:
112,222,172519,6,0,P|140:163|216:146,1,100,2|2,1:2|2:3,0:0:0:0:
267,44,172928,2,0,P|218:44|178:72,1,100,2|0,2:2|0:0,0:0:0:0:
338,17,173337,2,0,P|429:48|460:139,1,200,2|2,2:2|2:2,0:0:0:0:
256,192,174019,12,10,176337,1:2:0:0:
256,192,176519,5,0,0:0:0:0:
256,192,176701,1,0,0:0:0:0:
256,192,176882,6,0,P|319:233|359:234,1,100,2|2,1:2|2:3,0:0:0:0:
219,273,177291,2,0,P|151:307|131:341,1,100,2|0,2:2|0:0,0:0:0:0:
326,340,177701,2,0,P|409:328|517:383,1,200,2|2,2:2|2:2,0:0:0:0:
256,192,178382,12,2,180973,2:2:0:0:
256,192,181246,5,6,1:2:0:0:
461,361,198701,6,0,L|514:348,3,37.5000014305115,2|0|0|2,2:2|0:0|0:0|2:2,0:0:0:0:
504,319,199246,2,0,L|461:347,1,37.5000014305115
400,307,199519,2,0,L|386:346,1,37.5000014305115,2|0,2:2|0:0,0:0:0:0:
380,269,199791,2,0,L|385:216,1,37.5000014305115
302,261,200064,1,2,2:2:0:0:
246,241,200201,1,0,0:0:0:0:
216,289,200337,2,0,L|252:322,1,37.5000014305115
230,215,200610,2,0,L|191:207,1,37.5000014305115
230,335,200882,2,0,L|235:381,3,37.5000014305115
280,323,201428,2,0,L|290:282,1,37.5000014305115
305,342,201701,2,0,L|299:304,1,37.5000014305115
347,229,201973,1,0,0:0:0:0:
363,193,202110,1,0,0:0:0:0:
345,159,202246,2,0,L|356:114,1,37.5000014305115
419,88,202519,1,0,0:0:0:0:
408,32,202655,1,0,0:0:0:0:
423,92,202791,1,0,0:0:0:0:
412,36,202927,1,0,0:0:0:0:
433,18,203064,1,2,2:2:0:0:
484,192,203337,2,0,L|436:184,2,37.5000014305115,0|2|0,0:0|2:2|0:0,0:0:0:0:
268,189,203882,2,0,L|312:184,1,37.5000014305115,2|0,2:2|0:0,0:0:0:0:
267,210,204155,2,0,L|229:214,1,37.5000014305115
175,266,204428,2,0,L|135:258,3,37.5000014305115,2|0|0|0,2:2|0:0|0:0|0:0,0:0:0:0:
113,275,204973,1,0,0:0:0:0:
161,297,205110,1,0,0:0:0:0:
212,288,205246,2,0,L|272:288,1,50
336,353,205519,2,0,L|303:295,1,66.4999972602845
355,356,205791,2,0,L|313:283,1,83.0000012031555
299,118,206064,2,0,P|277:193|336:245,1,166.000002406311
358,271,206473,1,0,0:0:0:0:
384,224,206610,2,0,L|444:211,1,62.5
461,115,206882,2,0,L|432:161,1,50
501,237,207155,2,0,L|488:188,1,50
492,282,207428,2,0,L|500:329,3,37.5000014305115,2|0|0|2,2:2|0:0|0:0|2:2,0:0:0:0:
415,277,207973,2,0,L|393:239,3,37.5000014305115,0|0|2|0,0:0|0:0|2:2|0:0,0:0:0:0:
379,305,208519,2,0,L|388:262,1,37.5000014305115
321,242,208791,1,2,2:2:0:0:
326,194,208928,1,0,0:0:0:0:
297,210,209064,2,0,L|317:264,1,37.5000014305115
263,267,209337,2,0,L|275:310,1,37.5000014305115
304,323,209610,2,0,L|287:290,3,37.5000014305115
187,227,210155,2,0,L|160:195,1,37.5000014305115
196,164,210428,2,0,L|199:124,1,37.5000014305115
163,59,210701,1,0,0:0:0:0:
146,108,210837,1,0,0:0:0:0:
117,177,210973,2,0,L|128:221,1,37.5000014305115
88,197,211246,2,0,L|77:153,3,37.5000014305115
12,211,211791,1,2,2:2:0:0:
12,211,212064,1,0,0:0:0:0:
69,235,212201,1,2,2:2:0:0:
126,213,212337,1,0,0:0:0:0:
324,161,212610,1,2,2:2:0:0:
296,151,212746,1,0,0:0:0:0:
272,176,212882,2,0,L|324:198,1,37.5000014305115
396,197,213155,2,0,L|351:209,1,37.5000014305115,2|0,2:2|0:0,0:0:0:0:
311,265,213428,2,0,L|311:308,1,37.5000014305115
278,347,213701,1,0,0:0:0:0:
235,312,213837,1,0,0:0:0:0:
213,213,213973,2,0,L|213:55,3,83.0000012031555
175,237,214519,2,0,L|127:323,3,72.0000017578125
75,246,215064,2,0,L|144:218,1,60.9999974868775
78,220,215337,2,0,L|155:210,1,60.9999974868775
213,175,215610,2,0,L|265:151,1,49.499999848938
244,207,215882,2,0,L|316:221,1,49.499999848938
333,227,216155,1,2,2:3:0:0:
414,222,216428,5,2,2:2:0:0:
361,209,216564,1,2,2:2:0:0:
333,227,216701,1,2,2:2:0:0:
297,195,216837,1,2,2:2:0:0:
279,197,216974,1,2,2:2:0:0:
294,170,217110,1,2,2:2:0:0:
281,124,217246,1,2,2:2:0:0:
303,88,217382,1,2,2:2:0:0:
364,114,217519,1,2,2:2:0:0:
377,136,217655,1,2,2:2:0:0:
361,209,217791,1,2,2:2:0:0:
383,246,217928,1,2,2:2:0:0:
373,299,218064,1,2,2:2:0:0:
373,299,218337,2,0,P|389:347|442:355,1,100,2|0,2:2|0:0,0:0:0:0:
415,319,218746,2,0,P|463:319|490:280,1,100,2|0,2:2|0:0,0:0:0:0:
423,241,219155,1,2,2:2:0:0:
423,241,219701,5,2,2:2:0:0:
298,280,219973,1,2,2:2:0:0:
170,229,220246,1,2,2:2:0:0:
141,131,220519,1,2,2:3:0:0:
141,131,220791,5,2,2:2:0:0:
157,144,220928,1,2,2:2:0:0:
212,134,221064,1,2,2:2:0:0:
251,79,221201,1,2,2:2:0:0:
218,13,221337,1,2,2:2:0:0:
169,6,221473,1,2,2:2:0:0:
112,42,221610,1,2,2:2:0:0:
102,55,221746,1,2,2:2:0:0:
56,74,221882,1,2,2:2:0:0:
60,113,222019,1,2,2:2:0:0:
32,168,222155,1,2,2:2:0:0:
70,209,222292,1,2,2:2:0:0:
40,272,222428,1,2,2:2:0:0:
40,272,222701,2,0,P|24:334|32:369,1,100,2|0,2:2|0:0,0:0:0:0:
64,309,223110,2,0,P|86:369|115:385,1,100,2|0,2:2|0:0,0:0:0:0:
189,358,223519,2,0,P|196:293|134:174,1,200,2|2,2:2|2:2,0:0:0:0:
293,203,224337,2,0,P|318:105|422:28,1,200,2|2,2:2|2:3,0:0:0:0:
388,40,225155,5,2,2:2:0:0:
433,22,225291,1,2,2:2:0:0:
464,77,225428,1,2,2:2:0:0:
427,213,225701,1,2,2:2:0:0:
457,63,225973,1,2,2:2:0:0:
435,219,226246,1,2,2:2:0:0:
495,47,226519,1,2,2:2:0:0:
425,204,226791,1,2,2:2:0:0:
341,177,227064,2,0,L|365:296,3,100,2|2|2|2,2:2|2:2|2:2|2:2,0:0:0:0:
360,275,228428,5,2,2:2:0:0:
221,239,228701,1,2,2:2:0:0:
189,358,228973,1,2,2:2:0:0:
326,356,229246,2,0,P|396:294|371:167,1,200,2|0,2:2|0:0,0:0:0:0:
260,125,230064,2,0,P|336:139|278:249,1,200,2|0,2:2|0:0,0:0:0:0:
219,242,230882,2,0,P|251:281|312:259,1,100,2|0,2:2|0:0,0:0:0:0:
296,276,231291,1,0,0:0:0:0:
296,276,231428,1,2,2:2:0:0:
306,286,231973,1,2,2:2:0:0:
309,289,232519,1,2,2:2:0:0:
309,289,233064,1,2,2:2:0:0:
381,336,233610,6,0,B|295:331|383:73|268:352|216:346|192:310|200:273|237:214|284:168|334:113|341:59|314:2|296:-14|241:-23|201:-12|145:11|115:32|104:74|98:108|91:150|53:202|-2:125|-11:192|37:296|101:386|118:385|176:373|189:357|-40:251|191:353|211:266|208:254|210:224|326:213|217:166|-38:2|265:117|281:105|292:98|334:97|371:121,1,1199.99996337891,2|2,1:2|2:3,0:0:0:0:
348,110,235246,1,10,1:2:0:0:
348,110,235519,2,0,P|313:40|334:4,1,119.999996337891,10|4,2:3|2:3,0:0:0:0:
419,76,235791,6,0,B|493:139|343:205|224:223|144:188|27:317|21:347|72:370|129:363|229:377|306:338|491:318|534:304|561:225|538:196|485:194|422:190|364:213|328:253|268:257|218:282|197:313|173:353|156:372|137:401|-95:320|19:389,1,1319.9999597168,2|0,1:2|0:0,0:0:0:0:
49,317,237428,1,10,1:2:0:0:
49,317,237701,2,0,P|164:356|188:356,1,119.999996337891,10|4,2:3|2:3,0:0:0:0:
381,336,237973,1,0,1:1:0:0:
453,367,238246,6,0,B|519:327|591:101|511:-7|493:123|429:-6|396:37|393:101|407:168|421:212|436:246|446:280|443:290|434:295|433:295|405:273|386:239|376:200|372:154|376:103|376:64|365:33|339:15|335:-77|160:-82|141:-66|-173:108|-16:37|215:139|225:225|236:278|242:319|243:346|241:360|230:372|201:371|192:339|200:284|193:240|163:202|92:187|32:239,1,1439.99995605469,2|10,2:2|2:3,0:0:0:0:
0,370,240019,1,6,2:3:0:0:
93,369,240155,2,0,L|225:369,11,132.500005559922,2|0|2|0|10|2|2|0|2|2|2|2,1:2|0:0|2:2|0:0|2:2|2:2|1:2|0:0|1:2|2:2|2:2|2:2,0:0:0:0:
330,349,241791,6,0,L|197:349,3,132.500005559922,10|0|10|4,1:2|0:0|2:3|2:3,0:0:0:0:
226,301,242337,6,0,B|106:235|80:85|113:-21|196:-83|340:-67|444:1|514:125|513:241|485:287|435:326|386:339|323:322|282:293|235:243|218:209|214:163|218:136|232:111|256:84|301:69|338:77|358:99|369:168|358:205|322:225|297:226,1,1199.99996337891,2|2,1:2|2:3,0:0:0:0:
317,220,243973,1,10,1:2:0:0:
317,220,244246,2,0,P|302:150|347:213,1,119.999996337891,10|4,2:3|2:3,0:0:0:0:
211,266,244519,6,0,B|137:108|-22:152|-71:123|-62:100|-47:34|-42:5|26:9|69:32|138:1|110:161|116:205|77:273|145:288|98:404|170:366|194:377|231:380|271:364|305:334|342:291|376:266|413:263|512:254|696:244|696:322|492:381|464:391|434:385|162:333|370:374|376:392,1,1319.9999597168,2|0,1:2|0:0,0:0:0:0:
256,370,246155,1,10,1:2:0:0:
256,370,246428,2,0,P|195:369|142:337,1,119.999996337891,10|4,2:3|2:3,0:0:0:0:
49,165,246701,1,0,1:1:0:0:
130,181,246973,6,0,B|186:57|269:-73|349:-63|367:26|360:112|349:207|342:249|337:299|338:334|344:350|413:226|374:373|409:375|449:353|482:308|500:253|505:187|518:105|520:42|398:385|449:157|442:-27|424:-16|409:3|390:41|371:87|358:137|343:197|326:243|310:293|297:330|284:353|268:366|249:370|223:376|193:378|161:371|149:356|144:320|153:281|169:237|177:192|190:152|203:132|226:114|251:115|259:118|268:137,1,1439.99995605469,2|10,2:2|2:3,0:0:0:0:
278,211,248746,1,4,2:3:0:0:
227,321,248882,2,0,L|89:375,7,132.500005559922,2|0|2|0|8|0|2|0,1:2|0:0|2:3|0:0|2:2|0:0|1:3|0:0,0:0:0:0:
258,353,249973,6,0,L|103:337,3,132.500005559922,2|0|2|0,1:2|0:0|2:3|0:0,0:0:0:0:
182,256,250519,6,0,L|51:206,3,132.500005559922,10|0|10|4,1:2|0:0|2:3|2:3,0:0:0:0:
19,107,251064,5,0,1:1:0:0:
86,66,251337,5,2,2:2:0:0:
102,178,251473,1,2,2:2:0:0:
213,162,251610,2,0,B|367:18|367:18|383:-22,5,250,10|2|2|2|10|10,2:2|1:2|1:2|2:2|1:2|2:3,0:0:0:0:
404,10,253110,1,4,2:3:0:0:
499,10,253246,6,0,P|524:131|406:155,1,220.000006713867,2|2,1:2|2:3,0:0:0:0:
438,265,253655,1,2,2:2:0:0:
362,203,253791,1,8,2:2:0:0:
238,340,254064,2,0,P|122:352|31:197,1,220.000006713867,2|2,1:2|1:3,0:0:0:0:
46,289,254473,1,0,0:0:0:0:
46,289,254610,1,2,2:2:0:0:
46,289,254746,1,0,0:0:0:0:
46,289,254882,1,10,1:2:0:0:
46,289,255019,1,0,0:0:0:0:
46,289,255155,1,10,2:3:0:0:
46,289,255291,1,4,2:3:0:0:
0,137,255428,6,0,L|102:178,1,110.000003356934,0|0,1:1|0:0,0:0:0:0:
174,141,255701,1,2,2:2:0:0:
256,208,255837,1,2,2:2:0:0:
362,203,255973,2,0,B|422:63|422:63|300:98,5,250,10|2|2|2|10|10,2:2|1:2|1:2|2:2|1:2|2:3,0:0:0:0:
285,95,257473,1,4,2:3:0:0:
248,164,257610,5,2,1:2:0:0:
266,270,257746,2,0,L|245:377,1,110.000003356934,2|2,2:2|2:3,0:0:0:0:
248,164,258019,5,2,2:2:0:0:
228,248,258155,2,0,L|258:352,1,110.000003356934,10|0,2:2|0:0,0:0:0:0:
248,164,258428,5,2,1:2:0:0:
362,203,258564,2,0,L|341:325,1,110.000003356934,2|2,2:2|1:3,0:0:0:0:
248,164,258837,5,2,2:2:0:0:
302,42,258973,2,0,L|283:150,1,110.000003356934,2|0,2:2|0:0,0:0:0:0:
203,143,259246,2,0,P|147:208|20:208,1,220.000006713867,10|10,1:2|2:3,0:0:0:0:
0,105,259655,1,4,2:3:0:0:
93,183,259791,1,0,1:1:0:0:
351,216,260064,5,2,2:2:0:0:
412,136,260201,1,2,2:2:0:0:
501,184,260337,2,0,B|508:226|508:226|455:368|455:368|393:385,5,250,10|2|2|2|10|10,2:2|1:2|1:2|2:2|1:2|2:3,0:0:0:0:
366,370,261837,1,4,2:3:0:0:
318,255,261973,6,0,P|348:98|278:57,1,220.000006713867,2|2,1:2|2:3,0:0:0:0:
233,39,262382,1,2,2:2:0:0:
238,131,262519,1,8,2:2:0:0:
125,321,262791,2,0,P|6:218|52:91,1,220.000006713867,2|2,1:2|1:3,0:0:0:0:
5,167,263201,1,0,0:0:0:0:
5,167,263337,1,2,2:2:0:0:
5,167,263473,1,0,0:0:0:0:
5,167,263610,1,10,1:2:0:0:
5,167,263746,1,0,0:0:0:0:
5,167,263882,1,10,2:3:0:0:
5,167,264019,1,4,2:3:0:0:
99,350,264155,6,0,L|221:339,1,110.000003356934,0|0,1:1|0:0,0:0:0:0:
284,367,264428,1,2,2:2:0:0:
368,293,264564,1,2,2:2:0:0:
311,194,264701,2,0,B|343:1|343:1|372:100,5,250,10|2|2|2|10|10,2:2|1:2|1:2|2:2|1:2|2:3,0:0:0:0:
403,150,266201,1,4,2:3:0:0:
405,55,266337,5,2,1:2:0:0:
437,129,266473,1,0,0:0:0:0:
497,175,266610,1,2,2:3:0:0:
511,227,266746,1,2,2:2:0:0:
485,336,266882,1,8,2:2:0:0:
449,287,267019,1,0,0:0:0:0:
364,277,267155,1,2,1:2:0:0:
367,293,267291,1,0,0:0:0:0:
305,374,267428,1,2,1:3:0:0:
266,305,267564,1,0,0:0:0:0:
229,283,267701,1,2,2:3:0:0:
128,297,267837,1,0,0:0:0:0:
59,276,267973,1,10,1:2:0:0:
10,194,268110,1,0,0:0:0:0:
127,206,268246,1,10,2:3:0:0:
219,254,268382,1,4,2:3:0:0:
268,320,268519,1,6,1:2:0:0:
256,192,268655,12,0,285973,0:0:0:0:
