osu file format v14

[General]
AudioFilename: audio.mp3
AudioLeadIn: 0
PreviewTime: 60386
Countdown: 0
SampleSet: Soft
StackLeniency: 0.7
Mode: 0
LetterboxInBreaks: 0
WidescreenStoryboard: 0

[Editor]
Bookmarks: 16737,31975,60546,62451,92927,100546,131022,161498,163403,193879
DistanceSpacing: 1.2
BeatDivisor: 6
GridSize: 4
TimelineZoom: 1.4

[Metadata]
Title:I miss you
TitleUnicode:I miss you
Artist:Yuyoyuppe
ArtistUnicode:ゆよゆっぺ
Creator:Seto Kousuke
Version:Hard
Source:
Tags:Draw the Emotional meola feat. 巡音ルカ Megurine Luka Hatsune Miku 初音ミク MIKU-Pack music & artworks SNOW MAGIC Ruuya vocaloid novelty japanese
BeatmapID:1892249
BeatmapSetID:906781

[Difficulty]
HPDrainRate:4
CircleSize:4
OverallDifficulty:7
ApproachRate:8
SliderMultiplier:1.6
SliderTickRate:1

[Events]
//Background and Video events
0,0,"Stephanie.jpg",0,0
//Break Periods
2,197794,208273
//Storyboard Layer 0 (Background)
//Storyboard Layer 1 (Fail)
//Storyboard Layer 2 (Pass)
//Storyboard Layer 3 (Foreground)
//Storyboard Sound Samples

[TimingPoints]
927,476.190476190476,4,2,1,40,1,0
1404,476.190476190476,4,2,1,60,1,0
4618,-100,4,2,1,5,0,0
5213,-100,4,2,1,45,0,0
8427,-100,4,2,1,5,0,0
9023,-100,4,2,1,45,0,0
12237,-100,4,2,1,5,0,0
12832,-100,4,2,1,45,0,0
16642,-100,4,2,1,55,0,0
20094,-100,4,2,3,55,0,0
20451,-100,4,2,1,55,0,0
27713,-100,4,2,3,55,0,0
28070,-100,4,2,1,55,0,0
31880,-100,4,2,2,55,0,0
36523,-100,4,2,2,55,0,0
38903,-100,4,2,3,55,0,0
39142,-100,4,2,2,55,0,0
44142,-100,4,2,2,55,0,0
46523,-100,4,2,3,55,0,0
46761,-100,4,2,2,55,0,0
47118,-100,4,2,2,65,0,0
51761,-100,4,2,2,65,0,0
54142,-100,4,2,3,65,0,0
54380,-100,4,2,2,65,0,0
58546,-100,4,2,2,65,0,0
59023,-100,4,2,3,65,0,0
59261,-100,4,2,2,65,0,0
60451,-100,4,2,1,65,0,0
62356,-100,4,2,1,75,0,1
65808,-100,4,2,3,75,0,1
66165,-100,4,2,1,75,0,1
73427,-100,4,2,3,75,0,1
73784,-100,4,2,1,75,0,1
76046,-100,4,2,3,75,0,1
76284,-100,4,2,1,75,0,1
76880,-100,4,2,3,75,0,1
76999,-100,4,2,1,75,0,1
77118,-100,4,2,4,75,0,1
77237,-100,4,2,1,75,0,1
88665,-100,4,2,3,75,0,1
89023,-100,4,2,1,75,0,1
91284,-100,4,2,3,75,0,1
91523,-100,4,2,1,75,0,1
92118,-100,4,2,3,75,0,1
92237,-100,4,2,1,75,0,1
92356,-100,4,2,4,75,0,1
92475,-100,4,2,1,75,0,1
92832,-100,4,2,1,75,0,0
92951,-100,4,2,1,45,0,0
96642,-100,4,2,1,35,0,0
97594,-100,4,2,1,55,0,0
98070,-100,4,2,1,65,0,0
98903,-100,4,2,3,65,0,0
99023,-100,4,2,1,65,0,0
99618,-100,4,2,3,65,0,0
99737,-100,4,2,1,65,0,0
100570,-100,4,2,1,55,0,0
106999,-100,4,2,4,55,0,0
107237,-100,4,2,1,55,0,0
111523,-100,4,2,3,55,0,0
111880,-100,4,2,1,55,0,0
115689,-100,4,2,1,65,0,0
122237,-100,4,2,4,65,0,0
122475,-100,4,2,1,65,0,0
126761,-100,4,2,3,65,0,0
127118,-100,4,2,1,65,0,0
130927,-133.333333333333,4,2,1,70,0,0
131046,-133.333333333333,4,2,1,40,0,0
134142,-133.333333333333,4,2,1,60,0,0
134380,-133.333333333333,4,2,1,40,0,0
137951,-133.333333333333,4,2,1,60,0,0
138189,-133.333333333333,4,2,1,40,0,0
141761,-133.333333333333,4,2,1,60,0,0
141999,-133.333333333333,4,2,1,40,0,0
145570,-133.333333333333,4,2,1,60,0,0
145689,-100,4,2,1,60,0,0
145808,-100,4,2,3,60,0,0
146165,-100,4,2,2,60,0,0
153189,-100,4,2,3,60,0,0
153546,-100,4,2,2,60,0,0
158070,-100,4,2,3,60,0,0
158427,-100,4,2,2,60,0,0
160689,-100,4,2,3,60,0,0
160808,-100,4,2,2,60,0,0
161046,-100,4,2,3,60,0,0
161165,-100,4,2,2,60,0,0
161403,-100,4,2,1,70,0,0
163308,-80,4,2,1,80,0,1
166761,-80,4,2,3,80,0,1
167118,-80,4,2,1,80,0,1
174380,-80,4,2,3,80,0,1
174737,-80,4,2,1,80,0,1
176999,-80,4,2,3,80,0,1
177237,-80,4,2,1,80,0,1
177832,-80,4,2,3,80,0,1
177951,-80,4,2,1,80,0,1
178070,-80,4,2,4,80,0,1
178308,-80,4,2,1,80,0,1
181999,-80,4,2,3,80,0,1
182356,-80,4,2,1,80,0,1
189618,-80,4,2,3,80,0,1
189975,-80,4,2,1,80,0,1
192237,-80,4,2,3,80,0,1
192475,-80,4,2,1,80,0,1
193070,-80,4,2,3,80,0,1
193189,-80,4,2,1,80,0,1
193308,-80,4,2,4,80,0,1
193546,-80,4,2,1,80,0,1
193784,-100,4,2,1,80,0,0
193903,-100,4,2,1,50,0,0
209142,-100,4,2,1,45,0,0
212475,-100,4,2,1,45,0,0
212594,-100,4,2,3,45,0,0
212832,-100,4,2,1,45,0,0
220094,-100,4,2,1,45,0,0
220213,-100,4,2,3,45,0,0
220451,-100,4,2,1,45,0,0

[Colours]
Combo1 : 248,148,139
Combo2 : 255,0,0
Combo3 : 78,135,105
Combo4 : 242,135,55
Combo5 : 121,185,182
Combo6 : 151,75,0

[HitObjects]
112,33,16642,38,0,P|140:62|130:150,1,120,4|0,3:1|3:0,0:0:0:0:
120,181,17118,2,0,P|179:162|205:173,1,80,0|0,1:0|3:0,0:0:0:0:
293,257,17594,1,8,1:3:0:0:
293,257,18070,2,0,L|297:155,1,80,8|0,1:3|3:0,0:0:0:0:
317,133,18427,1,0,3:0:0:0:
317,133,18546,6,0,P|359:118|400:137,1,80,2|0,1:3|0:0,0:0:0:0:
432,156,18903,1,0,3:0:0:0:
432,156,19023,2,0,L|449:246,1,80,0|0,1:0|3:0,0:0:0:0:
490,358,19499,1,8,1:3:0:0:
490,358,19975,2,0,P|440:340|392:342,1,80,8|0,1:3|3:0,0:0:0:0:
396,371,20332,1,0,3:0:0:0:
396,371,20451,22,0,P|338:374|265:363,1,120,4|0,3:1|3:0,0:0:0:0:
228,366,20927,2,0,P|231:324|209:293,1,80,0|0,1:0|3:0,0:0:0:0:
107,202,21403,1,8,1:3:0:0:
107,202,21880,2,0,L|210:168,1,80,8|0,1:3|3:0,0:0:0:0:
230,173,22237,1,0,3:0:0:0:
230,173,22356,22,0,P|245:128|232:83,1,80,2|0,1:3|0:0,0:0:0:0:
207,60,22713,1,0,3:0:0:0:
207,60,22832,2,0,L|294:57,1,80,0|0,1:0|3:0,0:0:0:0:
418,47,23308,2,0,L|452:76,3,40,8|8|0|8,1:3|0:3|1:0|0:3,0:0:0:0:
456,120,23784,2,0,L|490:149,3,40,2|0|8|8,3:3|3:0|0:3|0:3,0:0:0:0:
497,193,24261,6,0,P|488:240|420:252,1,120,4|0,3:1|3:0,0:0:0:0:
391,288,24737,2,0,P|371:252|321:241,1,80,0|0,1:0|3:0,0:0:0:0:
202,238,25213,1,8,1:3:0:0:
202,238,25689,2,0,L|139:315,1,80,8|0,1:3|3:0,0:0:0:0:
109,323,26046,1,0,3:0:0:0:
109,323,26165,6,0,P|70:304|56:247,1,80,2|0,1:3|0:0,0:0:0:0:
16,243,26523,1,0,3:0:0:0:
16,243,26642,2,0,L|36:135,1,80,0|0,1:0|3:0,0:0:0:0:
58,35,27118,1,8,1:3:0:0:
58,35,27594,2,0,P|108:53|156:51,1,80,8|0,1:3|3:0,0:0:0:0:
184,40,27951,1,0,3:0:0:0:
184,40,28070,22,0,L|196:136,1,80,4|0,3:1|0:0,0:0:0:0:
208,169,28427,1,0,3:0:0:0:
208,169,28546,2,0,P|242:144|313:146,1,80,0|0,1:0|3:0,0:0:0:0:
412,128,29023,1,8,1:3:0:0:
412,128,29499,2,0,L|406:229,1,80,8|0,1:3|3:0,0:0:0:0:
433,252,29856,1,0,3:0:0:0:
433,252,29975,22,0,P|436:291|399:334,1,80,2|0,1:3|0:0,0:0:0:0:
391,370,30332,1,0,3:0:0:0:
391,370,30451,2,0,P|356:345|289:350,1,80,0|0,1:0|3:0,0:0:0:0:
187,308,30927,2,0,L|139:331,3,40,8|8|0|8,1:3|0:3|1:0|0:3,0:0:0:0:
101,339,31403,2,0,L|53:316,3,40,8|8|8|8,1:3|1:3|1:3|1:3,0:0:0:0:
21,292,31880,5,4,3:1:0:0:
72,220,32118,1,0,1:0:0:0:
72,220,32237,2,0,P|84:181|65:119,1,80,0|0,1:0|1:0,2:0:0:0:
172,64,32713,1,0,1:0:0:0:
172,64,32832,2,0,P|160:102|166:142,1,80,0|0,1:0|1:0,2:0:0:0:
224,207,33308,1,0,1:0:0:0:
311,202,33546,1,0,1:0:0:0:
362,130,33784,6,0,L|368:35,1,80,2|0,1:3|1:0,2:0:0:0:
396,11,34142,1,0,1:0:0:0:
474,65,34380,2,0,L|468:144,1,80,0|0,1:0|1:0,2:0:0:0:
438,182,34737,1,0,1:0:0:0:
476,269,34975,1,0,1:0:0:0:
420,347,35213,2,0,P|383:360|331:345,1,80,0|0,1:0|1:0,2:0:0:0:
222,367,35689,22,0,P|265:335|199:263,2,160,4|0|0,3:1|1:0|1:0,2:0:0:0:
64,287,37118,2,0,L|80:204,1,80,0|0,1:0|1:0,0:0:0:0:
56,170,37475,1,0,1:0:0:0:
56,170,37594,2,0,P|97:170|148:148,1,80,2|0,3:3|1:0,0:0:0:0:
167,129,37951,1,0,1:0:0:0:
231,188,38189,1,0,1:0:0:0:
293,126,38427,2,0,L|301:78,1,40,0|0,1:0|1:0,0:0:0:0:
401,50,38784,1,0,1:0:0:0:
401,50,38903,2,0,L|395:139,1,80,0|0,3:0|0:0,0:0:0:0:
430,158,39261,2,0,L|419:211,1,40,0|0,3:0|3:0,0:0:0:0:
390,228,39499,21,4,3:1:0:0:
451,291,39737,1,0,1:0:0:0:
451,291,39856,2,0,P|447:333|391:366,1,80,0|0,1:0|1:0,0:0:0:0:
290,379,40332,1,0,1:0:0:0:
290,379,40451,2,0,L|192:365,1,80,0|0,1:0|1:0,0:0:0:0:
137,318,40927,1,0,1:0:0:0:
145,230,41165,1,0,1:0:0:0:
220,184,41403,6,0,P|261:181|320:188,1,80,2|0,1:3|1:0,0:0:0:0:
343,163,41761,1,0,1:0:0:0:
302,88,41999,2,0,P|260:90|202:84,1,80,0|0,1:0|1:0,0:0:0:0:
186,55,42356,1,0,1:0:0:0:
90,45,42594,1,0,1:0:0:0:
33,122,42832,2,0,L|34:208,1,80,0|0,1:0|1:0,0:0:0:0:
113,311,43308,6,0,L|111:113,2,160,4|0|0,3:1|1:0|1:0,0:0:0:0:
280,368,44737,2,0,P|327:368|384:343,1,80,0|0,1:0|1:0,0:0:0:0:
402,360,45094,1,0,1:0:0:0:
402,360,45213,2,0,L|398:268,1,80,2|0,3:3|1:0,0:0:0:0:
386,237,45570,1,0,1:0:0:0:
436,164,45808,1,0,1:0:0:0:
379,96,46046,2,0,L|320:91,1,40,0|0,1:0|1:0,0:0:0:0:
232,69,46403,1,0,1:0:0:0:
232,69,46523,2,0,L|223:162,1,80,0|0,3:0|1:0,0:0:0:0:
248,185,46880,2,0,L|200:200,1,40,0|0,3:0|3:0,0:0:0:0:
173,222,47118,21,4,3:1:0:0:
158,316,47356,1,0,1:0:0:0:
158,316,47475,2,0,L|267:323,1,80,0|0,1:0|1:0,0:0:0:0:
343,229,47951,1,0,1:0:0:0:
343,229,48070,2,0,L|263:223,1,80,0|0,1:0|1:0,0:0:0:0:
185,167,48546,1,0,1:0:0:0:
106,207,48784,1,0,1:0:0:0:
60,131,49023,22,0,L|116:63,1,80,2|0,1:3|1:0,0:0:0:0:
148,38,49380,1,0,1:0:0:0:
219,102,49618,1,0,1:0:0:0:
287,34,49856,1,0,1:0:0:0:
287,34,49975,2,0,P|327:25|384:34,1,80,0|0,1:0|1:0,0:0:0:0:
457,75,50451,2,0,L|455:165,1,80,0|0,1:0|1:0,0:0:0:0:
500,261,50927,6,0,P|445:228|363:285,2,160,4|0|0,3:1|1:0|1:0,0:0:0:0:
359,367,52356,2,0,L|280:364,1,80,0|0,1:0|1:0,0:0:0:0:
238,381,52713,1,0,1:0:0:0:
238,381,52832,2,0,P|243:333|208:294,1,80,2|0,3:3|1:0,0:0:0:0:
191,282,53189,1,0,1:0:0:0:
109,316,53427,1,0,1:0:0:0:
40,260,53665,2,0,L|37:202,1,40,0|0,1:0|1:0,0:0:0:0:
95,126,54023,1,0,1:0:0:0:
95,126,54142,2,0,L|195:136,1,80,0|0,3:0|0:0,0:0:0:0:
203,167,54499,2,0,L|253:150,1,40,0|0,3:0|3:0,0:0:0:0:
268,120,54737,5,4,3:1:0:0:
388,93,54975,1,0,1:0:0:0:
388,93,55094,2,0,L|389:8,1,80,0|0,1:0|1:0,0:0:0:0:
268,40,55570,1,0,1:0:0:0:
268,40,55689,2,0,L|267:119,1,80,0|0,1:0|1:0,0:0:0:0:
340,169,56165,1,0,1:0:0:0:
346,256,56403,1,0,1:0:0:0:
254,350,56642,22,0,L|159:343,1,80,2|0,1:3|1:0,0:0:0:0:
129,325,56999,1,0,1:0:0:0:
82,240,57237,1,0,1:0:0:0:
130,156,57475,1,0,1:0:0:0:
130,156,57594,2,0,L|46:157,1,80,0|0,1:0|1:0,0:0:0:0:
62,63,58070,2,0,L|141:62,1,80,0|0,1:0|1:0,0:0:0:0:
262,21,58546,22,0,P|238:52|240:110,1,80,2|0,3:3|1:0,0:0:0:0:
238,102,58903,1,0,1:0:0:0:
242,113,59023,1,0,3:0:0:0:
250,121,59142,2,0,L|341:147,1,80,0|0,3:0|1:0,0:0:0:0:
337,148,59499,1,0,1:0:0:0:
347,153,59618,2,0,P|369:112|376:67,1,80,0|0,1:0|0:0,0:0:0:0:
373,35,59975,2,0,L|422:40,3,40,0|0|0|0,1:0|1:0|1:0|1:0,0:0:0:0:
463,46,60451,5,2,3:1:0:0:
491,33,62356,6,0,P|438:25|388:104,1,120,4|0,3:1|3:0,0:0:0:0:
347,60,62832,2,0,L|368:154,1,80,2|0,3:0|3:0,0:0:0:0:
407,264,63308,1,10,0:3:0:0:
407,264,63784,2,0,P|367:274|309:279,1,80,10|0,0:3|3:0,0:0:0:0:
269,364,64261,22,0,P|214:321|153:343,1,120,2|0,3:0|3:0,0:0:0:0:
125,334,64737,2,0,P|140:293|136:231,1,80,2|0,3:0|3:0,0:0:0:0:
77,141,65213,1,10,0:3:0:0:
57,226,65451,1,0,3:0:0:0:
170,158,65689,2,0,L|165:58,1,80,10|0,0:3|3:0,0:0:0:0:
169,66,66046,1,0,3:0:0:0:
175,56,66165,22,0,P|220:44|294:103,1,120,4|0,3:1|3:0,0:0:0:0:
325,83,66642,2,0,P|307:118|325:180,1,80,2|0,3:0|3:0,0:0:0:0:
411,248,67118,1,10,0:3:0:0:
411,248,67594,2,0,P|374:250|329:257,1,80,10|0,0:3|3:0,0:0:0:0:
232,189,68070,6,0,P|190:188|123:261,1,120,2|0,3:0|3:0,0:0:0:0:
90,218,68546,2,0,L|94:326,1,80,2|0,3:0|3:0,0:0:0:0:
160,378,69023,1,10,0:3:0:0:
179,378,69142,1,10,0:3:0:0:
199,378,69261,1,0,3:0:0:0:
219,379,69380,1,0,3:0:0:0:
239,379,69499,2,0,L|283:344,3,40,10|10|10|10,0:3|0:3|0:3|0:3,0:0:0:0:
295,318,69975,6,0,P|359:300|411:336,1,120,4|0,3:1|3:0,0:0:0:0:
435,354,70451,2,0,L|466:272,1,80,2|0,3:0|3:0,0:0:0:0:
498,148,70927,1,10,0:3:0:0:
498,148,71403,2,0,P|463:152|390:135,1,80,10|0,0:3|3:0,0:0:0:0:
314,181,71880,22,0,P|343:127|294:61,1,120,2|0,3:0|3:0,0:0:0:0:
346,40,72356,2,0,L|261:24,1,80,2|0,3:0|3:0,0:0:0:0:
137,81,72832,1,12,0:3:0:0:
182,5,73070,1,0,3:0:0:0:
218,120,73308,2,0,L|207:213,1,80,10|0,0:3|3:0,0:0:0:0:
206,211,73665,1,0,3:0:0:0:
203,222,73784,22,0,P|169:204|85:234,1,120,4|0,3:1|3:0,0:0:0:0:
62,254,74261,2,0,L|57:174,1,80,2|0,3:0|3:0,0:0:0:0:
45,41,74737,1,10,0:3:0:0:
45,41,75213,2,0,P|82:48|148:34,1,80,10|0,0:3|3:0,0:0:0:0:
258,30,75689,1,10,0:3:0:0:
245,45,75808,1,10,0:3:0:0:
238,64,75927,1,0,3:0:0:0:
237,83,76046,6,0,L|260:198,1,80,0|10,3:0|0:3,0:0:0:0:
260,170,76403,1,10,0:3:0:0:
267,179,76523,2,0,L|304:193,4,40,10|10|10|0|10,0:3|0:3|0:3|3:0|0:3,0:0:0:0:
347,200,77118,2,0,P|400:188|419:141,1,80,12|10,0:3|0:3,0:0:0:0:
423,176,77475,1,10,0:3:0:0:
432,183,77594,6,0,L|432:60,1,120,4|0,3:1|3:0,0:0:0:0:
401,31,78070,2,0,P|367:21|320:43,1,80,2|0,3:0|3:0,0:0:0:0:
193,41,78546,1,10,0:3:0:0:
193,41,79023,2,0,P|154:65|122:108,1,80,10|0,0:3|3:0,0:0:0:0:
27,132,79499,22,0,P|69:170|40:252,1,120,2|0,3:0|3:0,0:0:0:0:
39,265,79975,2,0,P|85:264|140:284,1,80,2|0,3:0|3:0,0:0:0:0:
211,368,80451,1,10,0:3:0:0:
287,305,80689,1,0,3:0:0:0:
199,200,80927,2,0,L|199:280,1,80,10|0,0:3|3:0,0:0:0:0:
204,290,81284,1,0,3:0:0:0:
209,300,81403,22,0,P|251:309|303:300,1,80,4|0,3:1|0:0,0:0:0:0:
298,310,81761,1,0,3:0:0:0:
308,315,81880,2,0,P|332:284|349:232,1,80,2|0,3:0|3:0,0:0:0:0:
356,112,82356,1,10,0:3:0:0:
356,112,82832,2,0,L|244:104,1,80,10|0,0:3|3:0,0:0:0:0:
213,1,83308,6,0,P|185:15|174:111,1,120,2|0,3:0|3:0,0:0:0:0:
183,135,83784,2,0,P|142:132|87:158,1,80,2|0,3:0|3:0,0:0:0:0:
14,239,84261,1,10,0:3:0:0:
16,258,84380,1,10,0:3:0:0:
19,278,84499,1,0,3:0:0:0:
22,298,84618,1,0,3:0:0:0:
25,318,84737,2,0,L|67:352,3,40,10|10|10|10,0:3|0:3|0:3|0:3,0:0:0:0:
97,358,85213,6,0,P|167:354|221:340,1,120,4|0,3:1|3:0,0:0:0:0:
255,359,85689,2,0,P|284:324|298:268,1,80,2|0,3:0|3:0,0:0:0:0:
316,158,86165,1,10,0:3:0:0:
316,158,86642,2,0,P|342:181|407:185,1,80,10|0,0:3|3:0,0:0:0:0:
394,197,86999,1,0,3:0:0:0:
402,204,87118,22,0,L|429:81,1,120,2|0,3:0|3:0,0:0:0:0:
457,54,87594,2,0,P|416:35|360:37,1,80,2|0,3:0|3:0,0:0:0:0:
250,21,88070,1,12,0:3:0:0:
292,98,88308,1,0,3:0:0:0:
207,150,88546,2,0,L|111:148,1,80,10|0,0:3|3:0,0:0:0:0:
115,147,88903,1,0,3:0:0:0:
102,146,89023,22,0,P|75:207|109:272,1,120,4|0,3:1|3:0,0:0:0:0:
78,296,89499,2,0,L|176:292,1,80,2|0,3:0|3:0,0:0:0:0:
268,241,89975,1,10,0:3:0:0:
338,293,90213,1,0,3:0:0:0:
291,367,90451,2,0,L|196:370,1,80,10|0,0:3|3:0,0:0:0:0:
80,372,90927,5,10,0:3:0:0:
105,358,91046,1,10,0:3:0:0:
118,331,91165,1,0,3:0:0:0:
112,302,91284,2,0,L|35:256,1,80,0|10,3:0|0:3,0:0:0:0:
39,249,91642,1,10,0:3:0:0:
36,237,91761,2,0,L|36:197,4,40,10|10|10|0|10,0:3|0:3|0:3|3:0|0:3,0:0:0:0:
51,155,92356,1,14,0:3:0:0:
151,117,92594,1,10,0:3:0:0:
151,117,92713,1,10,0:3:0:0:
151,117,92832,1,4,3:1:0:0:
256,192,93070,12,0,96165,0:0:0:0:
84,78,96642,6,0,P|52:149|82:240,1,160,2|2,0:3|0:3,0:0:0:0:
174,368,97594,2,0,L|338:327,1,160,2|2,0:3|0:3,0:0:0:0:
447,199,98546,22,0,L|504:210,2,40,8|8|2,0:3|0:3|0:3,0:0:0:0:
403,205,98903,2,0,P|355:218|313:183,1,80,0|0,3:0|3:0,0:0:0:0:
300,172,99261,2,0,L|296:121,1,40,8|8,0:3|0:3,0:0:0:0:
307,89,99499,1,2,3:0:0:0:
307,89,99618,2,0,L|190:90,1,80,0|0,3:0|3:0,0:0:0:0:
187,109,99975,2,0,L|173:153,3,40,8|8|8|8,0:3|0:3|0:3|0:3,0:0:0:0:
132,160,100451,22,0,P|118:203|133:256,1,80,4|0,3:1|1:0,0:0:0:0:
46,279,100927,2,0,P|76:312|129:326,1,80,0|0,3:0|1:0,0:0:0:0:
182,371,101403,1,0,3:0:0:0:
240,304,101642,1,0,1:0:0:0:
321,337,101880,1,0,3:0:0:0:
366,261,102118,1,8,0:3:0:0:
289,216,102356,6,0,L|210:203,1,80,0|0,3:0|1:0,0:0:0:0:
204,115,102832,1,0,3:0:0:0:
124,76,103070,1,0,1:0:0:0:
50,124,103308,2,0,L|37:202,1,80,0|8,3:0|0:3,0:0:0:0:
31,209,103665,1,8,0:3:0:0:
25,215,103784,2,0,P|40:264|93:277,1,80,0|0,3:0|3:0,0:0:0:0:
63,286,104142,1,0,3:0:0:0:
64,294,104261,6,0,L|177:288,1,80,4|0,3:1|1:0,0:0:0:0:
232,159,104737,2,0,P|200:227|252:282,1,160,0|0,3:0|3:0,0:0:0:0:
316,342,105451,1,0,1:0:0:0:
388,292,105689,2,0,L|374:198,1,80,0|0,3:0|1:0,0:0:0:0:
372,205,106046,1,0,1:0:0:0:
367,198,106165,22,0,P|399:175|457:178,1,80,2|0,3:0|1:0,0:0:0:0:
489,99,106642,1,0,3:0:0:0:
420,43,106880,1,0,1:0:0:0:
275,96,107118,2,0,L|185:85,1,80,4|8,3:0|0:3,0:0:0:0:
188,82,107475,1,8,0:3:0:0:
180,78,107594,1,2,3:0:0:0:
100,128,107832,1,8,0:3:0:0:
93,124,107951,1,8,0:3:0:0:
86,120,108070,22,0,P|71:169|82:222,1,80,4|0,3:1|1:0,0:0:0:0:
133,261,108546,2,0,L|223:245,1,80,0|0,3:0|1:0,0:0:0:0:
298,231,109023,1,0,3:0:0:0:
364,289,109261,1,0,1:0:0:0:
327,369,109499,1,0,3:0:0:0:
239,358,109737,1,8,0:3:0:0:
172,299,109975,6,0,P|130:300|83:331,1,80,2|0,3:0|1:0,0:0:0:0:
22,269,110451,1,0,3:0:0:0:
67,193,110689,1,0,1:0:0:0:
14,122,110927,2,0,P|11:82|38:39,1,80,0|8,3:0|0:3,0:0:0:0:
35,46,111284,1,8,0:3:0:0:
42,44,111403,2,0,L|154:39,1,80,0|0,3:0|3:0,0:0:0:0:
129,43,111761,1,0,3:0:0:0:
136,45,111880,6,0,L|135:146,1,80,4|0,3:1|1:0,0:0:0:0:
220,147,112356,2,0,L|219:248,1,80,0|0,3:0|1:0,0:0:0:0:
304,249,112832,2,0,L|303:350,1,80,0|0,3:0|1:0,0:0:0:0:
381,369,113308,1,0,3:0:0:0:
455,322,113546,1,0,1:0:0:0:
455,322,113665,1,0,1:0:0:0:
455,322,113784,22,0,L|455:220,1,80,2|8,3:0|0:3,0:0:0:0:
451,197,114142,1,0,3:0:0:0:
389,133,114380,2,0,L|346:139,1,40,8|0,0:3|3:0,0:0:0:0:
432,50,114737,2,0,L|480:41,3,40,8|8|8|0,0:3|0:3|0:3|3:0,0:0:0:0:
385,34,115213,1,8,0:3:0:0:
365,33,115332,1,8,0:3:0:0:
345,32,115451,1,8,0:3:0:0:
325,31,115570,1,8,0:3:0:0:
305,30,115689,22,0,P|283:81|295:140,1,80,4|0,3:1|1:0,0:0:0:0:
326,181,116165,1,0,3:0:0:0:
285,259,116403,1,0,1:0:0:0:
198,277,116642,2,0,L|113:263,1,80,0|0,3:0|1:0,0:0:0:0:
63,195,117118,1,0,3:0:0:0:
81,109,117356,1,8,0:3:0:0:
168,99,117594,6,0,L|246:112,1,80,0|0,3:0|1:0,0:0:0:0:
312,170,118070,1,0,3:0:0:0:
370,104,118308,1,0,1:0:0:0:
456,121,118546,2,0,L|473:223,1,80,0|8,3:0|0:3,0:0:0:0:
471,207,118903,1,8,0:3:0:0:
473,214,119023,2,0,P|450:254|392:279,1,80,0|0,3:0|3:0,0:0:0:0:
414,273,119380,1,0,3:0:0:0:
406,273,119499,6,0,L|309:281,1,80,4|0,3:1|1:0,0:0:0:0:
226,357,119975,2,0,P|251:297|155:237,1,160,0|0,3:0|3:0,0:0:0:0:
108,209,120689,1,0,1:0:0:0:
90,122,120927,2,0,L|145:48,1,80,0|0,3:0|1:0,0:0:0:0:
144,53,121284,1,0,1:0:0:0:
150,48,121403,22,0,P|188:55|234:38,1,80,2|0,3:0|1:0,0:0:0:0:
314,53,121880,2,0,L|333:138,1,80,0|0,3:0|1:0,0:0:0:0:
400,256,122356,1,4,3:0:0:0:
427,161,122594,1,8,0:3:0:0:
427,161,122713,1,8,0:3:0:0:
427,161,122832,1,2,3:0:0:0:
297,230,123070,1,8,0:3:0:0:
297,230,123189,1,8,0:3:0:0:
297,230,123308,22,0,P|257:241|204:232,1,80,4|0,3:1|1:0,0:0:0:0:
153,179,123784,1,0,3:0:0:0:
73,216,124023,1,0,1:0:0:0:
44,299,124261,2,0,P|51:344|81:370,1,80,0|0,3:0|1:0,0:0:0:0:
161,378,124737,1,0,3:0:0:0:
228,321,124975,1,8,0:3:0:0:
187,243,125213,6,0,P|179:205|187:158,1,80,0|0,3:0|1:0,0:0:0:0:
232,90,125689,2,0,L|342:92,1,80,0|0,3:0|1:0,0:0:0:0:
379,34,126165,1,0,3:0:0:0:
447,105,126403,1,8,0:3:0:0:
447,105,126523,1,8,0:3:0:0:
447,105,126642,2,0,L|452:191,1,80,0|0,3:0|3:0,0:0:0:0:
471,314,127118,6,0,P|427:277|339:319,1,160,4|0,3:1|3:0,0:0:0:0:
107,297,128070,2,0,P|151:334|239:292,1,160,2|2,3:0|3:0,0:0:0:0:
299,79,129023,21,4,3:1:0:0:
224,125,129261,2,0,L|175:142,1,40,8|0,0:3|3:0,0:0:0:0:
142,214,129618,2,0,L|104:200,1,40,8|0,0:3|3:0,0:0:0:0:
17,213,129975,1,8,0:3:0:0:
19,183,130094,1,8,0:3:0:0:
21,153,130213,1,8,0:3:0:0:
23,123,130332,1,0,3:0:0:0:
25,93,130451,2,0,L|-7:56,4,40,8|8|8|8|4,0:3|0:3|0:3|0:3|3:1,0:0:0:0:
238,298,131880,54,0,P|289:293|359:131,1,240.000009155274
234,35,133784,1,0,0:0:0:0:
45,217,134261,37,8,0:1:0:0:
45,217,134737,38,0,P|119:284|269:257,2,240.000009155274,0|0|0,0:0|0:0|0:0,0:0:0:0:
110,63,137594,1,0,0:0:0:0:
374,82,138070,37,8,0:1:0:0:
374,82,138546,38,0,B|409:172|320:203|384:323,2,240.000009155274,0|0|0,0:0|0:0|0:0,0:0:0:0:
217,23,141403,1,0,0:0:0:0:
231,199,141880,37,8,0:3:0:0:
105,65,142356,38,0,P|52:90|98:239,2,240.000009155274,0|0|0,0:0|0:0|0:0,0:0:0:0:
257,117,145213,1,0,0:0:0:0:
415,126,145689,37,10,1:3:0:0:
357,206,145927,22,0,L|380:230,3,26.6666666666667,0|0|0|4,3:0|3:0|3:0|3:1,0:0:0:0:
267,227,146403,1,0,1:3:0:0:
267,227,146523,1,0,1:3:0:0:
209,160,146761,2,0,L|207:104,1,40,0|0,1:3|1:0,0:0:0:0:
162,44,147118,1,0,1:3:0:0:
82,81,147356,1,0,1:3:0:0:
78,168,147594,2,0,L|87:253,1,80,0|0,1:3|1:3,0:0:0:0:
176,350,148070,6,0,L|276:348,1,80,2|0,1:3|1:3,0:0:0:0:
299,355,148427,1,0,1:3:0:0:
342,278,148665,2,0,L|337:225,1,40,0|0,1:3|1:0,0:0:0:0:
287,165,149023,1,0,1:3:0:0:
344,98,149261,2,0,L|388:101,2,40,0|0|0,1:3|3:0|1:3,0:0:0:0:
293,26,149737,1,0,1:3:0:0:
202,128,149975,22,0,P|160:130|118:97,1,80,4|0,3:1|1:3,0:0:0:0:
105,73,150332,1,0,1:3:0:0:
28,115,150570,2,0,L|-7:155,1,40,0|0,1:3|1:0,0:0:0:0:
3,233,150927,1,0,1:3:0:0:
68,291,151165,1,0,1:3:0:0:
138,238,151403,2,0,P|176:232|223:245,1,80,0|0,1:3|1:3,0:0:0:0:
225,248,151761,1,0,1:3:0:0:
234,255,151880,22,0,L|240:305,2,40,2|0|0,3:3|1:0|1:3,0:0:0:0:
250,222,152237,1,0,1:3:0:0:
301,145,152475,1,0,1:3:0:0:
363,229,152713,2,0,L|363:268,1,40,0|0,1:3|1:3,0:0:0:0:
439,313,153070,1,0,1:3:0:0:
439,313,153189,2,0,L|449:206,1,80,0|0,3:0|0:0,0:0:0:0:
448,194,153546,1,0,3:0:0:0:
448,194,153665,1,0,3:0:0:0:
448,194,153784,6,0,L|441:106,1,80,4|0,3:1|1:3,0:0:0:0:
437,70,154142,1,0,1:3:0:0:
361,24,154380,1,0,1:3:0:0:
292,79,154618,2,0,L|285:145,1,40,0|0,1:3|1:3,0:0:0:0:
211,163,154975,1,0,1:3:0:0:
149,99,155213,2,0,P|110:91|62:103,1,80,0|0,1:3|1:3,0:0:0:0:
13,217,155689,6,0,L|44:304,1,80,2|0,1:3|1:3,0:0:0:0:
63,329,156046,1,0,1:3:0:0:
140,287,156284,1,0,1:3:0:0:
215,333,156523,2,0,L|280:325,1,40,0|0,1:3|1:3,0:0:0:0:
324,274,156880,1,0,1:3:0:0:
324,274,156999,1,0,3:0:0:0:
324,274,157118,2,0,P|330:229|315:183,1,80,0|0,1:3|1:3,0:0:0:0:
242,100,157594,22,0,L|149:114,1,80,4|0,3:1|1:3,0:0:0:0:
122,128,157951,1,0,1:3:0:0:
49,78,158189,1,0,3:0:0:0:
49,78,158308,2,0,P|31:125|56:168,1,80,0|0,0:0|1:3,0:0:0:0:
71,181,158665,1,0,1:3:0:0:
71,181,158784,2,0,L|65:280,1,80,0|0,3:0|1:3,0:0:0:0:
62,272,159142,1,0,1:3:0:0:
59,283,159261,2,0,L|21:306,2,40,0|0|2,1:3|1:3|3:0,0:0:0:0:
197,307,159737,22,0,L|191:341,3,26.6666666666667,0|0|0|0,1:3|1:0|1:3|1:0,0:0:0:0:
323,276,160213,2,0,L|349:289,2,26.6666666666667,0|0|0,1:3|1:0|1:3,0:0:0:0:
296,251,160451,2,0,L|290:196,1,40,2|0,3:0|1:3,0:0:0:0:
298,167,160689,2,0,L|341:125,1,40,0|0,3:0|1:3,0:0:0:0:
370,133,160927,2,0,L|398:160,1,40,0|0,1:3|3:0,0:0:0:0:
417,200,161165,2,0,L|420:246,1,40,0|0,1:3|1:3,0:0:0:0:
420,325,161403,5,2,0:1:0:0:
98,335,163308,53,4,3:1:0:0:
59,232,163546,1,0,3:0:0:0:
46,240,163665,1,0,3:0:0:0:
33,248,163784,2,0,P|21:196|64:141,1,100,2|0,3:0|3:0,0:0:0:0:
163,94,164261,1,10,0:3:0:0:
74,55,164499,1,0,3:0:0:0:
149,194,164737,2,0,L|144:307,1,100,10|0,0:3|3:0,0:0:0:0:
137,307,165094,1,0,0:0:0:0:
130,320,165213,54,0,P|186:337|252:299,1,100,2|0,3:0|0:0,0:0:0:0:
237,319,165570,1,0,3:0:0:0:
250,313,165689,2,0,L|255:184,1,100,2|0,3:0|3:0,0:0:0:0:
163,111,166165,2,0,P|206:121|275:98,1,100,10|0,0:3|3:0,0:0:0:0:
385,54,166642,1,10,0:3:0:0:
364,67,166761,1,8,3:0:0:0:
352,89,166880,1,0,3:0:0:0:
354,113,166999,1,0,3:0:0:0:
369,133,167118,22,0,L|473:127,1,100,4|0,3:1|0:0,0:0:0:0:
482,120,167475,1,0,3:0:0:0:
494,112,167594,2,0,L|497:247,1,100,2|0,3:0|3:0,0:0:0:0:
497,353,168070,1,10,0:3:0:0:
428,283,168308,1,0,3:0:0:0:
357,360,168546,2,0,P|311:362|258:345,1,100,10|0,0:3|3:0,0:0:0:0:
144,343,169023,54,0,P|192:294|166:239,1,100,2|0,3:0|0:0,0:0:0:0:
178,256,169380,1,0,3:0:0:0:
168,244,169499,2,0,L|65:241,1,100,2|0,3:0|3:0,0:0:0:0:
7,129,169975,1,10,0:3:0:0:
26,143,170094,1,10,0:3:0:0:
51,144,170213,1,0,3:0:0:0:
72,132,170332,1,0,3:0:0:0:
83,110,170451,2,0,L|73:51,3,50,10|10|10|10,0:3|0:3|0:3|0:3,0:0:0:0:
97,33,170927,22,0,L|231:34,1,100,4|0,3:1|3:0,0:0:0:0:
211,30,171284,1,0,3:0:0:0:
225,26,171403,2,0,P|196:70|218:138,1,100,2|0,3:0|3:0,0:0:0:0:
286,219,171880,1,10,0:3:0:0:
293,121,172118,1,0,3:0:0:0:
182,212,172356,2,0,L|176:323,1,100,10|0,0:3|3:0,0:0:0:0:
168,324,172713,1,0,3:0:0:0:
160,336,172832,54,0,L|273:344,1,100,2|0,3:0|0:0,0:0:0:0:
271,352,173189,1,0,3:0:0:0:
282,361,173308,2,0,P|333:328|324:263,1,100,2|0,3:0|3:0,0:0:0:0:
269,188,173784,1,12,0:3:0:0:
339,114,174023,1,0,3:0:0:0:
423,216,174261,1,10,3:3:0:0:
462,95,174499,1,0,3:0:0:0:
450,104,174618,1,0,3:0:0:0:
438,113,174737,22,0,L|338:113,1,100,4|0,3:1|0:0,0:0:0:0:
324,106,175094,1,0,3:0:0:0:
310,99,175213,2,0,P|264:134|276:185,1,100,2|0,3:0|3:0,0:0:0:0:
327,298,175689,1,10,0:3:0:0:
356,201,175927,1,0,3:0:0:0:
232,283,176165,2,0,P|188:283|123:279,1,100,10|0,0:3|3:0,0:0:0:0:
23,207,176642,53,10,0:3:0:0:
21,174,176761,1,10,0:3:0:0:
41,148,176880,1,0,3:0:0:0:
72,140,176999,2,0,L|174:151,1,100,0|10,3:0|0:3,0:0:0:0:
204,153,177356,21,10,0:3:0:0:
224,140,177475,1,10,0:3:0:0:
232,116,177594,1,10,0:3:0:0:
224,93,177713,1,10,0:3:0:0:
203,81,177832,2,0,L|131:70,1,50,0|10,3:0|0:3,0:0:0:0:
249,3,178070,53,12,0:3:0:0:
372,59,178308,1,10,0:3:0:0:
372,59,178427,1,10,0:3:0:0:
372,59,178546,22,0,L|386:171,1,100,4|0,3:1|0:0,0:0:0:0:
395,167,178903,1,0,3:0:0:0:
405,177,179023,2,0,P|414:228|373:282,1,100,2|0,3:0|3:0,0:0:0:0:
262,287,179499,1,10,0:3:0:0:
343,350,179737,1,0,3:0:0:0:
191,364,179975,2,0,L|80:339,1,100,8|0,0:3|3:0,0:0:0:0:
78,342,180332,1,0,0:0:0:0:
63,343,180451,54,0,P|80:290|83:227,1,100,2|0,3:0|0:0,0:0:0:0:
75,233,180808,1,0,3:0:0:0:
66,221,180927,2,0,P|125:221|173:189,1,100,2|0,3:0|3:0,0:0:0:0:
206,76,181403,1,10,0:3:0:0:
267,158,181642,1,0,3:0:0:0:
116,110,181880,1,10,0:3:0:0:
205,46,182118,1,0,3:0:0:0:
205,61,182237,1,0,3:0:0:0:
206,76,182356,22,0,P|255:92|314:64,1,100,4|0,3:1|0:0,0:0:0:0:
309,65,182713,1,0,3:0:0:0:
318,53,182832,2,0,L|335:174,1,100,2|0,3:0|3:0,0:0:0:0:
367,286,183308,1,10,0:3:0:0:
271,239,183546,1,0,3:0:0:0:
436,238,183784,2,0,P|454:277|434:339,1,100,8|0,0:3|3:0,0:0:0:0:
431,342,184142,1,0,0:0:0:0:
422,353,184261,54,0,L|314:356,1,100,2|0,3:0|3:0,0:0:0:0:
307,360,184618,1,0,3:0:0:0:
292,365,184737,2,0,P|260:329|273:278,1,100,2|0,3:0|3:0,0:0:0:0:
359,171,185213,1,10,0:3:0:0:
343,190,185332,1,10,0:3:0:0:
321,200,185451,1,0,3:0:0:0:
296,200,185570,1,0,3:0:0:0:
273,189,185689,22,0,L|248:116,1,50,10|10,0:3|0:3,0:0:0:0:
178,130,185927,2,0,L|153:57,1,50,10|10,0:3|0:3,0:0:0:0:
91,15,186165,54,0,P|62:73|78:123,1,100,4|0,3:1|3:0,0:0:0:0:
78,116,186523,1,0,3:0:0:0:
88,127,186642,2,0,P|93:175|71:233,1,100,2|0,3:0|3:0,0:0:0:0:
31,352,187118,1,10,0:3:0:0:
31,352,187594,2,0,L|144:341,1,100,10|0,0:3|3:0,0:0:0:0:
255,356,188070,22,0,P|222:316|235:235,1,100,2|0,3:0|3:0,0:0:0:0:
224,256,188427,1,0,3:0:0:0:
230,242,188546,2,0,L|339:224,1,100,2|0,3:0|3:0,0:0:0:0:
471,296,189023,1,12,0:3:0:0:
481,165,189261,1,0,3:0:0:0:
328,225,189499,2,0,P|286:225|231:184,1,100,10|0,0:3|3:0,0:0:0:0:
232,181,189856,1,0,3:0:0:0:
228,166,189975,54,0,P|173:154|116:186,1,100,4|0,3:1|0:0,0:0:0:0:
123,158,190332,1,0,3:0:0:0:
112,147,190451,2,0,L|104:259,1,100,2|0,3:0|3:0,0:0:0:0:
36,357,190927,2,0,P|98:326|142:343,1,100,10|0,0:3|3:0,0:0:0:0:
256,381,191403,2,0,L|258:265,1,100,10|0,0:3|3:0,0:0:0:0:
359,202,191880,21,10,0:3:0:0:
356,226,191999,1,10,0:3:0:0:
363,250,192118,1,0,3:0:0:0:
379,269,192237,2,0,L|484:257,1,100,0|10,3:0|0:3,0:0:0:0:
490,248,192594,1,10,0:3:0:0:
500,236,192713,1,10,0:3:0:0:
510,225,192832,2,0,L|513:157,1,50,10|10,0:3|0:3,0:0:0:0:
437,150,193070,2,0,L|440:82,1,50,0|10,3:0|0:3,0:0:0:0:
373,18,193308,53,14,0:3:0:0:
287,104,193546,1,10,0:3:0:0:
287,104,193665,1,10,0:3:0:0:
287,104,193784,1,4,3:1:0:0:
256,192,193903,12,0,197594,0:0:0:0:
388,117,209023,54,0,L|260:116,1,120,4|0,3:1|3:0,0:0:0:0:
220,108,209499,2,0,P|226:162|194:203,1,80,0|0,1:0|3:0,0:0:0:0:
129,283,209975,1,8,0:3:0:0:
129,283,210451,1,8,1:3:0:0:
60,215,210689,1,0,3:0:0:0:
60,215,210808,1,0,3:0:0:0:
60,215,210927,6,0,P|74:146|64:76,1,120,2|0,1:3|3:0,0:0:0:0:
36,62,211403,2,0,P|102:72|134:45,1,80,0|0,1:0|3:0,0:0:0:0:
151,41,211761,1,0,3:0:0:0:
151,41,211880,1,8,0:3:0:0:
294,168,212356,1,8,1:3:0:0:
390,46,212594,1,0,3:0:0:0:
390,46,212713,1,0,3:0:0:0:
390,46,212832,22,0,L|405:176,1,120,4|0,3:1|3:0,0:0:0:0:
449,179,213308,2,0,P|407:221|411:252,1,80,0|0,1:0|3:0,0:0:0:0:
462,360,213784,1,8,0:3:0:0:
462,360,214261,1,8,1:3:0:0:
367,377,214499,1,0,3:0:0:0:
367,377,214618,1,0,3:0:0:0:
367,377,214737,22,0,P|313:354|226:350,1,120,2|0,1:3|3:0,0:0:0:0:
207,364,215213,2,0,L|232:256,1,80,0|0,1:0|3:0,0:0:0:0:
250,245,215570,1,0,3:0:0:0:
250,245,215689,5,8,1:3:0:0:
253,225,215808,1,8,0:3:0:0:
249,206,215927,1,0,1:0:0:0:
237,190,216046,1,8,0:3:0:0:
219,181,216165,2,0,L|161:187,3,40,2|0|8|8,3:3|3:0|0:3|0:3,0:0:0:0:
137,209,216642,6,0,P|84:191|105:115,1,120,4|0,3:1|3:0,0:0:0:0:
54,94,217118,2,0,L|147:74,1,80,0|0,1:0|3:0,0:0:0:0:
264,36,217594,1,8,0:3:0:0:
264,36,218070,1,8,1:3:0:0:
342,91,218308,1,0,3:0:0:0:
342,91,218427,1,0,3:0:0:0:
342,91,218546,22,0,L|351:232,1,120,2|0,1:3|3:0,0:0:0:0:
363,257,219023,2,0,P|341:290|300:292,1,80,0|0,1:0|3:0,0:0:0:0:
257,278,219380,1,0,3:0:0:0:
257,278,219499,1,8,1:3:0:0:
165,109,219975,1,8,1:3:0:0:
137,278,220213,1,0,3:0:0:0:
137,278,220332,1,0,3:0:0:0:
137,278,220451,22,0,L|270:278,1,120,4|0,3:1|3:0,0:0:0:0:
299,299,220927,2,0,P|327:273|336:201,1,80,0|0,1:0|3:0,0:0:0:0:
342,104,221403,1,8,1:3:0:0:
342,104,221880,1,8,1:3:0:0:
263,49,222118,1,0,3:0:0:0:
263,49,222237,1,0,3:0:0:0:
263,49,222356,6,0,L|133:47,1,120,2|0,1:3|3:0,0:0:0:0:
95,47,222832,2,0,P|111:79|108:157,1,80,0|0,1:0|3:0,0:0:0:0:
151,243,223308,1,8,1:3:0:0:
163,215,223427,1,8,0:3:0:0:
185,195,223546,1,0,1:0:0:0:
213,186,223665,1,8,0:3:0:0:
243,189,223784,6,0,L|267:242,1,40,8|8,1:3|0:3,0:0:0:0:
350,240,224023,2,0,L|319:289,1,40,8|8,0:3|0:3,0:0:0:0:
