osu file format v14

[General]
AudioFilename: audio.mp3
AudioLeadIn: 0
PreviewTime: 55770
Countdown: 0
SampleSet: Soft
StackLeniency: 0.7
Mode: 3
LetterboxInBreaks: 0
SpecialStyle: 0
WidescreenStoryboard: 0

[Editor]
DistanceSpacing: 1
BeatDivisor: 4
GridSize: 4
TimelineZoom: 1.2

[Metadata]
Title:Hope
TitleUnicode:Hope
Artist:Yuyoyuppe
ArtistUnicode:ゆよゆっぺ
Creator:LLENN-
Version:Easy
Source:
Tags:VOCALO TEARS feat. 初音ミク Hatsune Miku FAMoss Solitude Freak novelty rock metal japanese VOCALOID Hall of Fame 殿堂 dendou Story of Hope DJ'TEKINA//SOMETHING YYYP-0001 VOC@LOID M@STER 9 MASTER
BeatmapID:2263461
BeatmapSetID:1082090

[Difficulty]
HPDrainRate:7
CircleSize:4
OverallDifficulty:7
ApproachRate:5
SliderMultiplier:1.2
SliderTickRate:1

[Events]
//Background and Video events
0,0,"BG.jpg",0,0
//Break Periods
//Storyboard Layer 0 (Background)
//Storyboard Layer 1 (Fail)
//Storyboard Layer 2 (Pass)
//Storyboard Layer 3 (Foreground)
//Storyboard Layer 4 (Overlay)
//Storyboard Sound Samples

[TimingPoints]
1770,428.571428571429,4,2,1,50,1,0
15752,-100,4,2,1,30,0,0
29252,-100,4,2,1,40,0,0
42966,-100,4,2,1,50,0,0
56627,-100,4,2,1,50,0,1
84055,-100,4,2,1,50,0,0

[HitObjects]
192,192,1770,5,2,0:0:0:0:
448,192,1770,1,4,0:0:0:0:
320,192,2091,1,2,0:0:0:0:
192,192,2412,1,2,0:0:0:0:
64,192,2627,1,8,0:0:0:0:
448,192,2627,1,0,0:0:0:0:
192,192,3055,1,2,0:0:0:0:
320,192,3055,1,4,0:0:0:0:
64,192,3377,1,2,0:0:0:0:
320,192,3698,1,2,0:0:0:0:
64,192,3912,1,8,0:0:0:0:
448,192,3912,1,4,0:0:0:0:
192,192,4341,1,8,0:0:0:0:
320,192,4341,1,4,0:0:0:0:
64,192,4770,1,8,0:0:0:0:
448,192,4770,1,4,0:0:0:0:
192,192,5198,1,2,0:0:0:0:
320,192,5198,1,4,0:0:0:0:
64,192,5520,1,2,0:0:0:0:
192,192,5841,1,2,0:0:0:0:
320,192,6055,1,8,0:0:0:0:
448,192,6055,1,0,0:0:0:0:
64,192,6484,1,2,0:0:0:0:
192,192,6484,1,4,0:0:0:0:
320,192,6805,1,2,0:0:0:0:
192,192,7127,1,2,0:0:0:0:
64,192,7341,1,8,0:0:0:0:
448,192,7341,1,4,0:0:0:0:
192,192,7770,1,8,0:0:0:0:
320,192,7770,1,4,0:0:0:0:
448,192,7984,1,8,0:0:0:0:
64,192,8198,128,12,8627:0:0:0:0:
320,192,8627,1,2,0:0:0:0:
448,192,8627,1,4,0:0:0:0:
192,192,8948,1,2,0:0:0:0:
320,192,9270,1,2,0:0:0:0:
192,192,9484,1,8,0:0:0:0:
448,192,9484,1,0,0:0:0:0:
64,192,9912,1,2,0:0:0:0:
320,192,9912,1,4,0:0:0:0:
192,192,10234,1,2,0:0:0:0:
448,192,10555,1,2,0:0:0:0:
64,192,10770,1,8,0:0:0:0:
192,192,10770,1,4,0:0:0:0:
320,192,11198,1,8,0:0:0:0:
448,192,11198,1,4,0:0:0:0:
64,192,11627,1,8,0:0:0:0:
192,192,11627,1,4,0:0:0:0:
320,192,12055,1,2,0:0:0:0:
448,192,12055,1,4,0:0:0:0:
192,192,12377,1,2,0:0:0:0:
320,192,12698,1,2,0:0:0:0:
192,192,12912,1,8,0:0:0:0:
448,192,12912,1,0,0:0:0:0:
64,192,13341,1,2,0:0:0:0:
320,192,13341,1,4,0:0:0:0:
192,192,13662,1,2,0:0:0:0:
320,192,13984,1,2,0:0:0:0:
64,192,14198,1,8,0:0:0:0:
448,192,14198,1,4,0:0:0:0:
192,192,14627,1,8,0:0:0:0:
320,192,14627,1,4,0:0:0:0:
64,192,14841,1,8,0:0:0:0:
448,192,15055,128,12,15484:0:0:0:0:
192,192,15484,1,2,0:0:0:0:
320,192,15484,1,4,0:0:0:0:
64,192,15698,1,0,0:0:0:0:
448,192,16127,1,0,0:0:0:0:
320,192,16341,1,0,0:0:0:0:
64,192,16770,1,0,0:0:0:0:
192,192,16984,1,0,0:0:0:0:
320,192,17412,1,0,0:0:0:0:
448,192,17627,1,0,0:0:0:0:
64,192,18055,1,0,0:0:0:0:
192,192,18484,1,0,0:0:0:0:
320,192,18912,1,0,0:0:0:0:
448,192,19555,1,0,0:0:0:0:
64,192,20198,1,0,0:0:0:0:
192,192,20412,1,0,0:0:0:0:
448,192,20841,1,0,0:0:0:0:
320,192,21270,1,0,0:0:0:0:
64,192,21912,1,0,0:0:0:0:
192,192,22341,1,0,0:0:0:0:
320,192,22984,1,0,0:0:0:0:
448,192,23627,1,0,0:0:0:0:
64,192,23841,1,0,0:0:0:0:
320,192,24270,1,0,0:0:0:0:
192,192,24698,1,0,0:0:0:0:
448,192,25127,1,0,0:0:0:0:
64,192,25555,1,0,0:0:0:0:
320,192,25770,1,0,0:0:0:0:
448,192,26412,1,0,0:0:0:0:
320,192,27055,1,0,0:0:0:0:
64,192,27270,128,0,28341:0:0:0:0:
448,192,28341,1,0,0:0:0:70:ride06.wav
320,192,28662,1,0,0:0:0:70:ride07.wav
192,192,28984,1,0,0:0:0:30:ride08.wav
64,192,29198,1,2,0:0:0:0:
448,192,29198,128,4,30055:0:0:0:0:
192,192,30055,1,8,0:0:0:0:
320,192,30055,1,0,0:0:0:0:
192,192,30698,1,2,0:0:0:0:
320,192,30912,128,2,31770:0:0:0:0:
64,192,31770,1,8,0:0:0:0:
192,192,31770,1,0,0:0:0:0:
448,192,32412,1,2,0:0:0:0:
64,192,32627,128,2,33484:0:0:0:0:
192,192,33484,1,8,0:0:0:0:
448,192,33484,1,0,0:0:0:0:
320,192,34127,1,2,0:0:0:0:
448,192,34341,128,2,35198:0:0:0:0:
64,192,35198,1,8,0:0:0:0:
320,192,35198,1,0,0:0:0:0:
192,192,35841,1,2,0:0:0:0:
320,192,36055,128,2,36912:0:0:0:0:
64,192,36912,1,8,0:0:0:0:
448,192,36912,1,0,0:0:0:0:
192,192,37555,1,2,0:0:0:0:
64,192,37770,128,2,38627:0:0:0:0:
192,192,38627,1,8,0:0:0:0:
448,192,38627,1,0,0:0:0:0:
320,192,39270,1,2,0:0:0:0:
192,192,39484,128,2,40341:0:0:0:0:
64,192,40341,1,8,0:0:0:0:
448,192,40341,1,0,0:0:0:0:
192,192,40984,1,2,0:0:0:0:
448,192,41198,128,2,42055:0:0:0:0:
320,192,42055,1,8,0:0:0:0:
192,192,42055,1,0,0:0:0:0:
64,192,42484,1,0,0:0:0:70:tom03.wav
320,192,42912,1,2,0:0:0:0:
448,192,42912,1,4,0:0:0:0:
192,192,43234,1,2,0:0:0:0:
320,192,43555,1,2,0:0:0:0:
64,192,43770,1,8,0:0:0:0:
448,192,43770,1,0,0:0:0:0:
192,192,44412,1,2,0:0:0:0:
320,192,44627,1,2,0:0:0:0:
448,192,44948,1,2,0:0:0:0:
64,192,45270,1,2,0:0:0:0:
192,192,45484,1,8,0:0:0:0:
320,192,45484,1,0,0:0:0:0:
64,192,45912,1,2,0:0:0:0:
320,192,46127,1,0,0:0:0:70:ride06.wav
192,192,46341,1,2,0:0:0:0:
448,192,46341,1,4,0:0:0:0:
64,192,46662,1,2,0:0:0:0:
320,192,46984,1,2,0:0:0:0:
192,192,47198,1,8,0:0:0:0:
448,192,47198,1,0,0:0:0:0:
320,192,47841,1,2,0:0:0:0:
64,192,48055,1,2,0:0:0:0:
192,192,48377,1,2,0:0:0:0:
448,192,48698,1,2,0:0:0:0:
192,192,48912,1,8,0:0:0:0:
320,192,48912,1,0,0:0:0:0:
64,192,49341,1,2,0:0:0:0:
448,192,49555,1,0,0:0:0:70:ride06.wav
64,192,49770,1,2,0:0:0:0:
192,192,49770,1,4,0:0:0:0:
448,192,50091,1,2,0:0:0:0:
64,192,50412,1,2,0:0:0:0:
192,192,50627,1,8,0:0:0:0:
320,192,50627,1,0,0:0:0:0:
448,192,51270,1,2,0:0:0:0:
64,192,51484,1,2,0:0:0:0:
192,192,51805,1,2,0:0:0:0:
320,192,52127,1,2,0:0:0:0:
64,192,52341,1,8,0:0:0:0:
448,192,52341,1,0,0:0:0:0:
192,192,52770,1,2,0:0:0:0:
320,192,52984,1,0,0:0:0:70:ride06.wav
64,192,53198,1,2,0:0:0:0:
192,192,53198,1,4,0:0:0:0:
448,192,53520,1,2,0:0:0:0:
320,192,53841,1,2,0:0:0:0:
64,192,54055,1,8,0:0:0:0:
192,192,54055,1,0,0:0:0:0:
448,192,54698,1,2,0:0:0:0:
64,192,55770,128,0,56198:0:0:0:0:
448,192,56198,128,0,56627:0:0:0:0:
192,192,56627,1,2,0:0:0:0:
320,192,56627,1,4,0:0:0:0:
448,192,56948,1,2,0:0:0:0:
192,192,57270,1,2,0:0:0:0:
64,192,57484,1,8,0:0:0:0:
320,192,57484,1,0,0:0:0:0:
192,192,57912,1,4,0:0:0:0:
448,192,58127,1,2,0:0:0:0:
64,192,58341,1,2,0:0:0:0:
192,192,58341,1,4,0:0:0:0:
320,192,58662,1,2,0:0:0:0:
192,192,58984,1,2,0:0:0:0:
64,192,59198,1,8,0:0:0:0:
448,192,59198,1,4,0:0:0:0:
192,192,59627,1,8,0:0:0:0:
320,192,59627,1,4,0:0:0:0:
64,192,60055,1,2,0:0:0:0:
448,192,60055,1,4,0:0:0:0:
320,192,60377,1,2,0:0:0:0:
64,192,60698,1,2,0:0:0:0:
320,192,60912,1,8,0:0:0:0:
448,192,60912,1,0,0:0:0:0:
192,192,61341,1,4,0:0:0:0:
320,192,61555,1,2,0:0:0:0:
64,192,61770,1,2,0:0:0:0:
192,192,61770,1,4,0:0:0:0:
448,192,62091,1,2,0:0:0:0:
320,192,62412,1,2,0:0:0:0:
192,192,62627,1,8,0:0:0:0:
448,192,62627,1,4,0:0:0:0:
64,192,63055,128,12,63484:0:0:0:0:
192,192,63484,1,2,0:0:0:0:
320,192,63484,1,4,0:0:0:0:
448,192,63805,1,2,0:0:0:0:
320,192,64127,1,2,0:0:0:0:
192,192,64341,1,8,0:0:0:0:
448,192,64341,1,0,0:0:0:0:
64,192,64770,1,4,0:0:0:0:
320,192,64984,1,2,0:0:0:0:
192,192,65198,1,2,0:0:0:0:
448,192,65198,1,4,0:0:0:0:
320,192,65520,1,2,0:0:0:0:
64,192,65841,1,2,0:0:0:0:
320,192,66055,1,8,0:0:0:0:
448,192,66055,1,4,0:0:0:0:
192,192,66484,1,8,0:0:0:0:
320,192,66484,1,4,0:0:0:0:
64,192,66912,1,2,0:0:0:0:
448,192,66912,1,4,0:0:0:0:
192,192,67234,1,2,0:0:0:0:
320,192,67555,1,2,0:0:0:0:
192,192,67770,1,8,0:0:0:0:
448,192,67770,1,0,0:0:0:0:
320,192,68198,1,4,0:0:0:0:
448,192,68412,1,2,0:0:0:0:
64,192,68627,1,2,0:0:0:0:
192,192,68627,1,4,0:0:0:0:
448,192,68948,1,2,0:0:0:0:
64,192,69270,1,2,0:0:0:0:
192,192,69484,1,8,0:0:0:0:
320,192,69484,1,4,0:0:0:0:
448,192,69912,128,12,70341:0:0:0:0:
192,192,70341,1,2,0:0:0:0:
320,192,70341,1,4,0:0:0:0:
448,192,70662,1,2,0:0:0:0:
320,192,70984,1,2,0:0:0:0:
64,192,71198,1,8,0:0:0:0:
192,192,71198,1,0,0:0:0:0:
64,192,71627,1,4,0:0:0:0:
192,192,71841,1,2,0:0:0:0:
320,192,72055,1,2,0:0:0:0:
448,192,72055,1,4,0:0:0:0:
64,192,72377,1,2,0:0:0:0:
320,192,72698,1,2,0:0:0:0:
64,192,72912,1,8,0:0:0:0:
448,192,72912,1,4,0:0:0:0:
192,192,73341,1,8,0:0:0:0:
320,192,73341,1,4,0:0:0:0:
64,192,73770,1,2,0:0:0:0:
448,192,73770,1,4,0:0:0:0:
320,192,74091,1,2,0:0:0:0:
192,192,74412,1,2,0:0:0:0:
320,192,74627,1,8,0:0:0:0:
448,192,74627,1,0,0:0:0:0:
64,192,75055,1,4,0:0:0:0:
448,192,75270,1,2,0:0:0:0:
192,192,75484,1,2,0:0:0:0:
320,192,75484,1,4,0:0:0:0:
64,192,75805,1,2,0:0:0:0:
320,192,76127,1,2,0:0:0:0:
192,192,76341,1,8,0:0:0:0:
448,192,76341,1,4,0:0:0:0:
64,192,76770,128,12,77198:0:0:0:0:
192,192,77198,1,2,0:0:0:0:
448,192,77198,1,4,0:0:0:0:
320,192,77520,1,2,0:0:0:0:
64,192,77841,1,2,0:0:0:0:
320,192,78055,1,8,0:0:0:0:
448,192,78055,1,0,0:0:0:0:
192,192,78484,1,4,0:0:0:0:
320,192,78698,1,2,0:0:0:0:
64,192,78912,1,2,0:0:0:0:
192,192,78912,1,4,0:0:0:0:
448,192,79234,1,2,0:0:0:0:
320,192,79555,1,2,0:0:0:0:
64,192,79770,1,8,0:0:0:0:
192,192,79770,1,4,0:0:0:0:
64,192,80198,1,8,0:0:0:0:
448,192,80198,1,4,0:0:0:0:
192,192,80627,1,2,0:0:0:0:
320,192,80627,1,4,0:0:0:0:
448,192,80948,1,2,0:0:0:0:
320,192,81270,1,2,0:0:0:0:
64,192,81484,1,8,0:0:0:0:
192,192,81484,1,0,0:0:0:0:
320,192,81912,1,4,0:0:0:0:
192,192,82127,1,2,0:0:0:0:
320,192,82341,1,2,0:0:0:0:
448,192,82341,1,4,0:0:0:0:
64,192,82662,1,2,0:0:0:0:
320,192,82984,1,2,0:0:0:0:
64,192,83198,1,2,0:0:0:0:
448,192,83198,1,4,0:0:0:0:
192,192,83520,1,2,0:0:0:0:
320,192,83520,1,4,0:0:0:0:
64,192,83841,1,2,0:0:0:0:
448,192,83841,1,4,0:0:0:0:
192,192,84055,1,2,0:0:0:0:
320,192,84055,1,4,0:0:0:0:
64,192,84377,1,2,0:0:0:0:
448,192,84698,1,2,0:0:0:0:
64,192,84912,1,8,0:0:0:0:
192,192,84912,1,0,0:0:0:0:
192,192,85341,1,2,0:0:0:0:
320,192,85341,1,4,0:0:0:0:
448,192,85662,1,2,0:0:0:0:
64,192,85984,1,2,0:0:0:0:
192,192,86198,1,8,0:0:0:0:
448,192,86198,1,4,0:0:0:0:
64,192,86627,1,8,0:0:0:0:
320,192,86627,1,4,0:0:0:0:
192,192,87055,1,8,0:0:0:0:
448,192,87055,1,4,0:0:0:0:
64,192,87484,1,2,0:0:0:0:
320,192,87484,1,4,0:0:0:0:
192,192,87805,1,2,0:0:0:0:
320,192,88127,1,2,0:0:0:0:
64,192,88341,1,8,0:0:0:0:
448,192,88341,1,0,0:0:0:0:
192,192,88770,1,2,0:0:0:0:
320,192,88770,1,4,0:0:0:0:
64,192,89091,1,2,0:0:0:0:
448,192,89412,1,2,0:0:0:0:
64,192,89627,1,8,0:0:0:0:
320,192,89627,1,4,0:0:0:0:
192,192,90055,1,12,0:0:0:0:
320,192,90270,1,8,0:0:0:0:
448,192,90484,128,12,90912:0:0:0:0:
64,192,90912,1,2,0:0:0:0:
320,192,90912,1,4,0:0:0:0:
448,192,91234,1,2,0:0:0:0:
320,192,91555,1,2,0:0:0:0:
64,192,91770,1,8,0:0:0:0:
192,192,91770,1,0,0:0:0:0:
320,192,92198,1,2,0:0:0:0:
448,192,92198,1,4,0:0:0:0:
64,192,92520,1,2,0:0:0:0:
192,192,92841,1,2,0:0:0:0:
64,192,93055,1,8,0:0:0:0:
320,192,93055,1,4,0:0:0:0:
192,192,93484,1,8,0:0:0:0:
448,192,93484,1,4,0:0:0:0:
64,192,93912,1,8,0:0:0:0:
320,192,93912,1,4,0:0:0:0:
192,192,94341,1,2,0:0:0:0:
448,192,94341,1,4,0:0:0:0:
320,192,94662,1,2,0:0:0:0:
192,192,94984,1,2,0:0:0:0:
64,192,95198,1,8,0:0:0:0:
320,192,95198,1,0,0:0:0:0:
64,192,95627,1,2,0:0:0:0:
448,192,95627,1,4,0:0:0:0:
192,192,95948,1,2,0:0:0:0:
320,192,96270,1,2,0:0:0:0:
64,192,96484,1,8,0:0:0:0:
192,192,96484,1,4,0:0:0:0:
448,192,96912,1,12,0:0:0:0:
64,192,97127,1,8,0:0:0:0:
320,192,97341,1,8,0:0:0:0:
192,192,97662,1,8,0:0:0:0:
