osu file format v14

[General]
AudioFilename: audio.mp3
AudioLeadIn: 0
PreviewTime: 21426
Countdown: 0
SampleSet: None
StackLeniency: 0.3
Mode: 0
LetterboxInBreaks: 0
WidescreenStoryboard: 1

[Editor]
Bookmarks: 9278,21426,22308,36425
DistanceSpacing: 1.2
BeatDivisor: 6
GridSize: 4
TimelineZoom: 2.3

[Metadata]
Title:Hidamari no Uta (Ringtone ver.)
TitleUnicode:陽だまりの詩 (Ringtone ver.)
Artist:Yuyoyuppe
ArtistUnicode:ゆよゆっぺ
Creator:Nice Aesthetics
Version:mambalT:M:
Source:
Tags:
BeatmapID:2095386
BeatmapSetID:1001069

[Difficulty]
HPDrainRate:3
CircleSize:4
OverallDifficulty:9
ApproachRate:9.4
SliderMultiplier:1.4
SliderTickRate:1

[Events]
//Background and Video events
0,0,"bg.png",0,0
//Break Periods
//Storyboard Layer 0 (Background)
//Storyboard Layer 1 (Fail)
//Storyboard Layer 2 (Pass)
//Storyboard Layer 3 (Foreground)
//Storyboard Sound Samples

[TimingPoints]
455,441.176470588235,4,2,0,100,1,0
9278,-83.3333333333333,4,2,0,30,0,0
21426,441.176470588235,4,2,0,100,1,0
21426,-77.8210116731517,4,2,0,100,0,1
22308,-46.5116279069767,4,2,0,100,0,1
36425,-83.3333333333333,4,2,0,30,0,0
36476,441.176470588235,4,2,0,30,1,0

[HitObjects]
171,322,9278,6,0,L|236:331,1,41.9999987182618
119,258,9499,2,0,L|59:264,1,41.9999987182618
170,181,9719,1,0,0:0:0:0:
170,181,9829,1,0,0:0:0:0:
170,181,9940,2,0,L|238:190,1,41.9999987182618
357,33,10160,6,0,L|330:86,1,41.9999987182618
365,203,10381,2,0,L|387:143,1,41.9999987182618
266,44,10602,1,0,0:0:0:0:
266,44,10712,1,0,0:0:0:0:
266,44,10822,2,0,L|279:100,1,41.9999987182618
290,200,11043,2,0,L|304:147,1,41.9999987182618
180,42,11263,2,0,L|198:103,1,41.9999987182618
212,222,11484,1,0,0:0:0:0:
212,222,11594,1,0,0:0:0:0:
212,222,11704,2,0,L|218:158,1,41.9999987182618
90,37,11925,2,0,L|103:94,1,41.9999987182618
117,228,12146,2,0,L|134:163,1,41.9999987182618
177,23,12366,2,0,L|195:92,1,41.9999987182618
300,218,12587,2,0,L|306:152,1,41.9999987182618
98,349,12807,6,0,L|156:345,1,41.9999987182618
168,258,13028,2,0,L|223:278,1,41.9999987182618
281,343,13249,1,0,0:0:0:0:
281,343,13359,1,0,0:0:0:0:
281,343,13469,2,0,L|349:354,1,41.9999987182618
462,140,13690,2,0,L|446:192,1,41.9999987182618
370,253,13910,2,0,L|347:177,1,41.9999987182618
341,127,14131,1,0,0:0:0:0:
341,127,14241,1,0,0:0:0:0:
341,127,14352,2,0,L|324:49,1,41.9999987182618
165,36,14572,6,0,L|144:102,1,41.9999987182618
210,211,14793,2,0,L|199:138,1,41.9999987182618
93,173,15013,1,0,0:0:0:0:
93,173,15124,1,0,0:0:0:0:
93,173,15234,2,0,L|96:227,1,41.9999987182618
177,348,15454,2,0,L|197:282,1,41.9999987182618
293,214,15675,2,0,L|267:273,1,41.9999987182618
94,266,15896,2,0,L|157:238,1,41.9999987182618
329,349,16116,2,0,L|258:331,1,41.9999987182618
138,66,16337,6,0,L|237:57,1,83.9999974365235
275,115,16668,1,0,0:0:0:0:
147,204,16778,6,0,L|252:192,1,83.9999974365235
304,244,17109,1,0,0:0:0:0:
276,325,17219,6,0,L|219:332,1,41.9999987182618
156,339,17440,1,0,0:0:0:0:
156,339,17550,1,0,0:0:0:0:
212,209,17660,2,0,L|134:216,1,41.9999987182618
83,223,17881,1,0,0:0:0:0:
83,223,17991,1,0,0:0:0:0:
100,19,18102,6,0,L|165:36,1,41.9999987182618
164,111,18322,2,0,L|216:106,1,41.9999987182618
273,28,18543,1,0,0:0:0:0:
288,42,18653,1,0,0:0:0:0:
312,95,18763,1,0,0:0:0:0:
303,121,18874,1,0,0:0:0:0:
267,233,18984,6,0,L|200:231,1,41.9999987182618
195,322,19204,2,0,L|148:310,1,41.9999987182618
83,224,19425,1,0,0:0:0:0:
71,201,19535,1,0,0:0:0:0:
85,134,19646,1,0,0:0:0:0:
118,105,19756,1,0,0:0:0:0:
256,192,19866,12,0,21190,0:0:0:0:
139,23,21426,5,0,0:0:0:0:
141,49,21499,1,0,0:0:0:0:
147,75,21573,1,0,0:0:0:0:
156,100,21646,1,0,0:0:0:0:
167,124,21720,1,0,0:0:0:0:
182,145,21793,1,0,0:0:0:0:
203,161,21867,1,0,0:0:0:0:
225,176,21940,2,0,L|272:198,4,29.9833322810618
116,339,22308,5,0,0:0:0:0:
183,321,22381,1,0,0:0:0:0:
249,296,22455,1,0,0:0:0:0:
315,275,22528,1,0,0:0:0:0:
371,317,22602,2,0,L|435:336,1,50.1666674321493
327,15,22749,1,0,0:0:0:0:
311,84,22823,1,0,0:0:0:0:
299,152,22896,1,0,0:0:0:0:
287,221,22970,1,0,0:0:0:0:
270,288,23043,2,0,L|211:326,1,50.1666674321493
103,26,23190,5,0,0:0:0:0:
118,79,23264,1,0,0:0:0:0:
131,132,23337,1,0,0:0:0:0:
144,185,23411,1,0,0:0:0:0:
155,238,23484,1,0,0:0:0:0:
167,292,23558,1,0,0:0:0:0:
181,344,23631,1,0,0:0:0:0:
234,329,23705,2,0,L|307:302,4,50.1666674321493
436,110,24073,5,0,0:0:0:0:
382,122,24146,1,0,0:0:0:0:
327,134,24220,1,0,0:0:0:0:
273,145,24293,1,0,0:0:0:0:
261,90,24367,1,0,0:0:0:0:
207,102,24440,1,0,0:0:0:0:
152,113,24514,1,0,0:0:0:0:
98,125,24587,1,0,0:0:0:0:
109,179,24661,2,0,L|129:259,3,50.1666674321493
179,351,24955,5,0,0:0:0:0:
217,292,25028,1,0,0:0:0:0:
251,230,25102,1,0,0:0:0:0:
283,168,25175,1,0,0:0:0:0:
309,102,25249,2,0,L|234:68,1,50.1666674321493
379,238,25396,5,0,0:0:0:0:
313,211,25470,1,0,0:0:0:0:
247,187,25543,1,0,0:0:0:0:
180,163,25617,1,0,0:0:0:0:
114,138,25690,2,0,L|83:209,1,50.1666674321493
125,342,25837,5,0,0:0:0:0:
193,326,25911,1,0,0:0:0:0:
261,311,25984,1,0,0:0:0:0:
330,297,26058,1,0,0:0:0:0:
398,282,26131,2,0,L|421:348,1,50.1666674321493
449,118,26278,1,0,0:0:0:0:
380,137,26352,1,0,0:0:0:0:
313,156,26425,1,0,0:0:0:0:
246,179,26499,1,0,0:0:0:0:
178,198,26573,2,0,L|154:135,1,50.1666674321493
66,16,26720,5,0,0:0:0:0:
73,60,26793,1,0,0:0:0:0:
78,105,26867,1,0,0:0:0:0:
77,149,26940,1,0,0:0:0:0:
68,193,27014,1,0,0:0:0:0:
76,237,27087,1,0,0:0:0:0:
104,272,27161,1,0,0:0:0:0:
78,309,27234,1,0,0:0:0:0:
114,336,27308,2,0,L|100:390,1,50.1666674321493
222,356,27455,2,0,L|209:296,1,50.1666674321493
189,33,27602,5,0,0:0:0:0:
233,40,27675,1,0,0:0:0:0:
277,50,27749,1,0,0:0:0:0:
321,59,27823,1,0,0:0:0:0:
288,90,27896,1,0,0:0:0:0:
249,114,27970,1,0,0:0:0:0:
207,130,28043,1,0,0:0:0:0:
166,149,28117,1,0,0:0:0:0:
202,174,28190,1,0,0:0:0:0:
241,196,28264,1,0,0:0:0:0:
285,217,28337,1,0,0:0:0:0:
330,238,28411,1,0,0:0:0:0:
284,268,28484,1,0,0:0:0:0:
238,299,28558,1,0,0:0:0:0:
185,327,28631,1,0,0:0:0:0:
126,356,28705,1,0,0:0:0:0:
87,310,28778,2,0,L|42:240,1,50.1666674321493
60,0,28925,5,0,0:0:0:0:
52,65,28999,1,0,0:0:0:0:
37,129,29073,1,0,0:0:0:0:
24,192,29146,1,0,0:0:0:0:
12,256,29220,2,0,L|83:216,1,50.1666674321493
305,19,29367,5,0,0:0:0:0:
254,59,29440,1,0,0:0:0:0:
199,96,29514,1,0,0:0:0:0:
144,131,29587,1,0,0:0:0:0:
169,191,29661,2,0,L|214:250,1,50.1666674321493
462,76,29808,1,0,0:0:0:0:
409,114,29881,1,0,0:0:0:0:
356,152,29955,1,0,0:0:0:0:
305,192,30028,1,0,0:0:0:0:
336,249,30102,2,0,L|377:303,1,50.1666674321493
178,349,30249,5,0,0:0:0:0:
200,287,30323,1,0,0:0:0:0:
221,226,30396,1,0,0:0:0:0:
239,162,30470,1,0,0:0:0:0:
175,148,30543,2,0,L|104:134,1,50.1666674321493
312,313,30690,1,0,0:0:0:0:
329,249,30764,1,0,0:0:0:0:
344,186,30837,1,0,0:0:0:0:
358,122,30911,1,0,0:0:0:0:
375,59,30984,2,0,L|292:45,1,50.1666674321493
52,13,31131,5,0,0:0:0:0:
92,53,31205,1,0,0:0:0:0:
114,104,31278,1,0,0:0:0:0:
97,159,31352,1,0,0:0:0:0:
58,199,31425,1,0,0:0:0:0:
44,254,31499,1,0,0:0:0:0:
67,304,31573,1,0,0:0:0:0:
118,332,31646,1,0,0:0:0:0:
172,322,31720,2,0,L|235:314,3,50.1666674321493
371,322,32014,5,0,0:0:0:0:
402,276,32087,1,0,0:0:0:0:
430,228,32161,1,0,0:0:0:0:
388,192,32234,1,0,0:0:0:0:
343,158,32308,1,0,0:0:0:0:
294,132,32381,1,0,0:0:0:0:
239,104,32455,2,0,L|166:81,1,50.1666674321493
172,195,32602,2,0,L|94:211,1,50.1666674321493
194,319,32749,2,0,L|126:358,1,50.1666674321493
320,346,32896,5,0,0:0:0:0:
340,294,32970,1,0,0:0:0:0:
358,242,33043,1,0,0:0:0:0:
372,188,33117,1,0,0:0:0:0:
386,135,33190,1,0,0:0:0:0:
397,80,33264,1,0,0:0:0:0:
347,56,33337,1,0,0:0:0:0:
295,36,33411,1,0,0:0:0:0:
246,10,33484,1,0,0:0:0:0:
222,60,33558,1,0,0:0:0:0:
198,109,33631,1,0,0:0:0:0:
170,157,33705,1,0,0:0:0:0:
147,206,33778,2,0,L|109:265,5,50.1666674321493
85,88,34220,6,0,L|24:77,1,50.1666674321493
221,47,34367,2,0,L|162:26,1,50.1666674321493
363,84,34514,2,0,L|308:43,1,50.1666674321493
151,347,34661,5,0,0:0:0:0:
138,293,34734,1,0,0:0:0:0:
125,238,34808,1,0,0:0:0:0:
113,184,34881,1,0,0:0:0:0:
157,193,34955,1,0,0:0:0:0:
147,149,35028,1,0,0:0:0:0:
136,104,35102,1,0,0:0:0:0:
129,59,35175,1,0,0:0:0:0:
161,72,35249,1,0,0:0:0:0:
195,66,35323,1,0,0:0:0:0:
229,61,35396,1,0,0:0:0:0:
264,56,35470,1,0,0:0:0:0:
279,123,35543,5,0,0:0:0:0:
288,192,35617,1,0,0:0:0:0:
299,260,35690,1,0,0:0:0:0:
311,329,35764,1,0,0:0:0:0:
295,360,35837,1,0,0:0:0:0:
255,351,35910,1,0,0:0:0:0:
237,292,35984,1,0,0:0:0:0:
225,233,36057,1,0,0:0:0:0:
216,173,36131,1,0,0:0:0:0:
208,113,36204,1,0,0:0:0:0:
204,52,36278,5,0,0:0:0:0:
150,79,36352,2,0,L|64:97,1,50.1666674321493
