osu file format v14

[General]
AudioFilename: audio.mp3
AudioLeadIn: 0
PreviewTime: 21426
Countdown: 0
SampleSet: None
StackLeniency: 0.3
Mode: 0
LetterboxInBreaks: 0
WidescreenStoryboard: 1

[Editor]
Bookmarks: 9278,21426,22308,36425
DistanceSpacing: 0.1
BeatDivisor: 4
GridSize: 4
TimelineZoom: 2.3

[Metadata]
Title:Hidamari no Uta (Ringtone ver.)
TitleUnicode:陽だまりの詩 (Ringtone ver.)
Artist:Yuyoyuppe
ArtistUnicode:ゆよゆっぺ
Creator:Nice Aesthetics
Version:Phynta's Light Insane
Source:
Tags:
BeatmapID:2262736
BeatmapSetID:999373

[Difficulty]
HPDrainRate:5
CircleSize:3.5
OverallDifficulty:7
ApproachRate:8.5
SliderMultiplier:1.3
SliderTickRate:1

[Events]
//Background and Video events
0,0,"bg.png",0,0
//Break Periods
//Storyboard Layer 0 (Background)
//Storyboard Layer 1 (Fail)
//Storyboard Layer 2 (Pass)
//Storyboard Layer 3 (Foreground)
//Storyboard Layer 4 (Overlay)
//Storyboard Sound Samples

[TimingPoints]
455,441.176470588235,4,2,1,100,1,0
9278,-83.3333333333333,4,2,1,30,0,0
21426,441.176470588235,4,2,1,100,1,0
21426,-77.8210116731517,4,2,1,100,0,1
36425,-83.3333333333333,4,2,1,30,0,0
39955,-166.666666666667,4,2,1,30,0,0
43374,-166.666666666667,4,2,1,5,0,0
43484,-166.666666666667,4,2,1,30,0,0
46903,-166.666666666667,4,2,1,5,0,0
47014,-166.666666666667,4,2,1,30,0,0

[HitObjects]
478,297,9278,6,0,L|488:376,3,77.999997619629
373,333,10160,2,0,L|383:254,3,77.999997619629
319,182,11043,2,0,P|268:171|219:178,1,77.999997619629
160,243,11484,2,0,L|166:326,1,77.999997619629
46,377,11925,2,0,L|54:296,1,77.999997619629
20,192,12366,2,0,P|71:181|120:188,1,77.999997619629
171,133,12807,6,0,B|189:93|189:93|182:56,3,77.999997619629
105,20,13690,2,0,P|50:23|22:21,3,77.999997619629
247,2,14572,2,0,B|289:9|289:9|311:37,1,77.999997619629
372,145,15013,2,0,B|399:177|399:177|434:182,1,77.999997619629
510,106,15454,2,0,L|497:8,1,77.999997619629
382,67,15896,2,0,L|369:165,1,77.999997619629
429,286,16337,6,0,L|511:273,3,77.999997619629
345,351,17219,2,0,L|263:338,3,77.999997619629
187,280,18102,2,0,P|143:283|87:296,1,77.999997619629
5,375,18543,2,0,P|49:378|105:391,1,77.999997619629
2,281,18984,2,0,B|0:247|0:247|9:232|9:232|8:202,1,77.999997619629
116,132,19425,2,0,B|118:166|118:166|109:181|109:181|110:211,1,77.999997619629
32,88,19866,6,0,P|62:56|101:42,1,77.999997619629
190,41,20307,2,0,P|232:50|264:77,1,77.999997619629
309,154,20749,2,0,P|321:195|314:236,1,77.999997619629
256,192,21426,12,0,22087,0:0:0:0:
187,328,22308,6,0,L|183:365,4,27.8416656895574
114,276,22749,2,0,L|110:239,5,27.8416656895574
198,230,23190,1,0,0:0:0:0:
214,225,23263,1,0,0:0:0:0:
230,224,23337,1,0,0:0:0:0:
247,225,23410,1,0,0:0:0:0:
263,229,23484,1,0,0:0:0:0:
279,236,23557,1,0,0:0:0:0:
293,245,23631,2,0,P|307:251|323:250,5,27.8416656895574
380,190,24073,6,0,L|378:158,4,27.8416656895574
472,240,24514,2,0,L|470:272,5,27.8416656895574
471,139,24955,1,0,0:0:0:0:
471,130,25028,1,0,0:0:0:0:
471,122,25102,1,0,0:0:0:0:
457,98,25175,1,0,0:0:0:0:
457,89,25248,1,0,0:0:0:0:
457,81,25322,1,0,0:0:0:0:
458,72,25396,2,0,L|488:64,5,27.8416656895574
377,22,25837,6,0,L|347:12,4,27.8416656895574
375,108,26278,2,0,L|345:118,5,27.8416656895574
275,67,26720,1,0,0:0:0:0:
266,66,26793,1,0,0:0:0:0:
258,66,26867,1,0,0:0:0:0:
249,66,26940,1,0,0:0:0:0:
241,66,27014,1,0,0:0:0:0:
233,65,27087,1,0,0:0:0:0:
224,65,27161,2,0,L|195:65,5,27.8416656895574
116,32,27602,6,0,L|113:1,4,27.8416656895574
31,61,28043,2,0,L|28:30,4,27.8416656895574
97,116,28484,6,0,L|94:143,4,27.8416656895574
182,145,28926,2,0,L|179:172,4,27.8416656895574
129,242,29367,5,0,0:0:0:0:
120,243,29440,1,0,0:0:0:0:
112,243,29514,1,0,0:0:0:0:
104,244,29587,1,0,0:0:0:0:
95,244,29661,1,0,0:0:0:0:
87,244,29734,1,0,0:0:0:0:
79,243,29808,1,0,0:0:0:0:
70,243,29881,1,0,0:0:0:0:
62,242,29955,1,0,0:0:0:0:
54,240,30028,1,0,0:0:0:0:
46,238,30102,1,0,0:0:0:0:
37,236,30175,1,0,0:0:0:0:
29,234,30249,6,0,L|27:201,4,27.8416656895574
19,326,30690,2,0,L|17:359,4,27.8416656895574
106,369,31131,5,0,0:0:0:0:
117,368,31204,1,0,0:0:0:0:
128,367,31278,1,0,0:0:0:0:
139,366,31351,1,0,0:0:0:0:
150,365,31425,1,0,0:0:0:0:
161,364,31498,1,0,0:0:0:0:
172,364,31573,2,0,L|203:369,4,27.8416656895574
226,296,32014,5,0,0:0:0:0:
223,285,32087,1,0,0:0:0:0:
219,275,32161,1,0,0:0:0:0:
215,264,32234,1,0,0:0:0:0:
211,254,32308,1,0,0:0:0:0:
207,243,32381,1,0,0:0:0:0:
204,233,32456,2,0,L|200:201,4,27.8416656895574
287,189,32896,6,0,L|321:185,4,27.8416656895574
317,270,33337,2,0,L|351:266,4,27.8416656895574
443,303,33778,6,0,L|415:299,4,27.8416656895574
413,384,34219,2,0,L|385:380,4,27.8416656895574
294,383,34661,1,0,0:0:0:0:
280,381,34734,1,0,0:0:0:0:
266,380,34808,1,0,0:0:0:0:
252,378,34881,1,0,0:0:0:0:
238,377,34955,1,0,0:0:0:0:
224,376,35028,1,0,0:0:0:0:
210,374,35102,2,0,L|176:373,5,27.8416656895574
108,314,35543,5,0,0:0:0:0:
92,315,35616,1,0,0:0:0:0:
75,317,35690,1,0,0:0:0:0:
59,319,35764,2,0,L|18:323,1,27.8416656895574
98,215,35984,5,0,0:0:0:0:
114,216,36057,1,0,0:0:0:0:
131,218,36131,1,0,0:0:0:0:
147,220,36205,2,0,L|188:224,3,27.8416656895574
256,192,36536,12,0,39734,0:0:0:0:
361,123,39955,6,0,P|324:122|425:192,1,428.999986907959
454,116,42602,2,0,B|482:15|482:15|441:38,1,136.499995834351
374,35,43484,6,0,B|331:24|275:32|231:53|194:105|194:105|173:130|148:137|116:138|78:108|81:64|103:17|158:28,1,428.999986907959
263,140,46131,2,0,P|230:178|145:205,1,136.499995834351
65,204,47014,5,0,0:0:0:0:
256,192,47124,12,0,50543,0:0:0:0:
